#TITLE:Circle Of Life;
#SUBTITLE:;
#ARTIST:Disney Grooves;
#TITLETRANSLIT:;
#SUBTITLETRANSLIT:;
#ARTISTTRANSLIT:;
#CREDIT:;
#BANNER:;
#BACKGROUND:;
#LYRICSPATH:;
#CDTITLE:./CDTITLES/DanceDanceRevolution Disney Grooves.png;
#MUSIC:Circle Of Life.mp3;
#OFFSET:-0.048;
#SAMPLESTART:44.660;
#SAMPLELENGTH:15.000;
#SELECTABLE:YES;
#BPMS:0.000=125.000;
#STOPS:;
#BGCHANGES:;

//---------------dance-single - ----------------
#NOTES:
     dance-single:
     :
     Beginner:
     1:
     0.073,0.101,0.000,0.000,0.000:
0000
0000
0000
0000
,
0000
0000
0000
0000
,
0001
0000
0000
0000
,
0000
0000
0000
0000
,
1000
0000
0000
0000
,
0000
0000
0000
0000
,
0001
0000
0000
0000
,
0001
0000
0000
0000
,
1000
0000
0000
0000
,
1000
0000
0000
0000
,
0010
0000
0000
0000
,
0010
0000
0000
0000
,
0010
0000
0000
0000
,
0010
0000
0000
0000
,
1000
0000
0000
0000
,
1000
0000
1000
0000
,
0001
0000
0000
0000
,
0001
0000
0001
0000
,
1000
0000
0000
0000
,
0001
0000
0000
0000
,
1000
0000
0000
0000
,
0001
0000
0000
0000
,
0010
0000
0000
0000
,
0010
0000
0000
0000
,
0001
0000
0000
0000
,
1000
0000
0000
0000
,
0010
0000
0000
0000
,
0010
0000
0000
0000
,
0001
0000
0000
0000
,
1000
0000
0000
0000
,
0001
0000
0000
0000
,
1000
0000
0000
0000
,
0000
0000
0000
0000
,
0100
0000
0100
0000
,
1000
0000
0000
0000
,
0100
0000
0100
0000
,
0001
0000
0000
0000
,
1000
0000
0000
0000
,
0001
0000
0000
0000
,
0010
0000
0000
0000
,
0010
0000
0000
0000
,
0010
0000
0000
0000
,
0010
0000
0000
0000
,
0100
0000
0000
0000
,
0100
0000
0000
0000
,
0100
0000
0000
0000
,
0100
0000
0000
0000
,
0001
0000
0001
0000
;

//---------------dance-single - ----------------
#NOTES:
     dance-single:
     :
     Easy:
     2:
     0.128,0.128,0.000,0.000,0.000:
0000
0000
0000
0000
,
0000
0000
0000
0000
,
0001
0000
0000
0000
,
0010
0000
0000
0000
,
1000
0000
0000
0000
,
0100
0000
0000
0000
,
0001
0000
0001
0000
,
0001
0000
0000
0000
,
1000
0000
1000
0000
,
1000
0000
0000
0000
,
0010
0000
0100
0000
,
0010
0000
0100
0000
,
0010
0000
0100
0000
,
0010
0000
0100
0000
,
1000
1000
0000
0000
,
1000
0000
1000
0000
,
0001
0001
0000
0000
,
0001
0000
0001
0000
,
1000
0000
1000
0000
,
0001
0000
0001
0000
,
1000
0000
1000
0000
,
0001
0000
0001
0000
,
0010
0000
0010
0000
,
0010
0000
0000
0000
,
0001
0001
0000
0000
,
1000
1000
0000
0000
,
0010
0010
0000
0000
,
0010
0010
0000
0000
,
0001
0000
0001
0000
,
1000
0000
1000
0000
,
0001
0000
1000
0000
,
1000
0000
0001
0000
,
0000
0000
0000
0000
,
0100
0000
0100
0000
,
1000
0000
1000
0000
,
0100
0000
0100
0000
,
0001
0000
0001
0000
,
1000
1000
0000
0000
,
0001
0001
0000
0000
,
0010
0000
1000
0000
,
0010
0000
1000
0000
,
0010
0000
1000
0000
,
0010
0000
1000
0000
,
0100
0000
0001
0000
,
0100
0000
0001
0000
,
0100
0000
0001
0000
,
0100
0000
0001
0000
,
0001
0000
0000
0000
1000
0000
0000
0001
;

//---------------dance-single - ----------------
#NOTES:
     dance-single:
     :
     Medium:
     4:
     0.198,0.205,0.021,0.064,0.000:
0000
0000
0000
0000
,
0000
0000
0000
0000
,
0001
0100
1000
0000
,
0001
0000
0001
0000
,
1000
0100
0001
0000
,
1000
0000
1000
0000
,
0001
0001
1000
0000
,
1000
1000
0001
0000
,
0001
0000
1000
0000
,
2002
0000
0000
3003
,
0010
0010
0001
0000
,
0010
0010
1000
0000
,
0010
0010
0001
0000
,
0010
0010
1000
0000
,
1000
0100
0001
0000
,
1000
0000
1000
0000
,
0001
0100
1000
0000
,
0001
0000
0001
0000
,
1000
1000
0001
0000
,
0001
0001
1000
0000
,
1000
0000
0001
0000
,
2002
0000
0000
3003
,
0010
0010
0001
0000
,
0010
0010
0000
0000
,
0001
0010
0100
0000
,
1000
0010
0100
0000
,
0010
0001
0100
0000
,
0010
0000
0100
0000
,
0001
0100
0100
0000
,
1000
0100
0100
0000
,
0001
1000
0100
0000
,
1000
0001
0100
0000
,
0010
0000
0000
0000
,
0100
1000
0010
0000
,
1000
0000
0010
0000
,
0100
0001
0010
0000
,
0001
0000
0010
0000
,
1000
0000
0100
0001
,
2000
0000
0002
3003
,
0010
0001
0100
0000
,
0010
0001
0100
0000
,
0010
0001
0100
0000
,
0010
0001
0100
0000
,
0010
1000
0100
0000
,
0010
1000
0100
0000
,
0010
1000
0100
0000
,
0010
1000
0100
0000
,
0001
0000
0001
0000
1000
0000
0000
0001
;

//---------------dance-single - ----------------
#NOTES:
     dance-single:
     :
     Hard:
     6:
     0.284,0.256,0.075,0.085,0.000:
0000
0000
0000
0000
,
0000
0000
0000
0000
,
0001
0100
1000
0100
,
0001
0100
0001
0100
,
1000
0100
0001
0100
,
1000
0100
1000
0100
,
0001
1000
0001
0001
,
1000
0001
1000
1000
,
0001
0001
1000
1000
,
2002
0000
0000
3003
,
0010
1000
0001
1000
,
0010
0001
1000
0001
,
0010
1000
0001
1000
,
0010
0001
1000
0001
,
1000
0100
0001
0100
,
1000
0100
1000
0100
,
0001
0100
1000
0100
,
0001
0100
0001
0100
,
1000
0001
1000
1000
,
0001
1000
0001
0001
,
1000
1000
0001
0001
,
2002
0000
0000
3003
,
0010
1000
0001
1000
,
0010
0001
0110
0000
,
0001
0010
0100
1000
,
1000
0010
0100
0001
,
0010
0001
0100
0001
,
0010
1000
0100
1000
,
0002
0000
0100
0103
,
2000
0000
0100
3100
,
0001
1000
0100
0001
,
1000
0001
0100
1000
,
0010
0010
0010
0010
,
0100
1000
0010
1000
,
1001
0000
0010
0010
,
0100
0001
0010
0001
,
1001
0000
0010
0010
,
1000
0010
0100
0001
,
2000
0000
0002
3003
,
0010
0001
0100
0001
,
0010
0001
0100
0001
,
0010
0001
0100
0001
,
0010
0001
0100
1001
,
0010
1000
0100
1000
,
0010
1000
0100
1000
,
0010
1000
0100
1000
,
0010
1000
0100
1001
,
0001
0000
0100
0000
0001
0000
0000
1000
;
