#VERSION:0.82;
#TITLE:Work;
#SUBTITLE:;
#ARTIST:Rihanna feat. Drake;
#TITLETRANSLIT:;
#SUBTITLETRANSLIT:;
#ARTISTTRANSLIT:;
#GENRE:TWERK TWERK TWERK TWERK TWERK;
#ORIGIN:;
#CREDIT:;
#BANNER:Work.png;
#BACKGROUND:Work-bg.png;
#PREVIEWVID:;
#JACKET:jacket.png;
#CDIMAGE:;
#DISCIMAGE:;
#LYRICSPATH:;
#CDTITLE:;
#MUSIC:Work.ogg;
#OFFSET:0.003000;
#SAMPLESTART:67.817184;
#SAMPLELENGTH:16.334000;
#SELECTABLE:YES;
#BPMS:0.000=92.000;
#STOPS:;
#DELAYS:;
#WARPS:;
#TIMESIGNATURES:0.000=4=4;
#TICKCOUNTS:0.000=4;
#COMBOS:0.000=1;
#SPEEDS:0.000=1.000=0.000=0;
#SCROLLS:0.000=1.000;
#FAKES:;
#LABELS:0.000=Song Start;
#BGCHANGES:8.000=Work.avi=1.000=0=0=1=====,
99999=-nosongbg-=1.000=0=0=0 // don't automatically add -songbackground-
;
#KEYSOUNDS:;
#ATTACKS:
;

//---------------dance-single - ----------------
#NOTEDATA:;
#CHARTNAME:;
#STEPSTYPE:dance-single;
#DESCRIPTION:;
#CHARTSTYLE:;
#DIFFICULTY:Hard;
#METER:9;
#RADARVALUES:0.537691,0.597661,0.384210,0.192105,0.473148,448.000000,54.000000,27.000000,0.000000,0.000000,0.000000,0.000000,0.000000,0.537691,0.597661,0.384210,0.192105,0.473148,448.000000,54.000000,27.000000,0.000000,0.000000,0.000000,0.000000,0.000000;
#CREDIT:Ben Speirs;
#NOTES:
0000
0000
0000
0000
,
0000
0000
0000
0000
,
0000
0000
0000
0000
,
0000
0000
0000
0000
,
1100
0000
0101
0000
1100
0000
0101
0000
1100
0000
0001
0000
1000
0100
0010
0000
,
0011
0000
1010
0000
0011
0000
1010
0000
0011
0000
1000
0000
0010
1000
0001
0000
,
0101
0000
1010
0000
0101
0000
1010
0000
0101
0000
0010
0000
1000
0100
0010
0000
,
0011
0000
1100
0000
0011
0000
1100
0000
0011
0000
1000
0000
0001
1000
0010
0000
,
1100
0000
0101
0000
0011
0000
1010
0000
1001
0000
1000
0100
0010
0001
0100
0000
,
0101
0000
1010
0000
1100
0000
0011
0000
1001
0000
0010
0000
1000
0001
0100
0000
,
1002
0000
0000
0100
0000
0000
1000
0000
0103
0000
0010
0000
1000
0000
0001
0000
,
2001
0000
0000
0100
0000
0000
0001
0000
3100
0000
0010
0000
0001
0000
1000
0000
,
0010
0000
0010
0100
0000
0000
0001
0000
1000
0000
0000
0000
0010
0000
0100
0000
,
0001
0000
0001
1000
0000
0000
0100
0000
0010
0000
0000
0001
1000
0000
0001
0000
,
0100
0000
0100
0010
1000
0010
0100
0010
2000
0000
0000
0000
3001
0000
0000
0000
,
1000
0000
0100
0010
0001
0010
0100
0010
0002
0000
0000
0000
0103
0000
0010
1000
,
0000
1000
0100
0010
0000
0010
0001
1000
0000
0010
0000
0100
0001
0000
1000
0100
,
0000
0100
0010
0001
0000
0001
1000
0010
0000
0010
0100
0000
0001
1000
0001
0000
,
1000
0100
1000
0100
0000
0100
0010
0100
0010
0000
0001
0000
1000
0001
1000
0000
,
0010
0100
0010
0100
0000
0100
0001
0100
0010
0000
1000
0000
0100
0010
0001
0000
,
1100
0000
0001
0010
0100
0000
1000
0000
0101
0000
0000
0000
1000
0001
0100
0000
,
1010
0000
0001
0010
0100
0000
1000
0000
0011
0000
0000
0000
1000
0001
1000
0000
,
0010
0100
0010
0100
0001
0100
0001
0000
1000
0100
1000
0100
0010
0000
0001
0000
,
1000
0010
1000
0010
0100
0010
0100
0000
0001
1000
0001
1000
0100
0000
0010
0000
,
0002
0000
0000
1000
0000
0000
0100
0000
2003
0000
0000
0100
0000
0000
0001
0000
,
3020
0000
0000
0001
0000
0000
0100
0000
2030
0000
0100
0000
3100
0010
0001
0000
,
0200
0000
1000
0000
0001
0000
1000
0000
0301
0000
1000
0000
0001
1000
0001
0000
,
0020
0000
1000
0000
0001
0000
1000
0000
0031
0000
1000
0000
0001
1000
0001
0000
,
1100
0100
1000
0100
1000
0100
1000
0100
0020
0000
0031
0000
1000
0010
0100
0000
,
0101
0100
0001
0100
0001
0100
0001
0100
0020
0000
1030
0000
0001
0010
0100
0000
,
1100
0000
0101
0000
1100
0000
0101
0000
1001
0000
0010
0000
1000
0100
0010
0000
,
0011
0000
1010
0000
0011
0000
1010
0000
1001
0000
1000
0100
0010
0001
0100
0000
,
0010
1000
0010
0100
0000
0100
0001
0000
1000
0000
1100
0000
0002
0000
0000
0000
,
0103
0010
0100
0010
0000
1000
0010
0000
0100
0000
0001
0000
1000
0100
1000
0000
,
0010
0000
0000
0010
0000
0000
0100
0000
0001
0000
1000
0000
0100
0000
1000
0000
,
0001
0000
0000
0001
0000
0000
0010
0000
0100
0000
1000
0000
0001
0100
0001
0000
,
1000
0000
1000
0010
0000
0010
0100
0000
0001
0000
1000
0000
0100
0010
0100
0000
,
1000
0100
1000
0100
0010
0001
0010
0001
1000
0010
1000
0010
0200
0000
0301
0000
,
1000
0010
1000
0010
0100
0001
0100
0001
2000
0000
3200
0000
0320
0000
0030
0000
,
0001
0010
0001
0010
0100
1000
0100
1000
0001
0100
0001
0100
0020
0000
1030
0000
,
0002
0000
0000
0000
0000
1003
0100
0020
0000
0000
0000
0000
0000
0000
0000
0000
,
0031
0000
0000
1000
0000
0000
0010
0000
0010
0000
0000
1000
0000
0000
0001
0000
,
2000
0000
0000
0000
0000
3001
0100
0020
0000
0000
0000
0000
0000
0000
0000
0000
,
1030
0000
0000
0001
0000
0000
1000
0000
0100
0000
0000
0100
0000
0000
0010
0000
,
0002
0000
0000
0100
0000
0000
0010
0000
2003
0000
0000
0100
0000
0000
0010
0000
,
3002
0000
0000
0010
0000
0000
1000
0000
0203
0000
0000
1000
0000
0000
0010
0000
,
0301
0000
0001
0100
0000
0000
0010
0000
1000
0000
1000
0100
0000
0000
0010
0000
,
0001
1000
0001
0000
1000
0000
0100
0000
0010
0001
0010
0000
0002
0000
1003
0000
,
0010
0000
0000
0010
1000
0001
1000
0001
0100
0000
0010
0000
1000
0000
0000
0000
,
0010
0000
0000
0010
0100
0001
1000
0001
1000
0000
0010
0000
0100
0000
0000
0000
,
0001
0000
0100
0010
0000
0010
1000
0000
0100
0000
0010
0001
0000
0001
1000
0000
,
0010
0000
1000
0100
0000
0100
0010
0000
0001
0000
1000
0000
0010
0100
0010
0000
,
0101
1100
0101
1100
0101
0000
0000
0000
;

//---------------dance-double - ----------------
#NOTEDATA:;
#CHARTNAME:;
#STEPSTYPE:dance-double;
#DESCRIPTION:;
#CHARTSTYLE:;
#DIFFICULTY:Challenge;
#METER:9;
#RADARVALUES:0.504149,0.578984,0.434015,0.120955,0.369980,418.000000,61.000000,17.000000,0.000000,0.000000,0.000000,0.000000,0.000000,0.504149,0.578984,0.434015,0.120955,0.369980,418.000000,61.000000,17.000000,0.000000,0.000000,0.000000,0.000000,0.000000;
#CREDIT:Ben Speirs;
#NOTES:
00000000
00000000
00000000
00000000
,
00000000
00000000
00000000
00000000
,
00000000
00000000
00000000
00000000
,
00000000
00000000
00000000
00000000
,
11000000
01000000
00010000
00001000
00011000
00001000
00000100
00000001
,
00000101
00000100
00001000
00010000
00011000
00010000
01000000
10000000
,
11000000
00000000
01010000
00000000
11000000
00000000
01010000
00000000
10010000
00000000
10000000
00000000
01000000
00100000
00010000
00000000
,
00110000
00000000
00011000
00000000
00110000
00000000
00011000
00000000
00110000
00000000
00001000
00000000
00010000
00000100
00001000
00000000
,
00001100
00000000
00000101
00000000
00001100
00000000
00000101
00000000
00001100
00000000
00000001
00000000
00000100
00000010
00001000
00000000
,
00001010
00000000
00000011
00000000
00001010
00000000
00000011
00000000
00001010
00000000
00000001
00000000
00001000
00000100
00000010
00000000
,
00000002
00000000
00000000
00000100
00000000
00000000
00001000
00000000
00002003
00000000
00000000
00000100
00000000
00000000
00000001
00000000
,
00003001
00000000
00000100
00000000
00000010
00001000
00000010
00000000
00001000
00000000
00000100
00000000
00010000
00001000
00010000
00000000
,
00002000
00000000
00000000
00100000
00000000
00000000
00010000
00000000
01003000
00000000
00000000
00000000
00010000
01000000
00010000
00000000
,
20000000
00000000
00000000
01000000
00000000
00000000
00010000
00000000
30100000
00000000
00000000
00000000
10000000
00010000
10000000
00000000
,
00100000
01000000
00100000
01000000
00010000
01000000
00010000
01000000
00100000
00000000
10000000
00000000
01000000
00000000
00000000
00000000
,
00100000
00010000
00100000
00010000
01000000
00001000
01000000
00001000
00010000
00000000
00000100
00000000
00100000
00000000
00000000
00000000
,
00010100
00000000
00001000
00010000
00000000
00010000
00000100
00001000
00000000
00001000
00000001
00000000
00000100
00000000
00000000
00000000
,
00000010
00000000
00001000
00000001
00000000
00000001
00000100
00000010
00000000
00000010
00001000
00000000
00000001
00000000
00000000
00000000
,
00001100
00000000
00000100
00010000
00000000
00010000
00001000
00100000
00000000
00100000
00010000
00000000
01000000
00000000
00100000
00000000
,
10000000
01000000
10000000
00000000
00010000
01000000
00010000
00000000
10000000
00000000
01000000
00000000
00100000
00010000
00100000
00000000
,
00001000
00010000
00001000
00000000
00100000
00010000
00100000
00000000
00001000
00000000
00010000
00000000
00000100
00000000
00001000
00000000
,
00000010
00000100
00000010
00000000
00001000
00000001
00001000
00000000
00000100
00000000
00000010
00000000
00000002
00000000
00000000
00000000
,
00001003
00000000
00000000
00000100
00000000
00000000
00001000
00000000
00000001
00000000
00000100
00000000
00000010
00000000
00000000
00000000
,
00001000
00000000
00001000
00000100
00000000
00000100
00000000
00010000
00000000
00010000
00000000
00001000
00100000
00000000
00010000
00000000
,
00110000
00000000
01000000
00100000
00000000
00100000
00010000
00000000
20000000
00000000
00000000
00000000
30000000
00000000
00000000
00000000
,
00100000
00000000
10000000
01000000
10000000
00000000
00010000
01000000
00010000
00000000
10000000
00000000
01000000
00100000
00010000
00000000
,
00110000
00000000
00100000
00000000
00001000
00000000
00010000
00000000
00011000
00000000
00010000
00000000
00000100
00001000
00000010
00000000
,
00001010
00000000
00001000
00000000
00000001
00000000
00000100
00000000
00000101
00000000
00000100
00000000
00000010
00001000
00000100
00000000
,
00001100
00000000
00011000
00000000
00001100
00000000
00011000
00000000
00001100
00000000
00010000
00000000
00001000
00100000
00010000
00000000
,
00110000
00000000
00011000
00000000
00110000
00000000
00011000
00000000
00110000
00000000
00001000
00000000
00100000
00010000
01000000
00000000
,
01010000
00000000
10100000
00000000
11000000
00000000
00110000
00000000
10010000
00000000
10000000
01000000
00100000
00010000
01000000
00000000
,
01010000
00110000
00101000
00011000
00010100
00001000
00000010
00000000
,
00000101
00000000
00000100
00000010
00000000
00000010
00002000
00000000
00000000
00000000
00003001
00000000
00000200
00000000
00000000
00000000
,
00000310
00001000
00000010
00000000
00001000
00000000
00000001
00000000
00000010
00000000
00000010
00000000
00000100
00000000
00001000
00000000
,
00000200
00000000
00000000
00020300
00000000
00000000
00031000
00000000
00100000
00000000
00010000
00000000
01000000
00000000
00000000
00000000
,
00200000
00000000
00000000
20300000
00000000
00000000
31000000
00000000
00100000
00000000
00010000
00000000
10000000
00000000
00000000
00000000
,
00010000
00000000
00010000
01000000
00000000
01000000
00100000
00000000
10000000
00000000
10000000
01000000
00000000
01000000
00100000
00000000
,
00010000
10000000
00010000
10000000
00100000
01000000
00100000
01000000
00010000
00100000
00010000
00100000
00001000
00000000
00000000
00000000
,
00010000
00001000
00010000
00001000
00010000
00000100
00010000
00000100
00002000
00000000
00003010
00000000
00000100
00000000
00000000
00000000
,
00000001
00000100
00000001
00000100
00000010
00001000
00000010
00001000
00000100
00000010
00000001
00000000
00001000
00000000
00000000
00000000
,
00000010
00000000
00000010
00001000
00000100
00000000
00000100
00000000
00020000
00000000
00000000
00000000
00000000
00000000
00000000
00000000
,
00031000
00100000
00010000
01000000
00100000
10000000
01000000
00000000
,
00100000
00000000
00100000
00010000
00000000
00010000
10000000
00200000
00000000
00000000
00000000
00000000
00000000
00000000
00000000
00000000
,
01300000
01000000
00010000
00010000
10000000
01000000
00100000
00000000
,
00110000
00000000
00000000
00100000
00000000
00000000
00001000
00000000
00101000
00000000
00000000
00001000
00000000
00000000
00010000
00000000
,
00011000
00000000
00000000
00010000
00000000
00000000
00000100
00000000
00002100
00000000
00000000
00000000
00003001
00000100
00000001
00000000
,
00001000
00000000
00001000
00000010
00000000
00000010
00000000
00000100
00000001
00000000
00001000
00000000
00000100
00000000
00000000
00000000
,
00000010
00000000
00000010
00000001
00000000
00000001
00001000
00000000
00000010
00001000
00000010
00000000
00000100
00000000
00000001
00000000
,
00001000
00000000
00001000
00000100
00010000
00000000
00010000
00001000
00100000
00000000
00100000
00000000
00010000
00000000
00000000
00000000
,
01000000
00100000
01000000
00100000
00000000
00000000
10000000
00000000
00010000
01000000
00010000
00000000
10000000
00000000
01000000
00100000
,
00010000
00000000
00000000
00100000
00000000
00000000
00001000
00000000
00021000
00000000
00000000
00000000
00030100
00000000
00000000
00000000
,
00001000
00000000
00001000
00000010
00000000
00000010
00000100
00000000
00000001
00000000
00001000
00000000
00000010
00000100
00000001
00000000
,
00000101
00001100
00000101
00001100
00000010
00000000
00000000
00000000
;

//---------------dance-single - ----------------
#NOTEDATA:;
#CHARTNAME:;
#STEPSTYPE:dance-single;
#DESCRIPTION:;
#CHARTSTYLE:;
#DIFFICULTY:Medium;
#METER:5;
#RADARVALUES:0.260206,0.298830,0.028460,0.128070,0.000000,234.000000,4.000000,18.000000,0.000000,0.000000,0.000000,0.000000,0.000000,0.260206,0.298830,0.028460,0.128070,0.000000,234.000000,4.000000,18.000000,0.000000,0.000000,0.000000,0.000000,0.000000;
#CREDIT:Ben Speirs;
#NOTES:
0000
0000
0000
0000
,
0000
0000
0000
0000
,
0000
0000
0000
0000
,
0000
0000
0000
0000
,
1000
0100
1000
0100
1000
0000
0010
0000
,
0100
0001
0100
0001
0100
0000
0001
0000
,
1000
0010
1000
0010
1000
0000
0001
0000
,
0010
0001
0010
0001
0010
0000
0001
0000
,
1000
0100
1000
0100
1000
0000
0001
0000
,
0100
0010
0100
0010
0100
0000
0001
0000
,
1000
1000
0010
0000
,
0100
0100
0001
0000
,
1000
0100
0010
0010
,
0001
1000
0010
0010
,
1000
0000
0100
0000
1000
0000
0000
0000
0002
0000
0000
0003
0000
0000
0000
0000
,
0100
0000
0010
0000
0100
0000
0000
0000
0002
0000
0000
0000
2003
0000
0000
3000
,
0010
0100
0010
1000
0001
0000
0000
0000
,
0010
0100
0010
0001
1000
0000
0000
0000
,
0001
0001
1000
1000
,
0010
0100
0010
0000
1000
0000
0001
0000
,
1000
0100
1000
0000
0001
0000
0000
0000
,
1000
0010
1000
0000
0001
0010
0001
0000
,
0100
0000
0100
0000
0010
1000
0001
0000
,
0010
0000
0000
0000
0001
1000
0001
0000
,
1000
1000
0001
0001
,
0100
0100
0010
1000
,
0001
0100
0001
0100
0001
0000
1000
0000
,
0010
0100
0010
0100
0010
0000
1000
0000
,
0001
0010
0001
0100
0001
0000
0010
0000
,
0001
1000
0001
0100
0001
0000
0010
0000
,
0100
1000
0100
0010
0100
0000
1000
0000
,
0010
1000
0010
0100
0010
0000
1000
0000
,
0002
0003
2000
3000
,
0010
1000
0010
0000
1000
0001
1000
0000
,
0002
0003
0200
0300
,
0010
1000
0010
0000
1000
0100
1000
0000
,
0001
1000
0020
0130
,
0001
0100
0001
1000
0100
0100
0100
0000
,
1000
0100
1000
0001
0100
0100
0100
0000
,
0001
0100
0001
1000
0100
0100
0100
0000
,
2000
0000
3002
0000
,
0103
0100
0010
0010
,
2000
0000
3002
0000
,
0013
0010
0100
0100
,
1100
0010
0102
0003
,
1010
0001
0201
0310
,
1000
0010
1000
0001
2000
0000
3000
0000
,
0001
1000
0001
0100
0002
0000
0003
0000
,
0200
1000
0301
0000
,
0020
1000
0031
0000
,
1000
0100
1000
0001
0100
0000
0000
0000
,
0001
0100
0001
1000
0010
0010
0010
0000
,
1000
0001
0100
0001
1000
0000
0000
0000
;

//---------------dance-single - ----------------
#NOTEDATA:;
#CHARTNAME:;
#STEPSTYPE:dance-single;
#DESCRIPTION:;
#CHARTSTYLE:;
#DIFFICULTY:Easy;
#METER:3;
#RADARVALUES:0.156530,0.187658,0.000000,0.092495,0.000000,141.000000,0.000000,13.000000,0.000000,0.000000,0.000000,0.000000,0.000000,0.156530,0.187658,0.000000,0.092495,0.000000,141.000000,0.000000,13.000000,0.000000,0.000000,0.000000,0.000000,0.000000;
#CREDIT:Ben Speirs;
#NOTES:
// measure 0
0000
0000
0000
0000
,  // measure 1
0000
0000
0000
0000
,  // measure 2
0000
0000
0000
0000
,  // measure 3
0000
0000
0000
0000
,  // measure 4
0001
0001
0100
0000
,  // measure 5
1000
1000
0100
0000
,  // measure 6
0001
0001
0010
0000
,  // measure 7
1000
1000
0010
0000
,  // measure 8
0100
0100
0100
0000
,  // measure 9
0010
0010
0010
0000
,  // measure 10
1000
0000
0100
0010
,  // measure 11
0001
0000
0100
0010
,  // measure 12
1000
1000
0001
0000
,  // measure 13
0010
0010
0001
0000
,  // measure 14
0100
0100
0010
1000
,  // measure 15
0100
0100
0010
0000
,  // measure 16
0001
0001
2000
3000
,  // measure 17
0010
0010
0200
0300
,  // measure 18
0001
0100
0020
0030
,  // measure 19
1000
0100
0020
0030
,  // measure 20
0001
1000
0010
0010
,  // measure 21
0100
0100
0001
0000
,  // measure 22
1000
0100
0010
0000
,  // measure 23
0001
0100
0010
0000
,  // measure 24
2000
0000
3001
0000
,  // measure 25
0002
0000
1003
0000
,  // measure 26
0010
0010
1000
0000
,  // measure 27
0100
0100
0010
0000
,  // measure 28
0001
0100
0001
0000
,  // measure 29
1000
0100
1000
0000
,  // measure 30
0001
0010
0001
0001
,  // measure 31
1000
0010
1000
1000
,  // measure 32
0002
0000
0003
0000
,  // measure 33
2000
0000
3000
0000
,  // measure 34
0100
0100
0010
0000
,  // measure 35
0010
0010
0001
0000
,  // measure 36
1000
0010
1000
0001
,  // measure 37
0002
0003
0100
0100
,  // measure 38
0020
0030
1000
1000
,  // measure 39
0200
0300
0010
0010
,  // measure 40
0002
0000
0000
0003
,  // measure 41
2000
0000
0000
3000
,  // measure 42
0010
0000
0010
0000
,  // measure 43
0100
0000
0100
0000
,  // measure 44
0001
1000
0001
0000
,  // measure 45
1000
0100
1000
0000
,  // measure 46
0001
0010
0001
0000
,  // measure 47
1000
0010
1000
0000
,  // measure 48
0001
0100
0010
0010
,  // measure 49
1000
0000
0001
0000
,  // measure 50
1000
0100
0010
0010
,  // measure 51
0001
0000
1000
0000
,  // measure 52
0010
0010
0010
0010
;

//---------------dance-single - ----------------
#NOTEDATA:;
#CHARTNAME:;
#STEPSTYPE:dance-single;
#DESCRIPTION:;
#CHARTSTYLE:;
#DIFFICULTY:Beginner;
#METER:1;
#RADARVALUES:0.090462,0.130738,0.000000,0.000000,0.000000,89.000000,0.000000,0.000000,0.000000,0.000000,0.000000,0.000000,0.000000,0.090462,0.130738,0.000000,0.000000,0.000000,89.000000,0.000000,0.000000,0.000000,0.000000,0.000000,0.000000,0.000000;
#CREDIT:Ben Speirs;
#NOTES:
// measure 0
0000
0000
0000
0000
,  // measure 1
0000
0000
0000
0000
,  // measure 2
0000
0000
0000
0000
,  // measure 3
0000
0000
0000
0000
,  // measure 4
0100
0000
0100
0000
,  // measure 5
0010
0000
0010
0000
,  // measure 6
1000
0000
1000
0000
,  // measure 7
0001
0000
0001
0000
,  // measure 8
0100
0000
0100
0000
,  // measure 9
0001
0000
0001
0000
,  // measure 10
1000
0000
0000
0000
,  // measure 11
0010
0000
0000
0000
,  // measure 12
0100
0000
0100
0000
,  // measure 13
0001
0000
0001
0000
,  // measure 14
0010
0000
0000
0000
,  // measure 15
0001
0000
0000
0000
,  // measure 16
1000
0000
1000
0000
,  // measure 17
0100
0000
0100
0000
,  // measure 18
1000
0000
0000
0000
,  // measure 19
0001
0000
0001
0000
,  // measure 20
0100
0100
0000
0000
,  // measure 21
0010
0010
0000
0000
,  // measure 22
1000
1000
0000
0000
,  // measure 23
0001
0000
1000
0000
,  // measure 24
0010
0000
0010
0000
,  // measure 25
0100
0000
0000
0000
,  // measure 26
0001
0001
0001
0000
,  // measure 27
1000
1000
1000
0000
,  // measure 28
0010
0010
0010
0000
,  // measure 29
0010
0010
0010
0000
,  // measure 30
1000
1000
1000
0000
,  // measure 31
0001
0001
0001
0000
,  // measure 32
0100
0000
0000
0000
,  // measure 33
0010
0000
0010
0000
,  // measure 34
1000
0000
0001
0000
,  // measure 35
0100
0000
0000
0000
,  // measure 36
0100
0100
0000
0000
,  // measure 37
0010
0000
0010
0000
,  // measure 38
1000
0000
0000
0000
,  // measure 39
0001
0000
0100
0100
,  // measure 40
0000
0000
0000
0000
,  // measure 41
0010
0000
1000
0000
,  // measure 42
0001
0000
0000
0000
,  // measure 43
0010
0000
0001
0000
,  // measure 44
1000
1000
0000
0000
,  // measure 45
0001
0001
0000
0000
,  // measure 46
0100
0000
0000
0000
,  // measure 47
0010
0000
0000
0000
,  // measure 48
1000
0000
0000
0000
,  // measure 49
0001
0000
0001
0000
,  // measure 50
0000
0000
0000
0000
,  // measure 51
0100
0100
0000
0000
,  // measure 52
0010
0010
0010
0000
;
