#TITLE:Work From Home;
#SUBTITLE:;
#ARTIST:Fifth Harmony;
#TITLETRANSLIT:;
#SUBTITLETRANSLIT:;
#ARTISTTRANSLIT:;
#GENRE:Electropop;
#CREDIT:;
#BANNER:Work From Home.png;
#BACKGROUND:Work From Home-bg.png;
#LYRICSPATH:;
#CDTITLE:;
#MUSIC:Work From Home.ogg;
#OFFSET:-0.000000;
#SAMPLESTART:44.833904;
#SAMPLELENGTH:13.714000;
#SELECTABLE:YES;
#DISPLAYBPM:105;
#BPMS:0.000000=105.000000
,192.000000=104.000015
,193.000000=105.000000
;
#STOPS:
;
#BGCHANGES:7.000=Work From Home.avi=1.000=0=0=1=====,
99999=-nosongbg-=1.000=0=0=0 // don't automatically add -songbackground-
;
#KEYSOUNDS:;
#ATTACKS:;

//---------------dance-single - ----------------
#NOTES:
     dance-single:
     :
     Hard:
     8:
     0.526599,0.604146,0.354441,0.226843,0.251653,438.000000,50.000000,32.000000,0.000000,0.000000,0.000000,0.526599,0.604146,0.354441,0.226843,0.251653,438.000000,50.000000,32.000000,0.000000,0.000000,0.000000:
0000
0000
0000
0000
,
0000
0000
0000
0000
,
0000
0000
0000
0000
,
0000
0000
0000
0000
,
1000
0000
0010
0000
0000
0000
0100
0000
0100
0000
0000
0100
0000
0000
0001
0000
,
1000
1000
0010
0000
0000
0010
1000
0001
,
0010
0000
0010
0000
0001
0000
1000
0000
1000
0000
0010
0100
0010
0000
1000
0000
,
0001
0001
0010
0000
0000
0001
0001
1000
,
0001
0000
0100
0000
0000
0000
0010
0000
0010
0000
0000
0010
0000
0000
1000
0000
,
0001
0001
0100
0000
0000
0100
0001
1000
,
0100
0000
0100
0000
1000
0000
0001
0000
0001
0000
0100
0010
0100
0000
0001
0000
,
1000
0000
1000
0000
0100
0000
0000
0000
0000
0000
1000
0001
1000
0000
0010
0000
,
0200
0001
0302
0000
1003
0100
0010
0001
,
0100
0100
0020
0000
1030
0001
1000
0001
,
0200
0010
0320
0000
1030
0100
0010
0001
,
0100
0100
0010
0000
1000
0010
0100
0001
,
0201
0000
0310
1000
0200
0000
0310
0001
,
1000
0001
0200
0000
0310
1000
0100
0000
,
1200
0000
0000
0000
0320
0000
0000
0000
0031
0000
0010
0100
0000
0100
1000
0000
,
0020
0000
0000
0000
0130
0000
0000
0000
0000
0000
0010
0100
0010
0000
0100
0001
,
1000
0000
1100
0100
1001
0000
0101
0100
,
1001
0000
0000
0000
1100
0000
0000
0000
0001
0000
0010
0100
0010
0000
0001
1000
,
0010
0000
1010
0010
1001
0000
0011
0010
,
1001
0000
0000
0000
1010
0000
0000
0000
0001
0000
1000
0100
1000
0000
0001
0100
,
0010
0000
1010
0010
0110
0000
0101
0100
,
0110
0000
0000
0000
1010
0000
0000
0000
0001
0000
1000
0100
1000
0000
0100
0010
,
0001
0000
0011
0010
0110
0000
1100
0100
,
0110
0000
0000
0000
0011
0000
0000
0000
1000
0000
0001
1000
0001
0000
0100
0010
,
2000
0000
0000
0000
3100
0000
1000
0000
0010
0000
0010
0100
0000
0100
0001
0000
,
2000
0000
0000
0000
3002
0000
0000
0000
0013
0000
0100
0010
0100
0000
0010
0001
,
0200
0000
0000
0000
0310
0000
1000
0000
0100
0000
0100
0010
0000
0010
0001
0000
,
0200
0000
0000
0000
0320
0000
0000
0000
1030
0000
0001
0000
0100
0010
0100
0010
,
1000
0000
0100
0000
0000
0000
1000
0000
0001
0000
1000
0000
0010
0100
0010
0100
,
0001
0000
0010
0000
0000
0000
0002
0003
0000
0000
0100
0000
0001
0000
1000
0000
,
0010
0000
0010
0000
0100
0000
0001
0000
0001
0000
1000
0100
1000
0100
1000
0100
,
0010
0000
0002
0003
0000
0000
2000
3000
0000
0000
0001
0100
0001
0000
0100
0000
,
0110
0000
0010
0000
1000
0000
0000
0000
0001
0000
1000
0100
1000
0000
0100
0000
,
0110
0000
0010
0000
0000
0000
2002
3003
0000
0000
0010
0000
1000
0000
0001
0000
,
0100
0000
0100
0000
0010
0000
1000
0000
1000
0000
0001
0010
0001
0010
0001
0010
,
0100
0000
2000
3000
0000
0000
0002
0003
0000
0000
0100
0010
0100
0000
0000
0000
,
0201
0000
0000
0000
0310
0000
1000
0000
0100
0000
0100
0010
0000
0010
0001
0000
,
1000
0001
2000
0000
3010
1000
0100
0010
,
0002
0000
0000
0000
0103
0000
0010
0000
1000
0000
1000
0001
0000
0001
0100
0000
,
0020
0000
1030
0000
0001
0100
0100
0010
,
1020
0000
0000
0000
0130
0000
0001
0000
0010
0000
0010
0100
0000
0100
1000
0000
,
0001
1000
0002
0000
0103
0001
0010
0100
,
2000
0000
0000
0000
3010
0000
0100
0000
0001
0000
0001
1000
0000
1000
0010
0000
,
0200
0000
0000
0000
0301
0000
0000
0000
1000
0000
0001
0100
0001
0100
0010
1000
,
0100
0000
1100
0100
1001
0100
0101
1000
,
1100
0000
0100
0000
1001
0000
0000
0000
1000
0000
0001
0010
0001
0010
0100
1000
,
0001
0000
0011
0010
1001
0010
1010
0001
,
1001
0000
0010
0000
0011
0000
0001
0000
1001
0000
1000
0100
1000
0100
0010
0001
,
0100
0000
0101
1001
1100
0000
1100
1001
,
0011
0000
0000
0000
0011
0000
1010
0000
1001
0000
1000
0100
1000
0100
0010
0001
,
1000
0000
0010
0100
0010
0000
1000
0000
0001
0000
0010
0100
0010
0000
0001
0000
,
0100
0000
0101
0000
0001
0000
1001
0000
1000
0000
0100
1000
0100
0000
1000
0001
,
0100
0000
0010
0000
1000
0000
0100
0010
0100
0000
0100
1000
0000
1000
0010
0000
,
0100
0000
0001
0000
1000
0000
0010
0000
0100
0000
0001
1000
0010
0000
1000
0001
,
0010
0000
0001
0000
1000
0000
0010
0100
0010
0000
0010
1000
0000
1000
0001
0000
,
0010
0000
0001
0000
1000
0000
0010
0000
0100
0000
0001
0010
0100
1000
0001
0000
,
0100
0000
0000
0000
0000
0000
0010
0000
0010
0000
0000
1000
0000
0000
0101
0000
;

//---------------dance-single - ----------------
#NOTES:
     dance-single:
     :
     Medium:
     5:
     0.301782,0.388379,0.021266,0.354441,0.017722,245.000000,3.000000,50.000000,0.000000,0.000000,0.000000,0.301782,0.388379,0.021266,0.354441,0.017722,245.000000,3.000000,50.000000,0.000000,0.000000,0.000000:
0000
0000
0000
0000
,
0000
0000
0000
0000
,
0000
0000
0000
0000
,
0000
0000
0000
0000
,
1000
1000
0000
0000
0010
0000
0010
0000
,
0100
0100
0000
0000
0001
0000
0000
0000
,
1000
0000
0001
0000
0010
0000
0001
1000
,
0010
0010
0100
0000
0000
0000
0010
0000
,
1000
1000
0000
0000
0001
0000
1000
0000
,
0010
0010
0000
0000
0100
0000
0000
0000
,
0001
0000
0100
0000
0010
0000
1000
0001
,
0100
0100
0010
0000
0000
0000
1000
0000
,
0002
0000
0023
0000
0230
0000
1300
0001
,
0000
0001
1000
0000
0000
0000
0010
0010
,
2000
0000
3200
0000
0320
0000
0031
1000
,
0001
0000
0100
0000
,
0010
0000
0010
0000
1000
0000
0100
0100
,
0000
0010
0010
0000
0000
0000
0001
0000
,
0010
0000
0010
0000
0001
0000
1000
0100
,
1000
0000
0001
0000
,
2000
3002
2003
3002
,
2003
0000
3002
0000
0103
0010
0010
1000
,
0002
2003
3002
2003
,
3002
0000
2003
0000
3001
0100
0100
0010
,
2000
3200
0320
0032
,
2003
0000
3200
0000
1300
0010
0010
0100
,
0002
0203
0320
2030
,
3002
0203
0320
1030
,
1001
0000
0000
0000
0000
0000
1000
0000
1000
0000
0000
0001
0000
0000
0100
0000
,
0000
0000
0010
0000
0000
0000
1000
0100
,
0010
0000
0000
0000
0000
0000
0001
0000
0001
0000
0000
0100
0000
0000
0010
0000
,
0000
0000
1000
0000
0000
0000
0001
1000
,
0010
0010
0000
0000
0000
0000
1000
0001
,
0010
0010
0000
0000
0000
0000
0001
0000
,
0100
0100
0010
1000
,
0001
0001
0000
0000
1000
0000
0000
0000
,
0010
0010
0000
0000
1000
0000
0001
1000
,
0100
0100
0000
0000
0000
0000
1000
0000
,
0010
0000
0010
0000
1000
0000
0001
0100
,
0001
0001
1000
0000
0000
0000
0010
0000
,
1000
0000
1000
0000
0001
0000
0001
1000
,
0000
1000
0010
0000
0000
0000
1000
0100
,
0100
0000
0010
0000
0001
0000
0100
0010
,
1000
0000
0001
0000
,
0200
0000
0320
0000
0230
0000
0301
1000
,
0000
1000
0001
0000
0000
0000
1000
0100
,
0200
0000
0320
0000
0032
0000
1003
0100
,
2000
3001
0000
1001
,
2000
3002
0023
0032
,
2003
0000
0000
3000
0020
0000
0000
0000
1030
0000
0100
0000
0010
0000
0001
0000
,
2000
3002
0203
0302
,
2003
0000
3200
0000
1300
0001
1000
0000
,
0010
0010
1000
0000
0010
0010
0100
0000
,
0010
0010
1000
0000
0010
1000
0001
0000
,
0100
0100
0001
0000
0100
0100
0010
0000
,
0100
0100
0001
0000
0100
0001
1000
0000
,
1001
0000
0000
0000
0000
0000
1000
0000
1000
0000
0000
0001
0000
0000
0010
0000
,
0000
0000
0001
0000
0000
0000
0100
0001
,
1000
0000
0000
0000
0000
0000
0001
0000
0001
0000
0000
1000
0000
0000
0010
0000
,
0000
0000
1000
0000
0000
0000
0001
1000
,
0100
0000
0000
0000
0000
0000
1000
0000
1000
0000
0000
0001
0000
0000
0100
0000
;

//---------------dance-single - ----------------
#NOTES:
     dance-single:
     :
     Challenge:
     8:
     0.555967,0.582569,0.070888,0.545840,0.258742,462.000000,10.000000,77.000000,0.000000,0.000000,0.000000,0.555967,0.582569,0.070888,0.545840,0.258742,462.000000,10.000000,77.000000,0.000000,0.000000,0.000000:
0000
0000
0000
0000
,
0000
0000
0000
0000
,
0000
0000
0000
0000
,
0000
0000
0000
0000
,
0001
0000
0100
0000
0000
0000
0010
0000
0010
0000
0000
0010
0000
0000
1000
0000
,
0001
0001
0100
0000
0000
0100
0001
1000
,
0100
0000
0100
0000
1000
0000
0001
0000
0001
0000
0100
0010
0100
0000
0001
0000
,
1000
1000
0100
0000
0000
1000
1000
0001
,
1000
0000
0010
0000
0000
0000
0100
0000
0100
0000
0000
0100
0000
0000
0001
0000
,
1000
1000
0010
0000
0000
0010
1000
0001
,
0010
0000
0010
0000
0001
0000
1000
0000
1000
0000
0010
0100
0010
0000
1000
0000
,
0001
0000
0001
0000
0010
0000
0000
0000
0000
0000
0001
1000
0001
0000
0100
0000
,
0020
1000
2030
0000
3001
0010
0100
1000
,
0010
0010
0200
0000
0301
1000
0001
1000
,
0020
0100
0230
0000
0301
0010
0100
1000
,
0010
0010
0100
0000
0001
0100
0010
1000
,
1020
0000
0130
0001
0020
0000
0130
1000
,
0001
1000
0020
0000
0130
0001
0010
0000
,
0021
0000
0000
0000
0230
0000
0000
0000
1300
0000
0100
0010
0000
0010
0001
0000
,
0200
0000
0000
0000
0310
0000
0000
0000
0000
0000
0100
0010
0100
0000
0010
1000
,
0002
0100
2003
0100
3002
0100
2003
0100
,
3002
0000
0100
0000
2003
0000
0100
0000
3001
0000
1000
0100
1000
0100
0010
0001
,
2000
0010
3002
0010
2003
0010
3002
0010
,
2003
0000
0010
0000
3002
0000
0010
0000
1003
0000
0001
0010
0001
0010
0100
1000
,
0002
0000
0100
0000
2000
0003
0100
0000
3002
0000
0100
0000
2003
0000
0100
0000
,
3002
0000
0010
0000
2003
0000
0010
0000
3001
0000
1000
0100
1000
0100
0010
0001
,
2000
0100
3002
0100
2003
0100
3002
0100
,
2003
0000
0010
0000
3002
0000
0010
0000
1003
0000
0001
0100
0001
0100
0010
1000
,
0002
0000
0000
0000
0013
0000
0001
0000
0100
0000
0100
0010
0000
0010
1000
0000
,
0002
0000
0000
0000
2003
0000
0000
0000
3100
0000
0010
0100
0010
0000
0100
1000
,
0020
0000
0000
0000
0130
0000
0001
0000
0010
0000
0010
0100
0000
0100
1000
0000
,
0020
0000
0000
0000
0230
0000
0000
0000
0301
0000
1000
0000
0010
0100
0010
0100
,
0001
0000
0010
0000
0000
0000
0001
0000
1000
0000
0001
0000
0100
0010
0100
0010
,
1000
0000
0100
0000
0000
0000
2000
3000
0000
0000
0010
0000
1000
0000
0001
0000
,
0100
0000
0100
0000
0010
0000
1000
0000
1000
0000
0001
0010
0001
0010
0001
0010
,
0100
0000
2000
3000
0000
0000
0002
0003
0000
0000
1000
0010
1000
0000
0010
0000
,
0110
0000
0100
0000
0001
0000
0000
0000
1000
0000
0001
0010
0001
0000
0010
0000
,
0110
0000
0100
0000
0000
0000
2002
3003
0000
0000
0100
0000
0001
0000
1000
0000
,
0010
0000
0010
0000
0100
0000
0001
0000
0001
0000
1000
0100
1000
0100
1000
0100
,
0010
0000
0002
0003
0000
0000
2000
3000
0000
0000
0010
0100
0010
0000
0000
0000
,
1020
0000
0000
0000
0130
0000
0001
0000
0010
0000
0010
0100
0000
0100
1000
0000
,
0001
1000
0002
0000
0103
0001
0010
0100
,
2000
0000
0000
0000
3010
0000
0100
0000
0001
0000
0001
1000
0000
1000
0010
0000
,
0200
0000
0301
0000
1000
0010
0010
0100
,
0201
0000
0000
0000
0310
0000
1000
0000
0100
0000
0100
0010
0000
0010
0001
0000
,
1000
0001
2000
0000
3010
1000
0100
0010
,
0002
0000
0000
0000
0103
0000
0010
0000
1000
0000
1000
0001
0000
0001
0100
0000
,
0020
0000
0000
0000
1030
0000
0000
0000
0001
0000
1000
0010
1000
0010
0100
0001
,
2000
0100
3002
0010
2003
0100
3002
0010
,
2003
0000
0100
0000
3002
0000
0010
0000
1003
0000
0001
0100
0001
0100
0010
1000
,
0002
0100
2003
0010
3002
0100
2003
0010
,
3002
0000
0100
0000
2003
0000
0010
0000
3001
0000
1000
0100
1000
0100
0010
0001
,
2000
0100
3002
0010
2003
0010
3002
0100
,
2003
0000
0100
0000
3002
0000
0010
0000
1003
0000
0001
0100
0001
0100
0010
1000
,
0002
0010
2003
0100
3002
0100
1003
0010
,
0010
0000
1010
0000
1000
0000
1001
0000
0001
0000
0010
0001
0010
0000
0001
1000
,
0010
0000
0100
0000
0001
0000
0010
0100
0010
0000
0010
0001
0000
0001
0100
0000
,
0010
0000
1000
0000
0001
0000
0100
0000
0010
0000
1000
0001
0100
0000
0001
1000
,
0100
0000
1000
0000
0001
0000
0100
0010
0100
0000
0100
0001
0000
0001
1000
0000
,
0100
0000
1000
0000
0001
0000
0100
0000
0010
0000
1000
0100
0010
0001
1000
0000
,
0010
0000
0000
0000
0000
0000
0100
0000
0100
0000
0000
0001
0000
0000
1010
0000
;

//---------------dance-single - ----------------
#NOTES:
     dance-single:
     :
     Easy:
     3:
     0.174183,0.193791,0.021266,0.085066,0.000000,157.000000,3.000000,12.000000,0.000000,0.000000,0.000000,0.174183,0.193791,0.021266,0.085066,0.000000,157.000000,3.000000,12.000000,0.000000,0.000000,0.000000:
0000
0000
0000
0000
,
0000
0000
0000
0000
,
0000
0000
0000
0000
,
0000
0000
0000
0000
,
1000
0000
0001
0000
,
0100
0000
0000
0000
,
0001
0001
1000
1000
,
0010
0000
0000
1000
,
0001
0000
1000
0000
,
0010
0000
0000
0000
,
1000
1000
0001
0001
,
0100
0000
0000
0001
,
1000
1000
0001
0001
,
0100
0000
0000
0000
,
0001
0001
1000
1000
,
0100
0000
0000
0000
,
1000
0100
0010
0010
,
0001
0000
1000
0000
,
0001
0100
0010
0010
,
1000
0000
0000
0000
,
0001
1000
0001
1000
,
0001
1000
0001
0000
,
1000
0001
1000
0001
,
1000
0001
1000
0000
,
0010
0010
0010
0010
,
0010
0010
0010
0000
,
0100
0100
0100
0100
,
0100
0100
0100
0000
,
1001
0000
1000
1000
,
0010
0000
1000
0000
,
1001
0000
0001
0001
,
0010
0000
0001
0000
,
0200
0300
0000
0010
,
0020
0030
0000
0000
,
1000
1000
0001
0001
,
0200
0300
0000
0001
,
2000
3000
0000
0001
,
0002
0003
0000
0000
,
0001
0001
1000
1000
,
0020
0030
0000
0000
,
1000
1000
0001
0001
,
0200
0300
0000
0000
,
0001
0001
1000
1000
,
0200
0300
0000
0000
,
1000
0100
0010
0010
,
0002
0003
1000
0000
,
0001
0100
0010
0010
,
2000
3000
0001
0000
,
0100
0100
0100
0100
,
0100
0100
0100
0000
,
0001
1000
0001
1000
,
0001
1000
0001
0000
,
0010
0010
0010
0010
,
0010
0010
0010
0000
,
0001
1000
0001
1000
,
0001
1000
0001
0000
,
1001
0000
1000
1000
,
0020
0030
0000
1000
,
0001
0000
0100
0100
,
0020
0030
1000
0000
,
0001
0000
1000
0100
;

//---------------dance-single - ----------------
#NOTES:
     dance-single:
     :
     Beginner:
     1:
     0.093167,0.129194,0.014178,0.000000,0.000000,90.000000,2.000000,0.000000,0.000000,0.000000,0.000000,0.093167,0.129194,0.014178,0.000000,0.000000,90.000000,2.000000,0.000000,0.000000,0.000000,0.000000:
0000
0000
0000
0000
,
0000
0000
0000
0000
,
0000
0000
0000
0000
,
0000
0000
0000
0000
,
0001
0000
0000
0000
,
1000
0000
0000
0000
,
0010
0000
0010
0000
,
0100
0000
0000
0000
,
0001
0000
0000
0000
,
1000
0000
0000
0000
,
0100
0000
0100
0000
,
0010
0000
0000
0000
,
0001
0000
0001
0000
,
0100
0000
0000
0000
,
0010
0000
0010
0000
,
1000
0000
0000
0000
,
1000
0000
1000
0000
,
0001
0000
0000
0000
,
0001
0000
0001
0000
,
1000
0000
0000
0000
,
0010
0000
0010
0000
,
0010
0000
0010
0000
,
1000
0000
1000
0000
,
1000
0000
1000
0000
,
0001
0000
0001
0000
,
0001
0000
0001
0000
,
0100
0000
0100
0000
,
0100
0000
0100
0000
,
1001
0000
0000
0000
,
1000
0000
0001
0000
,
1000
0000
0000
0000
,
0001
0000
1000
0000
,
0001
0000
0000
0000
,
1000
0000
0000
0000
,
0010
0000
0010
0000
,
0100
0000
0000
0000
,
0001
0000
0000
0000
,
1000
0000
0000
0000
,
0100
0000
0100
0000
,
0010
0000
0000
0000
,
0001
0000
0001
0000
,
0100
0000
0000
0000
,
0010
0000
0010
0000
,
1000
0000
0000
0000
,
1000
0000
1000
0000
,
0001
0000
0000
0000
,
0001
0000
0001
0000
,
1000
0000
0000
0000
,
0010
0000
0010
0000
,
0010
0000
0010
0000
,
1000
0000
1000
0000
,
1000
0000
1000
0000
,
0001
0000
0001
0000
,
0001
0000
0001
0000
,
0100
0000
0100
0000
,
0100
0000
0100
0000
,
1001
0000
0000
0000
,
0010
0000
1000
0000
,
0010
0000
0000
0000
,
0100
0000
0001
0000
,
0100
0000
0000
0010
;

//---------------dance-double - ----------------
#NOTES:
     dance-double:
     :
     Challenge:
     8:
     0.530650,0.582569,0.191398,0.411152,0.223298,439.000000,27.000000,58.000000,0.000000,0.000000,0.000000,0.530650,0.582569,0.191398,0.411152,0.223298,439.000000,27.000000,58.000000,0.000000,0.000000,0.000000:
// measure 0
00000000
00000000
00000000
00000000
,  // measure 1
00000000
00000000
00000000
00000000
,  // measure 2
00000000
00000000
00000000
00000000
,  // measure 3
00000000
00000000
00000000
00000000
,  // measure 4
00000001
00000000
00000100
00000000
00000000
00000000
00000010
00000000
00000010
00000000
00000000
00000010
00000000
00000000
00001000
00000000
,  // measure 5
00000100
00000010
00000001
00000000
00000000
00000001
00001000
00000001
,  // measure 6
00000100
00000000
00000100
00000000
00000010
00000000
00001000
00000000
00001000
00000000
00000100
00010000
00000100
00000000
00010000
00000000
,  // measure 7
00001000
00001000
00100000
00000000
00000000
00010000
00100000
00010000
,  // measure 8
10000000
00000000
00100000
00000000
00000000
00000000
01000000
00000000
01000000
00000000
00000000
01000000
00000000
00000000
00010000
00000000
,  // measure 9
00100000
01000000
10000000
00000000
00000000
10000000
00010000
10000000
,  // measure 10
00100000
00000000
00100000
00000000
01000000
00000000
00010000
00000000
00010000
00000000
00100000
00001000
00100000
00000000
00001000
00000000
,  // measure 11
00010000
00000000
00010000
00000000
00000100
00000000
00000000
00000000
00001000
00000000
00000010
00000100
00000010
00000000
00000100
00000000
,  // measure 12
00000002
00000000
00000023
00000000
00000031
00000010
00000100
00001000
,  // measure 13
00000001
00001000
00000020
00000000
00000130
00000001
00000100
00000010
,  // measure 14
00002000
00000000
00003200
00000000
00010300
00000100
00010000
00001000
,  // measure 15
00200000
00000000
00301000
00000000
00100000
00010000
01000000
00100000
,  // measure 16
20000000
00000000
00000000
00000000
30100000
00000000
01000000
00000000
00010000
00000000
00010000
10000000
00000000
10000000
00010000
00000000
,  // measure 17
01000000
00100000
20000000
00000000
31000000
00100000
01000000
00100000
,  // measure 18
00020000
00000000
00000000
00000000
10030000
00000000
00100000
00000000
01000000
00000000
01000000
00010000
00000000
00010000
00100000
00000000
,  // measure 19
00020000
00000000
00000000
00000000
00230000
00000000
00000000
00000000
00301000
00000000
00100000
00001000
00100000
00001000
00010000
00001000
,  // measure 20
00100000
00000000
00101000
00001000
00011000
00000000
00010100
00010000
,  // measure 21
00011000
00000000
00000000
00000000
00101000
00000000
00001000
00000000
00010000
00000000
00000100
00010000
00000100
00010000
00001000
00010000
,  // measure 22
00000100
00000000
00010100
00010000
00011000
00000000
00101000
00001000
,  // measure 23
00011000
00000000
00000000
00000000
00010100
00000000
00010000
00000000
00001000
00000000
00100000
00010000
00100000
00010000
01000000
00100000
,  // measure 24
10000000
00000000
10100000
00100000
10010000
00000000
00110000
00100000
,  // measure 25
10010000
00000000
00000000
00000000
11000000
00000000
01000000
00000000
10010000
00000000
00010000
01000000
00010000
01000000
00100000
10000000
,  // measure 26
00010000
00000000
10010000
00010000
01010000
00000000
01001000
00001000
,  // measure 27
00011000
00000000
00000000
00000000
00010100
00000000
00000100
00000000
00001100
00000000
00001000
00000001
00001000
00000000
00000001
00000100
,  // measure 28
00000002
00000000
00000000
00000000
00001003
00000000
00000010
00000000
00000100
00000000
00000100
00000010
00000000
00000010
00001000
00000000
,  // measure 29
00000200
00000000
00000000
00000000
00000310
00000000
00000001
00000000
00001000
00000000
00000010
00000100
00000010
00000000
00001000
00000000
,  // measure 30
00000002
00000000
00000000
00000000
00000013
00000000
00000001
00000000
00001000
00000000
00001000
00000001
00000000
00000001
00000100
00000000
,  // measure 31
00000020
00000000
00000000
00000000
00002030
00000000
00000000
00000000
00003100
00000000
00001000
00000000
00000001
00000100
00000001
00000100
,  // measure 32
00000010
00000000
00001000
00000000
00000000
00000000
00000100
00000000
00000100
00000000
00000000
00010000
00000000
00000000
00001000
00000000
,  // measure 33
00000000
00000000
00000000
00000000
00011000
00000000
00002000
00003000
00000000
00000000
00010000
00000000
00001000
00000000
00010000
00000000
,  // measure 34
00001000
00000000
00001000
00000000
00100000
00000000
00010000
00000000
00010000
00000000
01000000
00010000
01000000
00010000
01000000
00010000
,  // measure 35
10000000
00000000
00100000
00000000
00000000
00000000
20020000
30030000
00000000
00000000
10000000
01000000
10000000
00000000
00010000
00000000
,  // measure 36
01000000
00000000
00010000
00000000
00000000
00000000
00100000
00000000
00100000
00000000
00000000
00001000
00000000
00000000
00010000
00000000
,  // measure 37
00000000
00000000
00000000
00000000
00011000
00000000
00020000
00030000
00000000
00000000
00001000
00000000
00010000
00000000
00001000
00000000
,  // measure 38
00010000
00000000
00010000
00000000
00000100
00000000
00001000
00000000
00001000
00000000
00000010
00001000
00000010
00001000
00000010
00001000
,  // measure 39
00000001
00000000
00000100
00000000
00000000
00000000
00002002
00003003
00000000
00000000
00000001
00000100
00000001
00000000
00000100
00000000
,  // measure 40
00000020
00001000
00002030
00000000
00003100
00010000
00000100
00001000
,  // measure 41
00000100
00000010
00000002
00000000
00000103
00000010
00001000
00000100
,  // measure 42
00020000
00000000
00031000
00010000
00100000
10000000
01000000
00100000
,  // measure 43
00020000
00000000
10030000
00000000
00100000
01000000
00100000
00100000
,  // measure 44
02000000
00010000
03020000
00000000
00130000
00001000
00100000
00010000
,  // measure 45
00100000
01000000
20000000
00000000
30100000
01000000
00010000
00100000
,  // measure 46
00002000
00000000
00013000
00001000
00000100
00000001
00000010
00000100
,  // measure 47
00002000
00000000
00000000
00000000
00003001
00000000
00000000
00000000
00001000
00000000
00000100
00001000
00000100
00001000
00000100
00010000
,  // measure 48
00002000
00100000
00023000
00000100
00032000
00100000
00023000
00000100
,  // measure 49
00032000
00000000
00100000
00000000
00023000
00000000
00000100
00000000
00031000
00000000
00100000
00010000
00100000
00010000
00100000
00001000
,  // measure 50
00020000
00000100
00032000
00100000
00023000
00000100
00032000
00100000
,  // measure 51
00023000
00000000
00000100
00000000
00032000
00000000
00100000
00000000
00013000
00000000
00000100
00010000
00000100
00010000
00001000
00100000
,  // measure 52
00002000
00010000
00203000
00010000
00302000
00010000
00203000
00010000
,  // measure 53
00302000
00000000
00010000
00000000
00203000
00000000
00010000
00000000
00301000
00000000
00100000
00001000
00100000
00001000
00010000
00001000
,  // measure 54
00020000
00001000
00030200
00001000
00020300
00001000
00030200
00001000
,  // measure 55
00020300
00000000
00001000
00000000
00030200
00000000
00001000
00000000
00010300
00000000
00001000
00010000
00001000
00000000
00010000
00001000
,  // measure 56
00200000
00000000
00000000
00000000
00310000
00000000
01000000
00000000
00100000
00000000
00100000
10000000
00000000
10000000
01000000
00000000
,  // measure 57
00100000
00000000
00010000
00000000
10000000
00000000
00100000
00000000
01000000
00000000
00010000
10000000
00010000
00000000
01000000
00010000
,  // measure 58
00200000
00000000
00000000
00000000
00310000
00000000
00100000
00000000
00001000
00000000
00001000
00010000
00000000
00010000
00000100
00000000
,  // measure 59
00001000
00000000
00000010
00000000
00000100
00000000
00000001
00000000
00001000
00000000
00000010
00001000
00000010
00000000
00001000
00000001
,  // measure 60
00000100
00000000
00000000
00000000
00000000
00000000
00000010
00000000
00000010
00000000
00000000
00001000
00000000
00000000
00001100
00000000
;
