#TITLE:Wilt;
#SUBTITLE:;
#ARTIST:VerseQuence;
#TITLETRANSLIT:;
#SUBTITLETRANSLIT:;
#ARTISTTRANSLIT:;
#GENRE:Dark Pop;
#CREDIT:;
#BANNER:Wilt.png;
#BACKGROUND:Wilt-bg.png;
#LYRICSPATH:;
#CDTITLE:;
#MUSIC:Wilt.ogg;
#OFFSET:0.002000;
#SAMPLESTART:54.856117;
#SAMPLELENGTH:15.533999;
#SELECTABLE:YES;
#BPMS:0.000000=140.000000
;
#STOPS:
;
#BGCHANGES:0.000=Wilt.avi=1.000=0=0=1=====,
99999=-nosongbg-=1.000=0=0=0 // don't automatically add -songbackground-
;
#KEYSOUNDS:;
#ATTACKS:;

//---------------dance-single - ----------------
#NOTES:
     dance-single:
     :
     Hard:
     7:
     0.480824,0.543700,0.272532,0.688142,0.000000,353.000000,40.000000,101.000000,0.000000,0.000000,0.000000,0.480824,0.543700,0.272532,0.688142,0.000000,353.000000,40.000000,101.000000,0.000000,0.000000,0.000000:
0000
0000
0000
0000
,
0000
0000
0000
0000
,
0000
0000
0000
0000
,
0000
0000
0000
0000
,
1100
0000
0000
0001
1000
0000
0000
0000
,
0101
0100
1001
0000
,
1010
0000
0000
0001
1000
0000
0000
0000
,
0011
0000
0000
0000
0001
1000
0001
0001
,
0100
0010
0200
0000
0301
0000
0100
0010
,
0100
0010
2000
0000
3100
0000
0000
0000
,
1000
0001
2000
0000
3001
0000
1000
0100
,
0020
0032
2003
3020
,
0130
0010
0100
0000
0002
0000
1003
0100
,
1000
0100
0020
0000
0031
0000
0000
0000
,
1000
0001
2000
0000
3010
0000
1000
0001
,
0200
0000
0320
0000
1030
0001
0100
0000
,
1001
0000
0010
1000
0100
0000
2100
0000
,
3001
0000
1000
0001
0100
0000
0102
0000
,
1003
0000
0010
1000
0001
0000
0010
0001
,
0100
0000
0001
1000
0001
1000
0010
0000
,
0200
0302
2003
3200
,
0300
0000
0000
0000
1000
0001
1000
0000
,
0002
2003
3020
0230
,
0300
0000
0001
0000
0100
0010
0100
0000
,
0101
0000
0010
1000
0200
0000
0320
0000
,
0030
0000
0001
1000
0020
0000
0230
0000
,
0300
0000
0001
1000
0010
0000
1000
0001
,
0010
0000
0001
0010
0100
1000
0001
0000
,
1100
0110
0002
2000
,
0000
3003
0001
1000
,
0101
0110
2000
0002
,
3003
0000
1000
0000
0001
1000
0001
0000
,
0100
0001
2010
3100
,
0012
0103
1001
2002
,
3003
0000
0001
0000
1000
0000
0010
1000
,
0001
0000
0010
0001
1000
0001
1000
0000
,
0100
1000
0010
0000
2200
0000
3300
0000
,
0010
1000
0001
0000
0022
0000
0033
0000
,
0001
1000
0010
0000
2020
0000
3030
0000
,
0001
0000
1000
0000
0010
0100
0001
0000
,
1000
0000
0010
1000
0100
0000
0010
0001
,
0100
0000
0001
1000
0002
0000
2003
0000
,
3020
0030
0100
0010
,
1000
0100
1000
0100
0020
0000
0031
0000
,
1000
0001
1000
0000
0202
0000
0303
0000
,
0001
1000
0001
0000
2200
0000
3300
0000
,
1000
0001
1000
0000
0220
0000
0330
0000
,
0110
0000
1001
0000
0001
1000
0010
0000
,
1010
0000
0000
0000
1000
0100
0001
0000
,
1000
0000
0001
1000
,
0011
0000
0000
0000
0001
0010
1000
0000
,
0100
1000
0010
0100
0001
0010
0100
0000
,
0110
0011
2000
0200
,
3300
0000
0000
0000
0001
1000
0001
0000
,
1100
0101
2000
0020
,
3030
0000
0002
0000
1003
0100
1000
0000
,
0001
0000
0000
0000
1000
0010
0001
0000
,
0101
1000
0010
0000
,
0001
0000
0000
0000
1000
0100
0001
0000
,
1000
0100
1000
0000
0001
0100
0001
0000
,
0020
0032
2003
3020
,
0130
0000
0000
0000
0010
0100
0010
0000
,
2000
3020
0230
0302
,
0003
0000
1000
0000
0001
1000
0001
0000
,
1200
0320
0032
2003
,
3020
0230
0302
0023
,
0230
0000
2300
0000
3002
0000
0103
0010
,
0100
0000
0001
0100
0001
0100
0001
0000
,
1000
0100
1000
0000
2200
0000
3300
0000
,
0001
0100
0001
0000
0202
0000
0303
0000
,
1000
0001
1000
0000
2002
0000
3003
0000
,
0001
0000
1000
0000
0010
0100
0010
0010
,
2000
3200
0320
0032
,
0203
0320
2030
3002
,
0023
0032
0203
0320
,
1030
0001
1000
0001
1000
0000
0001
0000
,
0100
0001
0100
0000
2002
0000
3003
0000
,
0100
0001
0100
0000
2002
0000
3003
0000
,
0100
0001
0100
0000
2002
0000
3003
0000
,
0001
0000
1000
0000
0010
1000
0001
0000
,
1000
0100
0100
2000
,
3010
0100
0100
0002
,
1003
0010
0010
2000
,
3001
0010
0010
0001
,
1001
0000
0000
0000
;

//---------------dance-single - ----------------
#NOTES:
     dance-single:
     :
     Challenge:
     8:
     0.569396,0.543700,0.292971,0.156706,0.109013,519.000000,43.000000,23.000000,0.000000,0.000000,0.000000,0.569396,0.543700,0.292971,0.156706,0.109013,519.000000,43.000000,23.000000,0.000000,0.000000,0.000000:
// measure 0
0000
0000
0000
0000
,  // measure 1
0000
0000
0000
0000
,  // measure 2
0000
0000
0000
0000
,  // measure 3
0000
0000
0000
0000
,  // measure 4
0101
0000
0000
0100
0110
0000
0000
0000
,  // measure 5
1010
0000
0001
1000
1001
0000
0000
0000
,  // measure 6
1100
0000
0000
0001
0101
0000
0000
0000
,  // measure 7
1001
0000
0000
0000
0001
0000
0000
0000
0100
0000
0010
0100
0010
0000
0100
0000
,  // measure 8
0001
1000
0010
1000
0001
0100
0010
0100
,  // measure 9
0001
1000
0010
1000
0001
0000
0010
0000
,  // measure 10
0001
0010
0100
1000
0001
0000
1000
0100
,  // measure 11
1100
0000
0000
0000
0011
0000
0000
0000
0001
0000
1000
0010
1000
0000
0010
0000
,  // measure 12
1000
0001
0100
0001
1000
0010
0100
0010
,  // measure 13
1000
0001
0100
0001
1000
0000
0100
0000
,  // measure 14
1000
0100
0010
0001
1000
0000
0001
0010
,  // measure 15
0011
0000
0000
0000
1100
0000
0000
0000
0001
0000
1000
0001
1000
0000
0001
0000
,  // measure 16
0100
0000
0010
1000
1010
0000
1100
0000
,  // measure 17
1000
0000
0100
0010
0110
0000
0011
0000
,  // measure 18
1000
0000
0001
1000
0010
0000
1000
0001
,  // measure 19
0010
0000
0001
0010
0100
1000
0001
0000
,  // measure 20
1000
0100
0000
0000
0100
0010
0000
0000
0010
0001
0000
0000
0001
1000
0000
0000
,  // measure 21
0010
0000
1000
0100
0010
0000
0001
0000
,  // measure 22
1000
0010
0000
0000
0010
0100
0000
0000
0100
0001
0000
0000
2000
0000
0000
0000
,  // measure 23
3001
0000
1000
0010
1000
0001
0010
0000
,  // measure 24
1001
0000
0001
1000
0010
1000
0001
0000
,  // measure 25
0100
0000
0010
1000
0100
1000
0001
0000
,  // measure 26
0010
0000
0001
1000
0010
0000
1000
0100
,  // measure 27
0010
0000
0001
1000
0010
0100
0001
0000
,  // measure 28
0100
0010
0000
0000
0010
1000
0000
0000
1000
0100
0000
0000
0100
0010
0000
0000
,  // measure 29
0001
0000
0010
0001
1000
0001
1000
0000
,  // measure 30
0001
0100
0000
0000
0100
0010
0000
0000
0010
1000
0000
0000
0002
0000
0000
0000
,  // measure 31
1003
0000
0000
0000
0001
0000
1000
0000
0010
0000
0100
0010
0100
0000
0001
0000
,  // measure 32
1000
0100
0010
0001
0100
1000
0100
0010
,  // measure 33
1000
0100
0010
0001
1000
0010
0001
0010
,  // measure 34
0100
0001
0010
0100
1000
0001
0100
0010
,  // measure 35
1000
0100
0010
0001
1000
0010
0100
0000
,  // measure 36
0001
1000
0001
0000
1000
0000
0010
0000
0200
0000
0000
0000
0301
0000
0000
0000
,  // measure 37
1000
0001
1000
0000
0100
0000
1000
0000
0002
0000
0000
0000
0103
0000
0000
0000
,  // measure 38
0001
1000
0001
0000
1000
0000
0001
0000
0200
0000
0000
0000
0310
0000
0000
0000
,  // measure 39
1000
0000
0010
0000
0100
0000
0000
0000
0001
0000
0010
0001
0010
0000
0001
0000
,  // measure 40
1000
0100
0010
0001
0100
1000
0100
0010
,  // measure 41
1000
0100
0010
0001
1000
0010
0100
0001
,  // measure 42
0010
1000
0010
0001
0100
0010
1000
0100
,  // measure 43
0010
0001
1000
0010
0100
0001
1000
0000
,  // measure 44
0001
1000
0001
0000
1000
0000
0010
0000
0200
0000
0000
0000
0301
0000
0000
0000
,  // measure 45
1000
0001
1000
0000
0001
0000
1000
0000
0020
0000
0000
0000
0130
0000
0000
0000
,  // measure 46
0001
1000
0001
0000
1000
0000
0010
0000
0200
0000
0000
0000
0301
0000
0000
0000
,  // measure 47
0100
0000
0001
0000
1000
0000
0000
0000
0010
0000
1000
0010
1000
0000
0010
0000
,  // measure 48
1000
0100
0010
0001
0010
0100
1000
0000
,  // measure 49
0001
0100
0010
1000
0010
0100
0001
0000
,  // measure 50
1000
0001
1000
0000
0001
0100
0001
0000
,  // measure 51
1000
1000
0100
0100
0010
0001
1000
0000
,  // measure 52
1001
1100
1001
0012
,  // measure 53
1003
0000
0001
1000
0010
0000
0100
0000
,  // measure 54
0110
1010
1100
1002
,  // measure 55
0103
0000
0001
1000
0001
0010
0010
0000
,  // measure 56
0001
0010
0100
1000
0100
0010
0001
0000
,  // measure 57
1000
0010
0100
0001
0100
0010
1000
0000
,  // measure 58
0001
1000
0001
0000
1000
0010
1000
1000
,  // measure 59
0002
0000
0013
0010
0001
1000
0010
0000
,  // measure 60
1001
0011
1001
2100
,  // measure 61
3001
0000
1000
0001
0100
0000
0010
0000
,  // measure 62
0110
0101
0011
2001
,  // measure 63
3010
0000
0000
0000
1000
0000
0001
0000
1000
0000
0010
0100
0010
0000
0100
0000
,  // measure 64
0001
0010
1000
0010
0001
0100
1000
0100
,  // measure 65
0001
1000
0100
0010
0001
1000
0020
0000
,  // measure 66
0130
0010
1000
0000
0100
1000
0001
0000
,  // measure 67
1100
0000
0001
1000
0010
0100
0001
0000
,  // measure 68
0101
0100
0010
0000
1002
0000
0013
0000
,  // measure 69
1100
0100
0010
0000
2001
0000
3010
0000
,  // measure 70
0101
0100
0010
0000
1001
1000
0010
0100
,  // measure 71
0001
0000
0010
0000
0100
0000
1000
0000
0001
0000
0100
0010
0100
0000
0010
0000
,  // measure 72
1000
0010
0001
0010
0100
0010
1000
0010
,  // measure 73
0100
0010
0100
1000
0100
0001
0100
0010
,  // measure 74
1000
0100
0010
0001
1000
0010
0100
0001
,  // measure 75
0010
0010
0001
0001
1000
0010
0100
0000
,  // measure 76
0001
1000
0001
0000
1000
0000
0001
0000
0100
0000
0000
0000
1001
0000
0000
0000
,  // measure 77
1000
0001
1000
0000
0001
0000
1000
0000
0100
0000
0000
0000
1001
0000
0000
0000
,  // measure 78
0001
1000
0001
0000
1000
0000
0001
0000
0100
0000
0000
0000
1001
0000
0000
0000
,  // measure 79
1000
0000
0010
0000
0100
0000
0001
0000
0010
0000
0001
1000
0001
0000
1000
0000
,  // measure 80
0020
0100
1000
2030
,  // measure 81
3200
0010
0010
2300
,  // measure 82
3002
0100
1000
0023
,  // measure 83
0230
0001
0010
1300
,  // measure 84
1001
0000
0000
0000
;

//---------------dance-double - ----------------
#NOTES:
     dance-double:
     :
     Challenge:
     7:
     0.484717,0.486469,0.408797,0.231652,0.000000,404.000000,60.000000,34.000000,0.000000,0.000000,0.000000,0.484717,0.486469,0.408797,0.231652,0.000000,404.000000,60.000000,34.000000,0.000000,0.000000,0.000000:
00000000
00000000
00000000
00000000
,
00000000
00000000
00000000
00000000
,
00000000
00000000
00000000
00000000
,
00000000
00000000
00000000
00000000
,
01001000
00000000
00000000
00010000
00001000
00000000
00000000
00000000
,
00010100
00000000
00000100
00010000
00001000
00000000
00000000
00000000
,
00101000
00000000
00000000
00010000
00001000
00000000
00000000
00000000
,
00010010
00000000
00000010
00010000
00001000
00000000
00010000
00000000
,
00001000
00010000
00000020
00000000
00001030
00000000
00000010
00000100
,
00000010
00000100
00000002
00000000
00001003
00000000
00000000
00000000
,
00000001
00001000
00000010
00000000
00000100
00000000
00000010
00001000
,
00000100
00010000
00011000
00101000
,
00100000
00010000
10000000
00000000
00010000
00000000
10000000
00100000
,
10000000
00100000
02000000
00000000
03010000
00000000
00000000
00000000
,
10000000
01000000
10000000
00000000
00010000
00000000
00100000
00010000
,
01000000
00000000
00100000
00000000
10000000
00100000
01000000
00000000
,
10010000
00000000
10000000
01000000
00010000
00000000
00002000
00000000
,
00003000
00000000
00010000
00001000
00000100
00000000
00000002
00000000
,
00001003
00000000
00000010
00000100
00000010
00000000
00001000
00000100
,
00001000
00000000
00000001
00000100
00000010
00001000
00000100
00000000
,
00001100
00010100
00011000
00201000
,
00300000
00000000
00010000
00000000
00100000
00010000
10000000
00000000
,
10100000
10010000
01010000
20010000
,
30010000
00000000
10000000
00000000
00100000
10000000
00010000
00000000
,
10000000
00000000
00100000
01000000
00020000
00000000
00130000
00000000
,
00010000
00000000
01000000
00100000
20000000
00000000
31000000
00000000
,
10000000
00000000
00100000
01000000
00100000
00000000
10000000
00010000
,
10000000
00000000
10000000
01000000
00010000
00001000
00000100
00000000
,
00000101
00001010
00001100
00000012
,
00001003
00000000
00000001
00001000
00000001
00000000
00001000
00000000
,
00001100
00000011
00000101
00002001
,
00003010
00000000
00001000
00000000
00000001
00001000
00000001
00000000
,
00001000
00000000
00000010
00001000
00000200
00000000
00010300
00001000
,
00200000
00000000
00310000
10000000
00200000
00000000
02300000
00000000
,
03010000
00000000
10000000
01000000
10000000
00000000
00010000
01000000
,
00002000
00000000
00103000
00010000
01000000
00010000
10000000
00000000
,
00100000
10000000
00010000
00000000
10020000
00000000
01030000
00000000
,
00010000
10000000
00100000
00000000
10020000
00000000
10030000
00000000
,
00010000
10000000
00100000
00000000
10020000
00000000
01030000
00000000
,
00010000
01000000
00001000
00010000
,
00010100
00000000
00001000
00000010
00000100
00000000
00000001
00001000
,
00000010
00000000
00000100
00000001
00002000
00000000
00003200
00000000
,
00000310
00000000
00000001
00001000
00000001
00000000
00000100
00000000
,
00000001
00000010
00000100
00001000
00000010
00000100
00001000
00000000
,
00000100
00000010
00000100
00000010
00002000
00000000
00003100
00000000
,
00010000
00000100
00010000
00000100
00002000
00000000
00003100
00000000
,
00010000
00001000
00010000
00001000
00200000
00000000
00310000
00000000
,
01000000
00010000
10000000
00000000
00100000
10000000
00010000
00000000
,
10010000
00000000
00000000
00000000
10000000
00100000
00010000
00000000
,
00001000
00000000
00011000
00101000
,
00001000
00000000
00000000
00000000
00010000
00001000
00000010
00000000
,
00000001
00001000
00000001
00001000
00000010
00000100
00000001
00000000
,
00000101
00001100
00001010
00000012
,
00000103
00000000
00000001
00000100
00000001
00000000
00001000
00000000
,
00001010
00001100
00000011
00002001
,
00003001
00000000
00001000
00000010
00001000
00000001
00000100
00000000
,
00001001
00000000
00000000
00000000
00000001
00000100
00001000
00000000
,
00010000
00000000
00000000
00000000
00001000
00010000
00001000
00000000
,
00011000
00000000
00000000
00000000
00001000
00010000
01000000
00000000
,
10000000
00000000
01000000
00100000
01000000
00100000
00010000
00000000
,
00110000
10100000
11000000
01020000
,
10030000
00000000
00010000
00000000
01000000
00010000
10000000
00000000
,
10100000
11000000
01010000
00120000
,
10030000
00000000
00010000
00000000
01000000
00010000
00100000
00000000
,
00110000
00001000
00102000
00013000
,
00021000
00030100
00001100
00001002
,
00000103
00000000
00000001
00001000
00000001
00000000
00000100
00000000
,
00000001
00001000
00000010
00000000
00000100
00000001
00001000
00000000
,
00000010
00001000
00000100
00001000
00000010
00000000
00001100
00000000
,
00001000
00000100
00010000
00000100
00001000
00000000
00010100
00000000
,
00010000
00001000
00100000
00001000
00010000
00000000
00011000
00000000
,
00001000
01000000
00010000
00000000
10000000
00010000
10000000
00000000
,
00100000
00000000
10000000
00010000
10000000
00000000
00010000
00000000
,
00100000
00010000
01000000
00001000
00010000
00000010
00001000
00000000
,
00000100
00000000
00001000
00000010
00000100
00000000
00000001
00000000
,
00000100
00000010
00001000
00000010
00000100
00000001
00001000
00000000
,
00000001
00000010
00000100
00001000
00000020
00000000
00000130
00000000
,
00000010
00000100
00001000
00000100
00000020
00000000
00001030
00000000
,
00000100
00010000
00001000
00100000
00002000
00000000
00013000
00000000
,
00001000
01000000
00010000
00000000
01000000
00100000
10000000
00000000
,
01000000
00100000
00100000
01100000
,
00010000
01000000
01000000
01001000
,
00010000
00000100
00000100
00001100
,
00000001
00000100
00000100
00000010
,
00001001
00000000
00000000
00000000
;

//---------------dance-single - ----------------
#NOTES:
     dance-single:
     :
     Medium:
     5:
     0.315358,0.372006,0.061320,0.265718,0.000000,276.000000,9.000000,39.000000,0.000000,0.000000,0.000000,0.315358,0.372006,0.061320,0.265718,0.000000,276.000000,9.000000,39.000000,0.000000,0.000000,0.000000:
0000
0000
0000
0000
,
0000
0000
0000
0000
,
0000
0000
0000
0000
,
0000
0000
0000
0000
,
1000
0100
0100
0000
,
1000
0001
0100
0000
,
0001
0100
0100
0000
,
0001
1000
0010
0000
,
1000
0100
1000
0000
0000
0000
0000
0000
,
0001
0100
0001
0000
0000
0000
0000
0000
,
1000
0001
1000
0000
0000
0000
0000
0000
,
0001
0100
0010
1000
,
0100
1000
0100
0000
0000
0000
0000
0000
,
1000
0010
1000
0000
0000
0000
0000
0000
,
0001
1000
0001
0000
0000
0000
0000
0000
,
1000
0000
0001
0000
0100
0010
0100
0000
,
0001
0000
0000
0000
0100
0010
0100
0000
,
0001
0000
0100
0001
,
1000
0000
0000
0000
0100
1000
0100
0000
,
1000
0000
0010
1000
,
0002
0023
0230
2300
,
3001
0000
1000
0000
,
2000
3020
0230
0302
,
1003
0000
0001
0001
,
0100
0000
0000
0000
0001
0100
0010
0000
,
1000
0000
0100
1000
,
0010
0000
0000
0000
1000
0100
0010
0000
,
0001
0000
1000
0001
,
2000
3020
0230
0302
,
1003
0000
0001
0000
,
0002
0203
0320
2030
,
3100
0000
1000
1000
,
0001
0000
1100
0000
,
0011
0000
2000
0020
,
0000
0000
3030
0000
1000
0000
0001
1000
,
0001
1000
0010
0100
,
0001
0010
0001
0000
0020
0000
0030
0000
,
0001
0100
0001
0000
0200
0000
0300
0000
,
0001
1000
0001
0000
2000
0000
3000
0000
,
0001
1000
0010
0010
,
0100
0000
0110
0000
,
0101
0000
2000
0002
,
0000
3003
0001
0000
,
1000
0001
1000
0000
0001
0000
0001
0000
,
1000
0100
1000
0000
0200
0000
0300
0000
,
1000
0010
1000
0000
0020
0000
0030
0000
,
1000
0001
1000
0000
0002
0000
0003
0000
,
1000
0001
0100
0100
,
0010
0000
0000
0000
1000
0010
1000
0000
,
0001
0000
0010
0001
,
0100
0000
0001
1000
,
0010
0100
0010
0100
0010
0100
0010
0000
,
1000
0010
0100
0001
,
1000
0000
0001
0001
,
1000
0001
0010
0001
,
0100
0010
1000
1000
,
0001
0000
0000
0000
0100
0010
0100
0000
,
0001
0000
1000
1000
,
0100
0000
1000
1000
,
0010
0000
1000
0000
0001
1000
0001
0000
,
1000
0100
0010
0001
,
0100
0000
0001
1000
,
0001
0010
0100
1000
,
0010
0100
0001
0001
,
1000
0000
1010
0000
,
0101
0000
2000
0002
,
0000
0000
3003
0000
1000
0000
0001
0100
,
0001
1000
0010
0010
,
1000
0001
1000
0000
0002
0000
0003
0000
,
1000
0010
1000
0000
0020
0000
0030
0000
,
1000
0100
1000
0000
0200
0000
0300
0000
,
1000
0001
0100
0100
,
0010
0000
1010
0000
,
0101
0000
0002
0020
,
0000
0033
0001
0000
,
1000
0001
1000
0001
1000
0001
1000
0000
,
0001
0100
0001
0000
0200
0000
0300
0000
,
0001
1000
0001
0000
2000
0000
3000
0000
,
0001
0010
0001
0000
0020
0000
0030
0000
,
0001
1000
0010
0100
,
0001
0000
0000
2000
,
3100
0000
0000
0020
,
0031
0000
0000
0002
,
0103
0000
0000
0010
,
1010
0000
0000
0000
;

//---------------dance-single - ----------------
#NOTES:
     dance-single:
     :
     Easy:
     3:
     0.187852,0.228926,0.027253,0.000000,0.000000,189.000000,4.000000,0.000000,0.000000,0.000000,0.000000,0.187852,0.228926,0.027253,0.000000,0.000000,189.000000,4.000000,0.000000,0.000000,0.000000,0.000000:
0000
0000
0000
0000
,
0000
0000
0000
0000
,
0000
0000
0000
0000
,
0000
0000
0000
0000
,
0001
0000
0100
0000
,
0010
0010
1000
0000
,
0100
0000
1000
0000
,
0001
0001
0010
0000
,
0001
0100
0001
0000
,
1000
0000
0001
0000
,
1000
0100
1000
0000
,
0001
0000
1000
0000
,
0001
0010
0001
0000
,
1000
0000
0001
0000
,
1000
0010
1000
0000
,
0001
0000
1000
0000
,
0000
0100
0100
0010
,
0000
0010
0010
0001
,
0000
0001
1000
0000
,
0010
0010
0010
0000
,
1000
0100
1000
0100
,
0000
0000
1000
0000
,
0001
0100
0001
0100
,
0000
0000
0010
0010
,
0000
0000
1000
0100
,
0000
0000
0010
0001
,
0000
0000
0001
0000
,
1000
0000
0010
0000
,
0100
0100
0001
0001
,
0000
0000
1000
0000
,
0010
0010
1000
1000
,
0000
0000
0001
0000
,
1001
0000
1000
0000
,
0001
0000
0100
0100
,
0000
0000
0001
0000
,
1000
0000
0010
0000
,
1000
1000
0100
0000
,
1000
1000
0001
0000
,
1000
1000
0010
0000
,
1000
0000
0001
0000
,
1001
0000
0001
0000
,
0100
0000
0010
0010
,
0000
0000
0100
0000
,
0001
0000
1000
0000
,
0001
0001
0010
0000
,
0001
0001
0100
0000
,
0001
0001
1000
0000
,
0001
0000
0100
0000
,
1001
0000
1000
0010
,
0000
0000
0100
0000
,
0000
0000
0001
0010
,
0000
0000
0001
0000
,
1000
1000
0100
0100
,
0000
0000
1000
0000
,
0001
0001
0100
0100
,
0000
0000
0001
0000
,
0000
0000
1000
0010
,
0000
0000
1000
0000
,
0000
0000
0001
0010
,
0000
0000
0001
0000
,
0100
0100
0001
0001
,
0000
0000
1000
0000
,
0010
0010
0100
0100
,
0000
0000
0001
0000
,
1001
0000
1000
0000
,
0001
0000
0010
0010
,
0000
0000
0001
0000
,
0100
0000
0001
0000
,
1000
1000
0100
0000
,
1000
1000
0010
0000
,
1000
1000
0001
0000
,
1000
0000
0001
0000
,
0100
0000
0010
0000
,
0010
0000
1000
0100
,
0000
0000
1000
0000
,
0001
0000
1000
0000
,
0010
0010
0100
0000
,
0001
0001
0100
0000
,
0010
0010
0100
0000
,
0001
0010
0100
1000
,
0001
0000
0000
1000
,
0100
0000
0000
0010
,
0001
0000
0000
1000
,
0010
0000
0000
0100
,
0100
0000
0000
0000
;

//---------------dance-single - ----------------
#NOTES:
     dance-single:
     :
     Beginner:
     2:
     0.109986,0.143079,0.040880,0.000000,0.000000,107.000000,6.000000,0.000000,0.000000,0.000000,0.000000,0.109986,0.143079,0.040880,0.000000,0.000000,107.000000,6.000000,0.000000,0.000000,0.000000,0.000000:
0000
0000
0000
0000
,
0000
0000
0000
0000
,
0000
0000
0000
0000
,
0000
0000
0000
0000
,
1000
0000
0000
0000
,
0010
0000
0000
0000
,
0100
0000
0000
0000
,
0001
0000
0000
0000
,
1000
1000
0000
0000
,
1000
1000
0000
0000
,
0100
0000
0000
0000
,
0010
0010
0000
0000
,
0001
0001
0000
0000
,
0001
0001
0000
0000
,
0100
0000
0000
0000
,
0010
0000
0000
0000
,
0000
0000
1000
1000
,
0000
0000
0001
0001
,
0000
0000
0000
0000
,
0100
0000
0000
0000
,
0010
0000
0010
0010
,
0000
0000
0000
0000
,
0100
0000
0100
0100
,
0000
0000
0000
0000
,
0000
0000
0001
0001
,
0000
0000
1000
1000
,
0000
0000
0000
0000
,
0010
0000
0000
0000
,
1000
0000
1000
1000
,
0000
0000
0000
0000
,
0001
0000
0001
0001
,
0000
0000
0000
0000
,
1001
0000
0000
0000
,
0100
0000
0100
0100
,
0000
0000
0000
0000
,
0010
0000
0000
0000
,
1000
1000
0000
0000
,
0001
0001
0000
0000
,
1000
1000
0000
0000
,
0000
0000
0000
0000
,
1001
0000
0000
0000
,
0010
0000
0010
0010
,
0000
0000
0000
0000
,
0100
0000
0000
0000
,
0001
0001
0000
0000
,
1000
1000
0000
0000
,
0001
0001
0000
0000
,
0000
0000
0000
0000
,
1001
0000
0000
0000
,
1000
0000
0000
0000
,
0010
0000
0000
0000
,
0100
0000
0100
0000
,
0100
0000
0000
0000
,
0001
0000
0000
0000
,
1000
0000
0000
0000
,
0010
0000
0000
0000
,
1000
0000
0000
0000
,
0001
0000
0000
0000
,
0100
0000
0000
0000
,
0010
0000
0010
0000
,
0010
0000
0000
0000
,
1000
0000
0000
0000
,
0001
0000
0000
0000
,
0100
0000
0000
0000
,
1001
0000
0000
0000
,
0001
0000
0001
0001
,
0000
0000
0000
0000
,
1000
0000
0000
0000
,
0010
0010
0000
0000
,
0010
0010
0000
0000
,
0010
0010
0000
0000
,
0000
0000
0000
0000
,
1001
0000
0000
0000
,
1000
0000
0000
0000
,
0001
0000
0000
0000
,
0100
0000
0000
0000
,
0001
0001
0000
0000
,
0001
0001
0000
0000
,
0001
0001
0000
0000
,
0000
0000
0000
0000
,
1000
0000
0000
0100
,
0100
0000
0000
0000
,
0010
0000
0000
0001
,
0001
0000
0000
0000
,
1001
0000
0000
0000
;
