#TITLE:Wildest Dreams;
#SUBTITLE:;
#ARTIST:Taylor Swift;
#TITLETRANSLIT:;
#SUBTITLETRANSLIT:;
#ARTISTTRANSLIT:;
#GENRE:YEP, MORE TAYLOR;
#CREDIT:;
#BANNER:Wildest Dreams.png;
#BACKGROUND:Wildest Dreams-bg.png;
#LYRICSPATH:;
#CDTITLE:cdtitle.png;
#MUSIC:Wildest Dreams.ogg;
#OFFSET:0.000000;
#SAMPLESTART:99.393112;
#SAMPLELENGTH:17.959999;
#SELECTABLE:YES;
#BPMS:0.000000=140.000000
;
#STOPS:
;
#BGCHANGES:8.000=Wildest Dreams.avi=1.000=0=0=1=====,
99999=-nosongbg-=1.000=0=0=0 // don't automatically add -songbackground-
;
#KEYSOUNDS:;
#ATTACKS:;

//---------------dance-single - ----------------
#NOTES:
     dance-single:
     :
     Hard:
     8:
     0.500011,0.563631,0.271378,0.201794,0.000000,435.000000,39.000000,29.000000,0.000000,0.000000,0.000000,0.500011,0.563631,0.271378,0.201794,0.000000,435.000000,39.000000,29.000000,0.000000,0.000000,0.000000:
0000
0000
0000
0000
,
0000
0000
0000
0000
,
0000
0000
0000
0000
,
0000
0000
0000
0000
,
0020
0000
0031
1000
1000
0000
0010
0000
,
0200
0000
0301
0010
0010
0000
0100
0000
,
2000
0000
3010
0100
0100
0000
0001
0000
,
2000
0000
3100
0010
0010
0001
1000
0000
,
0101
0000
0000
0001
0100
0010
1000
0000
,
0001
0000
0100
0000
0001
0010
0100
1000
,
0001
1000
0001
0000
1000
0100
0010
0001
,
1000
0001
1000
0000
0010
0100
0010
0000
,
1000
0001
0100
0000
0001
1000
0100
0010
,
0001
0000
1000
0000
0010
0100
0010
0100
,
0001
1000
0000
0100
0100
0000
1100
0000
,
1000
0100
0001
0100
1000
0010
0001
0010
,
1000
0001
0100
0000
2010
0000
3001
0010
,
0100
1000
0010
0000
0102
0000
1003
0000
,
0001
0010
0100
0000
2100
0000
3001
1000
,
0010
0100
0001
1000
0100
0010
0001
0000
,
0100
0010
0100
0001
2000
0000
3100
0000
,
0010
0100
0010
0001
0200
0000
0301
0010
,
0100
0000
1000
0010
0100
0000
0001
1000
,
0010
0000
0000
0000
,
1000
0002
0000
0013
0200
0000
1300
0010
,
0100
0000
0001
0000
1000
0100
1000
0001
,
0101
0000
1100
0000
0001
0100
0001
1000
,
1100
0101
1001
0110
,
0001
2000
0000
3100
0020
0000
0031
0100
,
0010
0000
1000
0000
0001
0010
0001
1000
,
1010
0000
0011
0000
1000
0010
1000
0001
,
0011
0000
1010
0000
1000
0100
0010
0001
,
1000
0100
1000
0010
1000
0001
1000
0010
,
0100
0001
0100
0010
0100
1000
0100
0001
,
1000
0202
0303
1000
,
0001
0010
0100
0000
1000
0001
0100
0000
,
0001
0010
0001
0100
0001
1000
0001
0100
,
0010
1000
0010
0100
0010
0001
0010
1000
,
0001
2020
3030
0001
,
1000
0100
0010
0000
0001
1000
0010
0100
,
0000
0000
0000
0000
,
0000
0000
0000
0000
0000
0010
0010
0000
,
1000
0100
1000
0001
1000
0001
0100
0000
,
0101
0000
0000
0001
0100
1000
0100
0001
,
1000
0000
0000
0001
0010
1000
0010
0001
,
1000
0000
0001
0010
0100
0000
1000
0000
,
0001
0010
0001
0010
0100
1000
0100
0010
,
0001
0000
1000
0000
0010
0100
0010
0100
,
0001
1000
0100
0010
0001
0000
1000
0000
,
0001
0010
1000
0010
0001
0100
1000
0100
,
0001
1000
0010
0000
0102
0000
1003
0100
,
0010
0001
0100
0000
2010
0000
3001
0000
,
1000
0100
0010
0000
0012
0000
1003
0001
,
0100
0010
1000
0001
0010
0100
1000
0000
,
0010
0100
0010
1000
0002
0000
0013
0000
,
0100
0010
0100
1000
0020
0000
1030
0100
,
0010
0000
0001
0100
0010
0000
1000
0001
,
0100
0000
0000
0000
,
1001
0001
0000
1100
1000
0000
0101
0001
,
1000
0000
0001
0000
1000
0100
0010
0001
,
0011
0000
1100
0000
0001
0010
0100
1000
,
1010
0101
2002
3003
,
0101
0100
0000
1010
0010
0000
1001
0001
,
0100
0000
0001
0000
1000
0100
0010
0001
,
0011
0000
1100
0000
0001
0100
0010
1000
,
1010
0000
0101
0000
1000
0001
0100
0000
,
0001
0010
0001
1000
0001
0100
0001
1000
,
0010
0100
0010
0001
0010
0100
0010
1000
,
0001
0000
2100
0000
3001
1000
0100
0000
,
1000
0001
0100
0000
0001
1000
0010
0000
,
1000
0100
1000
0001
1000
0010
1000
0001
,
0100
0010
0100
1000
0100
0010
0100
0001
,
1000
0000
0012
0000
1003
0001
0010
0000
,
0001
1000
0010
0000
1000
0001
0100
0000
,
0001
0100
0010
0100
1000
0100
0001
0100
,
0010
1000
0010
0100
0010
0001
0010
0100
,
0010
2002
3003
0001
,
1000
0100
0010
0000
0001
1000
0010
1000
,
0002
0000
0000
0000
,
0000
0000
0000
0000
,
0000
0000
0000
0000
,
0003
0000
0000
0000
;

//---------------dance-double - ----------------
#NOTES:
     dance-double:
     :
     Challenge:
     7:
     0.482118,0.535450,0.215711,0.410546,0.000000,395.000000,31.000000,59.000000,0.000000,0.000000,0.000000,0.482118,0.535450,0.215711,0.410546,0.000000,395.000000,31.000000,59.000000,0.000000,0.000000,0.000000:
00000000
00000000
00000000
00000000
,
00000000
00000000
00000000
00000000
,
00000000
00000000
00000000
00000000
,
00000000
00000000
00000000
00000000
,
20000000
00000000
31000000
00000000
10000000
00010000
01000000
00000000
,
00020000
00000000
10030000
00000000
00010000
01000000
00001000
00000000
,
00200000
00000000
00310000
00000000
00100000
00001000
00010000
00000000
,
00000200
00000000
00001300
00000000
00001000
00000001
00000100
00000000
,
00002020
00000000
00003030
00001000
00001000
00000010
00000010
00000000
,
00002010
00000000
00003001
00000000
00000001
00000010
00000001
00001000
,
00000010
00000010
00001000
00000000
00001000
00000010
00001000
00000001
,
00000010
00000010
00000001
00000000
00000001
00001000
00000001
00000000
,
00000100
00000100
00000020
00000000
00002030
00000000
00003100
00000010
,
00000001
00000000
00001000
00000000
00000100
00010000
00001000
01000000
,
00010000
00010000
01000000
00000000
01010000
00000000
10000000
01000000
,
01000000
00100000
00100000
00010000
20000000
00000000
30010000
00010000
,
01000000
00100000
01000000
00000000
02020000
00000000
03030000
00000000
,
00010000
10000000
00010000
00000000
22000000
00000000
33000000
00000000
,
10000000
00100000
10000000
00000000
20200000
00000000
30300000
00000000
,
01000000
00010000
00100000
00001000
00010000
00000100
00001000
00000000
,
00000100
00000010
00000001
00000100
00000200
00000000
00000310
00000000
,
00001000
00000010
00001000
00000001
00000002
00000000
00000103
00000000
,
00000010
00000000
00000000
00001000
00001000
00000000
00000000
00000100
,
00000100
00000000
00000000
00000000
,
00000100
00001000
00000000
00001000
00000010
00000000
00000010
00000200
,
00000000
00000000
00000301
00000000
00001000
00000100
00000010
00000001
,
00001000
00000000
00001100
00000000
00000100
00010000
00001000
01000000
,
00010000
01010000
20020000
30030000
,
10000000
01000000
00000000
01000000
00100000
00000000
00100000
00020000
,
00000000
00000000
10030000
00000000
10000000
01000000
00100000
00010000
,
01000000
00000000
01010000
00000000
01000000
00001000
00010000
00000100
,
00002000
00000000
00003002
00000000
00000023
00000000
00000000
00000030
,
00000001
00000010
00000001
00000010
00000001
00000010
00000001
00000010
,
00000100
00001000
00000100
00001000
00000100
00001000
00000100
00001000
,
00000010
00000100
00000002
00000000
00002003
00000000
00003100
00000000
,
00001100
00000000
00000101
00000000
00001000
00000100
00010000
00000000
,
00001000
00010000
00001000
00010000
00001000
00010000
00001000
00010000
,
00000100
00001000
00000100
00001000
00000100
00001000
00000100
00001000
,
00000100
00010000
00002000
00000000
02003000
00000000
03100000
00000000
,
10010000
00000000
01010000
00000000
10000000
01000000
00010000
00001000
,
00000000
00000000
00000000
00000000
,
00000000
00000000
00000000
00000000
,
00010000
01000000
00010000
00100000
00010000
01000000
01000000
00000000
,
01020000
00000000
10030000
00000000
10000000
01000000
10000000
00010000
,
01000000
01000000
00010000
00000000
00010000
01000000
00010000
10000000
,
01000000
01000000
10000000
00000000
10000000
00010000
10000000
00000000
,
00100000
00100000
02000000
00000000
03020000
00000000
00130000
01000000
,
10000000
00000000
00010000
00000000
00100000
00001000
00010000
00000010
,
00001000
00001000
00000010
00000000
00001010
00000000
00000001
00000010
,
00000010
00000100
00000100
00001000
00000002
00000000
00001003
00001000
,
00000010
00000100
00000010
00000000
00002020
00000000
00003030
00000000
,
00001000
00000001
00001000
00000000
00000022
00000000
00000033
00000000
,
00000001
00000100
00000001
00000000
00000202
00000000
00000303
00000000
,
00000010
00001000
00000100
00010000
00001000
00100000
00010000
00000000
,
00100000
01000000
10000000
00100000
00200000
00000000
01300000
00000000
,
00010000
01000000
00010000
10000000
20000000
00000000
30100000
00000000
,
01000000
00000000
00000000
00010000
00010000
00000000
00000000
00100000
,
00100000
00000000
00000000
00000000
,
00110000
00010000
00000000
10100000
10000000
00000000
10010000
00010000
,
01000000
00000000
00100000
00000000
10000000
01000000
00100000
00010000
,
02000000
00000000
03001000
00000000
00100000
00001000
00010000
00000100
,
00002000
00003010
00002002
00003003
,
00000101
00000001
00000000
00001100
00001000
00000000
00001001
00000001
,
00000100
00000000
00000001
00000000
00001000
00000100
00000010
00000001
,
00001000
00000000
00001100
00000000
00000001
00000100
00000010
00001000
,
00000200
00020300
00032000
00003000
,
00201000
00000000
00010000
00000000
00301000
00000000
00010000
00001000
,
02000000
00000000
03010000
00000000
10000000
01000000
00100000
00010000
,
10000000
02020000
03030000
10000000
,
00010000
00100000
01000000
00000000
00100000
00001000
00010000
00000000
,
00010200
00000000
00001000
00000000
00010300
00000000
00001000
00010000
,
00000020
00000000
00001030
00000000
00000001
00000010
00000100
00001000
,
00000001
00002020
00003030
00000001
,
00001000
00000100
00000010
00000000
00000100
00010000
00001000
00000000
,
00100000
00001000
00100000
00001000
00100000
00001000
00100000
00001000
,
00010000
00000100
00010000
00000100
00010000
00000100
00010000
00000100
,
00001000
00000001
00000200
00000000
00000320
00000000
00001030
00000000
,
00000001
00000010
00000100
00000000
00001000
00000100
00010000
00000000
,
00002000
00000000
00000000
00000000
,
00000000
00000000
00000000
00000000
,
00000000
00000000
00000000
00000000
,
00003000
00000000
00000000
00000000
;

//---------------dance-single - ----------------
#NOTES:
     dance-single:
     :
     Medium:
     5:
     0.312134,0.394542,0.104376,0.187877,0.000000,272.000000,15.000000,27.000000,0.000000,0.000000,0.000000,0.312134,0.394542,0.104376,0.187877,0.000000,272.000000,15.000000,27.000000,0.000000,0.000000,0.000000:
0000
0000
0000
0000
,
0000
0000
0000
0000
,
0000
0000
0000
0000
,
0000
0000
0000
0000
,
2000
3000
1000
1000
,
0002
0003
0001
0001
,
0200
0300
0100
0100
,
0020
0030
0010
0010
,
1000
0000
0000
0000
0001
0010
0001
0000
,
1000
0000
0000
0000
0100
1000
0100
0000
,
1001
0000
0000
0000
0001
0100
0001
0000
,
1001
0000
1000
0001
,
0010
0000
0001
1000
,
0010
0000
0000
0000
1000
0100
1000
0100
,
0010
0000
0001
0000
,
1000
0001
1000
0001
0100
0000
0010
0000
,
0000
1000
0101
0000
,
0001
0010
0100
0000
1100
0000
0000
0000
,
0010
1000
1001
0000
,
0001
0010
0100
0000
1000
0010
0100
0000
,
0001
1000
0010
0000
,
1000
0001
0010
0000
,
0001
1000
0010
0100
,
0001
0000
0000
0000
,
1000
0100
0000
0100
0010
0000
0010
0001
,
0000
0000
0000
0000
1000
0100
1000
0000
,
0001
0000
0001
0000
1000
0100
1000
0000
,
0001
0001
0100
0000
,
0001
0100
0000
0100
0010
0000
0010
1000
,
0000
0000
0000
0000
0001
0100
0001
0000
,
1000
0000
1000
0000
0001
0100
0001
0000
,
1000
1000
0100
0000
,
1000
0100
0010
0001
,
1000
0010
0100
0001
,
0000
2002
3003
0001
,
1000
0100
1000
0000
0001
0100
0001
0000
,
1000
0001
0010
0100
,
1000
0010
0100
0001
,
1000
2002
3003
0001
,
1000
0100
1000
0000
0001
0100
0001
0100
,
0000
0000
0000
0000
,
0000
0000
0000
0000
,
0002
0000
0003
0000
0100
0001
0100
0000
,
0020
0000
0030
0000
1000
0100
1000
0000
,
0002
0000
0003
0000
0010
0100
0010
0000
,
0002
0003
0100
0001
,
2000
0000
3000
0000
0010
0100
0010
0000
,
2000
0000
3000
0000
0100
0010
0100
0000
,
0020
0030
0001
0000
,
1000
0100
1000
0100
0010
0000
0001
0000
,
0000
1000
0101
0000
,
0001
1000
0010
0000
1010
0000
0000
0000
,
1000
0001
0011
0000
,
0001
0010
0100
0000
1000
0010
0100
0000
,
0001
1000
0010
0100
,
0001
1000
0100
0000
,
1000
0000
0000
0000
0001
0000
0000
0100
,
0100
0000
0000
0000
,
0001
0010
0000
0010
0100
0000
0100
1000
,
0000
0000
0000
0000
1000
0100
1000
0000
,
0001
0000
0001
0000
1000
0100
1000
0000
,
0001
0001
0100
0000
,
0001
0010
0000
0010
0100
0000
0100
1000
,
0000
0000
0000
0000
0001
0100
0001
0000
,
1000
0000
1000
0000
0001
0100
0001
0000
,
1000
1000
0100
0000
,
2200
0000
0000
0000
3300
0000
0001
1000
,
0001
0000
0100
0000
0010
1000
0010
0000
,
0000
0202
0303
1000
,
0001
0000
1000
0000
0100
0010
0001
0000
,
0202
0000
0000
0000
0303
0000
0001
1000
,
0001
0000
0100
0010
,
1000
2200
3300
0100
,
1000
0100
1000
0000
0001
0000
0000
0000
,
0100
0001
0100
0001
0100
0000
0000
0000
,
0001
1000
0001
1000
0001
0000
0000
0000
,
1000
0202
0000
0303
,
2000
0000
3001
1000
,
0200
0000
0000
0000
,
0000
0000
0000
0000
,
0000
0000
0000
0000
,
0300
0000
0000
0000
;

//---------------dance-single - ----------------
#NOTES:
     dance-single:
     :
     Easy:
     3:
     0.174954,0.217102,0.000000,0.076543,0.000000,165.000000,0.000000,11.000000,0.000000,0.000000,0.000000,0.174954,0.217102,0.000000,0.076543,0.000000,165.000000,0.000000,11.000000,0.000000,0.000000,0.000000:
0000
0000
0000
0000
,
0000
0000
0000
0000
,
0000
0000
0000
0000
,
0000
0000
0000
0000
,
0100
0000
0001
0000
,
1000
0000
0100
0000
,
0020
0000
0000
0030
,
0001
0000
0000
0000
,
1000
0000
0001
0000
,
0100
0000
0010
1000
,
0010
0000
1000
0010
,
1000
0000
0001
0000
,
1000
0000
0100
0000
,
0010
0000
0001
0100
,
0001
0000
1000
0000
,
0001
0010
0100
1000
,
0000
0001
0100
0000
,
0010
1000
0100
0000
,
0000
1000
0001
0000
,
1000
0100
0010
0000
,
0001
1000
0010
0000
,
0100
0001
1000
0000
,
0100
0000
0100
0000
,
0100
0000
0000
0000
,
1000
0100
1000
0100
,
1000
0000
0010
0000
,
0100
0100
0001
0000
,
0010
0010
0100
0000
,
0010
0001
0010
0001
,
0010
0000
0001
0000
,
0100
0100
0010
0000
,
1000
1000
0100
0000
,
2000
0000
0000
3000
,
0002
0000
0000
0003
,
0100
0100
0000
0000
,
0010
0000
1000
0000
,
0002
0000
0000
0003
,
2000
0000
0000
3000
,
0100
0100
0000
0000
,
0010
0000
0001
1000
,
0000
0000
0000
0000
,
0000
0000
0000
0000
,
0001
0000
1000
0000
,
0010
0000
0100
0100
,
0100
0000
0100
0100
,
0100
0000
0000
0000
,
0001
0000
1000
0000
,
0100
0000
0010
0010
,
0010
0000
0000
0000
,
0001
0010
0100
1000
,
0000
0001
0100
0000
,
0001
1000
0001
0000
,
0000
1000
0100
0000
,
1000
0001
0100
0000
,
0010
1000
0100
0000
,
0010
0001
0100
0000
,
0001
0000
1000
0000
,
0010
0000
0000
0000
,
1000
0001
1000
0001
,
0100
0000
0010
0000
,
1000
1000
0100
0000
,
0010
0010
0001
0000
,
0001
1000
0001
1000
,
0010
0000
1000
0000
,
0001
0001
0100
0000
,
0010
0010
0010
0000
,
2000
0000
0000
3000
,
0020
0000
0000
0030
,
0100
0100
0000
0000
,
0001
0000
1000
0000
,
0002
0000
0000
0003
,
0020
0000
0000
0030
,
0100
0100
0000
0000
,
1000
0000
0001
0000
,
0200
0000
0000
0300
,
0020
0000
0000
0030
,
1000
1000
0000
0000
,
0001
0000
1000
0001
,
0100
0000
0000
0000
;

//---------------dance-single - ----------------
#NOTES:
     dance-single:
     :
     Beginner:
     2:
     0.122269,0.162827,0.006958,0.000000,0.000000,122.000000,1.000000,0.000000,0.000000,0.000000,0.000000,0.122269,0.162827,0.006958,0.000000,0.000000,122.000000,1.000000,0.000000,0.000000,0.000000,0.000000:
// measure 0
0000
0000
0000
0000
,  // measure 1
0000
0000
0000
0000
,  // measure 2
0000
0000
0000
0000
,  // measure 3
0000
0000
0000
0000
,  // measure 4
1000
0000
0000
0000
,  // measure 5
0001
0000
0000
0000
,  // measure 6
0010
0000
0000
0000
,  // measure 7
0000
0000
0000
0000
,  // measure 8
0001
0000
0001
0000
,  // measure 9
0100
0000
0000
0000
,  // measure 10
0010
0010
0000
0000
,  // measure 11
0010
0010
0000
0000
,  // measure 12
1000
0000
0100
0000
,  // measure 13
0010
0000
0000
0000
,  // measure 14
0001
0001
0000
0000
,  // measure 15
1000
0000
0000
0000
,  // measure 16
0000
0010
0010
0000
,  // measure 17
0100
0100
0100
0000
,  // measure 18
0000
0001
0001
0000
,  // measure 19
1000
1000
1000
0000
,  // measure 20
0000
0100
0100
0000
,  // measure 21
0010
0010
0010
0000
,  // measure 22
0001
0000
1000
0000
,  // measure 23
0010
0000
0000
0000
,  // measure 24
1000
0000
0100
0000
,  // measure 25
0010
0000
0000
0000
,  // measure 26
0001
0001
0000
0000
,  // measure 27
1000
1000
0000
0000
,  // measure 28
0001
0000
0100
0000
,  // measure 29
0010
0000
0000
0000
,  // measure 30
1000
1000
0000
0000
,  // measure 31
0001
0001
0000
0000
,  // measure 32
0010
0000
0000
0000
,  // measure 33
0100
0000
0000
0000
,  // measure 34
1000
0000
0000
0000
,  // measure 35
0001
0000
0000
0000
,  // measure 36
0100
0000
0000
0000
,  // measure 37
0010
0000
0000
0000
,  // measure 38
1000
0000
0000
0000
,  // measure 39
0100
0000
0000
0000
,  // measure 40
0000
0000
0000
0000
,  // measure 41
0000
0000
0000
0000
,  // measure 42
1000
0000
0100
0000
,  // measure 43
1000
0000
0000
0000
,  // measure 44
0001
0001
0000
0000
,  // measure 45
1000
1000
0000
0000
,  // measure 46
0001
0000
0100
0000
,  // measure 47
0001
0000
0000
0000
,  // measure 48
1000
1000
0000
0000
,  // measure 49
0010
0010
0010
0000
,  // measure 50
0000
1000
1000
0000
,  // measure 51
0001
0001
0001
0000
,  // measure 52
0000
0010
0010
0000
,  // measure 53
0100
0100
0100
0000
,  // measure 54
0000
1000
1000
0000
,  // measure 55
0010
0010
0010
0000
,  // measure 56
0100
0000
0001
0000
,  // measure 57
1000
0000
0000
0000
,  // measure 58
0001
0000
0010
0000
,  // measure 59
0100
0000
0000
0000
,  // measure 60
1000
1000
0000
0000
,  // measure 61
0001
0001
0000
0000
,  // measure 62
1000
0000
0010
0000
,  // measure 63
0100
0000
0000
0000
,  // measure 64
0001
0001
0000
0000
,  // measure 65
1000
1000
0000
0000
,  // measure 66
0100
0000
0000
0000
,  // measure 67
0010
0000
0000
0000
,  // measure 68
0001
0001
0000
0000
,  // measure 69
1000
0000
1000
0000
,  // measure 70
0010
0000
0000
0000
,  // measure 71
0100
0000
0000
0000
,  // measure 72
0001
0001
0000
0000
,  // measure 73
0010
0000
0010
0000
,  // measure 74
1001
0000
0000
0100
,  // measure 75
0100
0000
0000
0000
,  // measure 76
1000
0000
0000
0000
,  // measure 77
0010
0000
0010
0000
,  // measure 78
0100
0000
0000
0000
;
