#TITLE:When You Go;
#SUBTITLE:;
#ARTIST:Avec Sans;
#TITLETRANSLIT:;
#SUBTITLETRANSLIT:;
#ARTISTTRANSLIT:;
#GENRE:Haunting Electronic;
#CREDIT:;
#BANNER:When You Go.png;
#BACKGROUND:When You Go-bg.png;
#LYRICSPATH:;
#CDTITLE:;
#MUSIC:When You Go.ogg;
#OFFSET:0.020000;
#SAMPLESTART:51.874031;
#SAMPLELENGTH:13.714000;
#SELECTABLE:YES;
#BPMS:0.000000=74.000000
;
#STOPS:
;
#BGCHANGES:4.000=When You Go.avi=1.000=0=0=1=====,
99999=-nosongbg-=1.000=0=0=0 // don't automatically add -songbackground-
;
#KEYSOUNDS:;
#ATTACKS:;

//---------------dance-single - ----------------
#NOTES:
     dance-single:
     :
     Hard:
     8:
     0.423820,0.402275,0.209241,0.112093,0.463319,354.000000,28.000000,15.000000,0.000000,0.000000,0.000000,0.423820,0.402275,0.209241,0.112093,0.463319,354.000000,28.000000,15.000000,0.000000,0.000000,0.000000:
0000
0000
0000
0000
,
0000
0000
0000
0000
,
0001
0010
0001
0010
0100
0000
1000
0010
1000
0010
0100
0001
0000
1000
0100
0000
,
0010
0001
0000
1000
0001
0000
0100
0000
0010
1000
0100
0000
1100
0000
0000
0000
,
0010
0000
1000
0000
0002
0000
0000
0013
0200
0000
0000
0000
1300
0000
0000
0000
,
0020
0000
0000
0130
0002
0000
0000
1003
0200
0000
0310
0000
0001
1000
0010
0000
,
0100
0000
0001
0000
2000
0000
0000
3010
0200
0000
0000
0000
0301
0000
0000
0000
,
2000
0000
0000
3100
0020
0000
0000
0031
2000
0000
3010
0000
0100
0001
1000
0000
,
1001
0000
0000
0000
0001
0010
0100
1000
0100
0010
0001
0000
0101
0000
0000
0000
,
0010
0000
0000
0000
1000
0100
0010
0001
0010
0100
1000
0000
1010
0000
0000
0000
,
0100
0000
0000
0000
0001
0010
1000
0010
0001
0100
0010
0000
0110
0000
0000
0000
,
0001
0000
0000
0000
1000
0100
0001
0100
1000
0010
0001
0000
0110
0000
0000
0000
,
0010
1000
0100
0000
0010
0001
0100
0000
,
0010
1000
0001
0000
0100
0001
1000
0000
,
0102
1000
0100
1003
,
0220
0000
0000
0000
0000
0000
0330
0000
0000
0001
0000
1000
0000
0100
0010
0000
,
0001
0100
1000
0100
0001
1000
0100
0000
1000
0010
0100
0001
1000
0010
0000
0000
,
0100
0100
0001
0010
0100
1000
0000
0000
0010
0010
1000
0100
0010
0001
0100
0000
,
0010
0000
1000
0000
1001
0000
0100
1000
0100
1000
0001
0000
0100
0001
1000
0000
,
0010
0100
0000
0001
1000
0000
0010
0000
1000
0100
0010
0000
0011
0000
0000
0000
,
1000
0010
0001
0010
1000
0001
0010
0000
0001
0100
0010
1000
0001
0100
0000
0000
,
0010
0010
1000
0100
0010
0001
0000
0000
0100
0100
0001
0010
0100
1000
0010
0000
,
0100
0000
0001
0000
1001
0000
0010
0001
0010
0001
1000
0000
0010
1000
0001
0000
,
0100
0010
0000
1000
0001
0000
0100
0000
0001
0010
0100
0000
1100
0000
0000
0000
,
0001
0010
0100
1000
0010
0000
0100
0001
0000
1000
0100
0000
1001
0000
0000
0000
,
1000
0100
0010
0001
1000
0000
0010
0100
0000
0001
1000
0000
1001
0000
0000
0000
,
1000
0010
1000
0010
0100
0000
0001
0010
0001
0010
0100
1000
0000
0010
0100
0000
,
0001
1000
0000
0100
0010
0000
0001
0000
1000
0010
0100
0000
0110
0000
0000
0000
,
0002
0100
0000
0103
,
2000
0100
0000
3100
,
0001
1000
0001
1000
0001
0000
1000
0001
1000
0000
0001
1000
0000
0001
1000
0000
,
0010
0100
0000
0010
0100
0000
0010
0000
0100
0001
1000
0000
1001
0000
0000
0000
,
0101
0100
0010
1000
0100
0000
0000
0000
1100
0100
0010
0001
1000
0000
0000
0000
,
1010
0010
0100
0001
1000
0000
0000
0000
0011
0001
1000
0010
0100
0000
0000
0000
,
0001
0000
1000
0000
0110
0000
0001
0010
0100
1000
0001
0000
1000
0010
1000
0000
,
0001
0100
0000
0010
1000
0000
0001
0010
0100
1000
0001
0000
1001
0000
0000
0000
,
1010
0010
0100
0001
0010
0000
0000
0000
0011
0010
0100
1000
0001
0000
0000
0000
,
0101
0100
0010
1000
0001
0000
0000
0000
1100
1000
0001
0100
0010
0000
0000
0000
,
1000
0000
0001
0000
0110
0000
1000
0100
0010
0001
1000
0000
0001
0100
0001
0000
,
1000
0010
0000
0100
0001
0000
1000
0100
0010
0001
1000
0000
1001
0010
0010
0000
;

//---------------dance-single - ----------------
#NOTES:
     dance-single:
     :
     Medium:
     5:
     0.259416,0.267343,0.044837,0.186822,0.037364,212.000000,6.000000,25.000000,0.000000,0.000000,0.000000,0.259416,0.267343,0.044837,0.186822,0.037364,212.000000,6.000000,25.000000,0.000000,0.000000,0.000000:
0000
0000
0000
0000
,
0000
0000
0000
0000
,
0001
0010
0001
1000
0010
1000
0001
0000
,
0100
0000
0100
0000
0010
1000
0001
0000
,
2000
3100
0020
0031
,
0200
0000
0320
0000
1030
0100
0010
0001
,
2000
3010
0200
0301
,
2000
0000
0000
3000
0002
0000
0000
0000
0013
0000
0001
0000
0100
0000
0010
0000
,
2000
0000
3001
0000
0100
0100
0100
0000
,
0002
0000
1003
0000
0100
0100
0100
0000
,
2000
0000
3001
0000
0010
0010
0010
0000
,
0002
0000
1003
0000
0010
0010
0010
0000
,
2000
3200
0320
0032
,
0203
0320
2030
3002
,
0023
0100
0000
0100
,
0000
0100
0000
0130
,
1001
0000
0001
0000
1000
0000
0010
0000
0100
0001
0100
0000
0000
0000
0000
0000
,
0010
0000
0100
0000
0001
0000
0010
0000
0100
1000
0100
0000
0000
0000
0000
0000
,
1000
0010
0100
0000
0001
0010
0100
0000
,
1000
0001
1000
0001
0100
0100
0100
0000
,
1001
0000
1000
0000
0001
0000
0100
0000
0010
1000
0010
0000
0000
0000
0000
0000
,
0100
0000
0010
0000
1000
0000
0100
0000
0010
0001
0010
0000
0000
0000
0000
0000
,
0001
0100
0010
0000
1000
0100
0010
0000
,
0001
1000
0001
1000
0010
0010
0010
0000
,
0100
0000
0001
0000
1000
0000
0000
0100
0000
0000
0100
0000
1000
0000
0000
0000
,
0010
0000
1000
0000
0001
0000
0000
0010
0000
0000
0010
0000
0001
0000
0000
0000
,
0100
0010
1000
0000
0100
0010
0001
0000
,
1000
0100
1000
0001
0100
0100
0100
0000
,
0020
0100
0000
0130
,
0200
0001
0000
0301
,
0002
1000
0000
1003
,
2000
0100
0000
3100
,
1001
0000
1000
0000
0010
0000
0100
0000
0001
1000
0001
0000
0000
0000
0000
0000
,
1001
0000
0001
0000
0010
0000
0100
0000
1000
0001
1000
0000
0000
0000
0000
0000
,
0010
0010
0100
0001
1000
1000
0100
0000
,
0010
0001
0010
0001
0100
0100
0100
0000
,
1001
0000
0001
0000
0100
0000
0010
0000
1000
0001
1000
0000
0000
0000
0000
0000
,
1001
0000
1000
0000
0100
0000
0010
0000
0001
1000
0001
0000
0000
0000
0000
0000
,
0100
0100
0010
1000
0100
0100
0010
0000
,
0001
1000
0001
0010
0100
0100
0100
0000
;

//---------------dance-single - ----------------
#NOTES:
     dance-single:
     :
     Easy:
     3:
     0.166539,0.237638,0.067256,0.179349,0.000000,123.000000,9.000000,24.000000,0.000000,0.000000,0.000000,0.166539,0.237638,0.067256,0.179349,0.000000,123.000000,9.000000,24.000000,0.000000,0.000000,0.000000:
0000
0000
0000
0000
,
0000
0000
0000
0000
,
0001
1000
0010
0010
,
0100
0100
0001
0000
,
1000
0002
0103
0000
,
0020
0130
0002
1003
,
0100
0020
0031
0000
,
2000
3001
0200
0310
,
2002
0000
3003
0000
0010
0010
0000
0000
,
2002
0000
3003
0000
0100
0100
0000
0000
,
0220
0000
0330
0000
0001
0001
0000
0000
,
0220
0000
0330
0000
1000
1000
0000
0000
,
0002
0013
0200
1300
,
0020
0130
0002
1003
,
2002
0000
0000
0000
,
0000
0000
0000
3003
,
0010
0000
1000
0000
0100
0100
0000
0000
,
0010
0000
0001
0000
0100
0100
0000
0000
,
0010
0010
1000
1000
,
0001
0000
0001
0000
0100
0100
0100
0000
,
0100
0000
0001
0000
1000
1000
0000
0000
,
0100
0000
1000
0000
0001
0001
0000
0000
,
1000
0001
0100
0010
,
1000
0000
0001
0000
0001
0001
0001
0000
,
1000
0000
0010
0010
,
0100
0000
0001
0001
,
0010
0000
0100
0100
,
1000
0000
0000
0000
0001
0001
0001
0000
,
0200
0000
0000
0300
,
0020
0000
0000
0030
,
2000
0000
0000
3000
,
0002
0000
0000
0003
,
1001
0100
0010
0000
,
1001
0010
0100
0000
,
1000
0100
0010
0001
,
1000
0000
0001
0000
0100
0100
0100
0000
,
0110
1000
0001
0000
,
0110
0001
1000
0000
,
0010
1000
0001
0001
,
0010
0000
0001
0000
0100
0100
0100
0000
;

//---------------dance-single - ----------------
#NOTES:
     dance-single:
     :
     Beginner:
     1:
     0.084337,0.103967,0.044837,0.000000,0.000000,73.000000,6.000000,0.000000,0.000000,0.000000,0.000000,0.084337,0.103967,0.044837,0.000000,0.000000,73.000000,6.000000,0.000000,0.000000,0.000000,0.000000:
0000
0000
0000
0000
,
0000
0000
0000
0000
,
1000
0000
0000
0000
,
0001
0000
0001
0000
,
0100
0000
0000
0000
,
0010
0010
0010
0000
,
1000
0000
0000
0000
,
0001
0001
0001
0000
,
1000
0000
0100
0100
,
0000
0000
0100
0100
,
0000
0000
0100
0100
,
0000
0000
0100
0100
,
0100
0000
1000
0000
,
0001
0000
0100
0000
,
0010
0000
0000
0000
,
0000
0000
0000
0000
,
1001
0000
0100
0100
,
0010
0000
1000
0000
,
0001
0000
1000
0000
,
0100
0000
0100
0000
,
1001
0000
0010
0010
,
0100
0000
0001
0000
,
1000
0000
0100
0000
,
0010
0000
0010
0000
,
0110
0000
0001
0000
,
1000
0000
0010
0000
,
1000
0000
0001
0000
,
0100
0100
0100
0000
,
0010
0000
0000
0000
,
1000
0000
0000
0000
,
0001
0000
0000
0000
,
0010
0000
0000
0000
,
1001
0000
0100
0000
,
0010
0000
1000
1000
,
1000
0000
0001
0000
,
0010
0000
0010
0000
,
1001
0000
0000
0000
,
0110
0000
0000
0000
,
1000
0000
0001
0000
,
0100
0100
0100
0100
;

//---------------dance-double - ----------------
#NOTES:
     dance-double:
     :
     Challenge:
     8:
     0.435563,0.446972,0.216714,0.179349,0.444637,355.000000,29.000000,24.000000,0.000000,0.000000,0.000000,0.435563,0.446972,0.216714,0.179349,0.444637,355.000000,29.000000,24.000000,0.000000,0.000000,0.000000:
// measure 0
00000000
00000000
00000000
00000000
,  // measure 1
00000000
00000000
00000000
00000000
,  // measure 2
10000000
01000000
10000000
01000000
00100000
00000000
00010000
01000000
00100000
00000000
10000000
00010000
00000000
10000000
00010000
00000000
,  // measure 3
01000000
00100000
00000000
01000000
00100000
00000000
10000000
01000000
00100000
00010000
10000000
00000000
10010000
00000000
00000000
00000000
,  // measure 4
00010000
00000000
00100000
00000000
00102000
00000000
00000000
00013000
00020000
00000000
00001000
00000000
00030100
00000000
00000000
00000000
,  // measure 5
00002000
00000000
00000000
00003010
00000200
00000000
00000000
00000301
00000010
00000000
00000100
00000000
00001000
00000001
00001000
00000000
,  // measure 6
00000010
00000000
00000100
00000000
00000102
00000000
00000000
00001003
00000200
00000000
00000010
00000000
00010300
00000000
00000000
00000000
,  // measure 7
00002000
00000000
00000000
00103000
00020000
00000000
00000000
10030000
00100000
00000000
01000000
00000000
00010000
10000000
00010000
00000000
,  // measure 8
01010000
00000000
10000000
00000000
00010000
00100000
01000000
10000000
01000000
00100000
00010000
00000000
10010000
00000000
00000000
00000000
,  // measure 9
00110000
00000000
00010000
00000000
10000000
01000000
00100000
00010000
00100000
01000000
10000000
00000000
10010000
00000000
00000000
00000000
,  // measure 10
01010000
00000000
00010000
00000000
01000000
00001000
01000000
00100000
00010000
00001000
00100000
00000000
00101000
00000000
00000000
00000000
,  // measure 11
00010100
00000000
00000100
00000000
00001000
00000100
00001000
00000001
00000100
00000010
00001000
00000000
00000101
00000000
00000000
00000000
,  // measure 12
00002000
00000000
00003002
00000000
00000103
00000010
00000200
00000000
,  // measure 13
00000302
00000000
00002003
00000000
00003100
00000010
00000200
00000000
,  // measure 14
00020300
00001000
00000000
00031000
,  // measure 15
00000200
00000000
00000000
00000000
00001300
00000000
00000000
00000000
00000000
00000001
00000000
00001000
00000000
00000010
00000010
00000000
,  // measure 16
00001000
00000100
00001000
00000100
00000010
00000000
00000000
00000000
00000001
00000100
00000001
00000100
00000010
00000010
00000000
00000000
,  // measure 17
00001000
00000001
00001000
00000001
00000100
00000000
00000000
00000000
00000001
00001000
00000001
00001000
00000100
00000100
00010000
00000000
,  // measure 18
00001000
00000000
00010000
00000000
00101000
00000000
00100000
00010000
00100000
00010000
01000000
00000000
00100000
10000000
01000000
00000000
,  // measure 19
10000000
00010000
00000000
10000000
00010000
00000000
10000000
01000000
00100000
00010000
10000000
00000000
10010000
00000000
00000000
00000000
,  // measure 20
00010000
00100000
00010000
00100000
01000000
00000000
00000000
00000000
10000000
00100000
10000000
00100000
01000000
01000000
00000000
00000000
,  // measure 21
00010000
10000000
00010000
10000000
00100000
00000000
00000000
00000000
10000000
00010000
10000000
00010000
00100000
00100000
00001000
00000000
,  // measure 22
00010000
00000000
00001000
00000000
00010100
00000000
00000100
00001000
00000100
00001000
00000010
00000000
00000100
00000001
00000010
00000000
,  // measure 23
00000001
00001000
00000000
00000001
00001000
00000000
00000001
00000010
00000100
00001000
00000001
00000000
00001001
00000000
00000000
00000000
,  // measure 24
00001000
00000100
00010000
00000100
00001000
00000000
00000001
00000100
00000010
00000100
00000001
00000000
00000101
00000000
00000100
00000000
,  // measure 25
00000010
00001000
00000100
00001000
00000010
00000000
00010000
00000100
00001000
00000100
00010000
00000000
00010100
00000000
00001000
00000000
,  // measure 26
00000001
00000010
00000001
00000010
00000100
00000000
00001000
00000010
00000100
00000000
00000001
00001000
00000000
00000001
00001000
00000000
,  // measure 27
00000010
00000100
00000000
00000010
00000100
00000000
00000001
00000010
00000100
00001000
00000001
00000000
00001001
00000000
00000000
00000000
,  // measure 28
00002000
00000100
00000001
00003100
,  // measure 29
00000002
00000100
00001000
00000103
,  // measure 30
00020000
00032000
00023000
00032000
,  // measure 31
00203000
00320000
10030000
00000000
,  // measure 32
00110000
00100000
00010000
00100000
01000000
00000000
10000000
00000000
10100000
00100000
10000000
00100000
01000000
01000000
00000000
00000000
,  // measure 33
10010000
10000000
00010000
10000000
00100000
00000000
10000000
00000000
10010000
00010000
10000000
00010000
00100000
00100000
00001000
00000000
,  // measure 34
00010000
00000000
00001000
00000000
00010100
00000000
00000100
00001000
00000100
00001000
00000010
00000000
00000100
00000001
00000010
00000000
,  // measure 35
00000001
00001000
00000000
00000001
00001000
00000000
00000001
00000010
00000100
00001000
00000001
00000000
00001001
00000000
00000000
00000000
,  // measure 36
00001100
00000100
00001000
00000100
00000010
00000000
00000001
00000000
00000101
00000100
00000001
00000100
00000010
00000010
00000000
00000000
,  // measure 37
00001001
00000001
00001000
00000001
00000100
00000000
00001000
00000000
00001001
00001000
00000001
00001000
00000100
00000100
00010000
00000000
,  // measure 38
00001000
00000000
00010000
00000000
00101000
00000000
00100000
00010000
00100000
00010000
01000000
00000000
00100000
10000000
01000000
00000000
,  // measure 39
10000000
00010000
00000000
10000000
00010000
00000000
10000000
01000000
00100000
00010000
00000000
10000000
00000000
00100000
00100000
00000000
;
