#TITLE:What Went Down;
#SUBTITLE:;
#ARTIST:Foals;
#TITLETRANSLIT:;
#SUBTITLETRANSLIT:;
#ARTISTTRANSLIT:;
#GENRE:BOWWW WOWWW WOWWWW;
#CREDIT:;
#BANNER:What Went Down.png;
#BACKGROUND:What Went Down-bg.png;
#LYRICSPATH:;
#CDTITLE:;
#MUSIC:What Went Down.ogg;
#OFFSET:-0.353000;
#SAMPLESTART:70.560982;
#SAMPLELENGTH:13.714000;
#SELECTABLE:YES;
#BPMS:0.000000=147.000000
;
#STOPS:
;
#BGCHANGES:2.000=What Went Down.avi=1.000=0=0=1=====,
99999=-nosongbg-=1.000=0=0=0 // don't automatically add -songbackground-
;
#KEYSOUNDS:;
#ATTACKS:;

//---------------dance-single - ----------------
#NOTES:
     dance-single:
     :
     Hard:
     10:
     0.692044,0.713398,0.482393,0.190239,0.139282,614.000000,71.000000,28.000000,0.000000,0.000000,0.000000,0.692044,0.713398,0.482393,0.190239,0.139282,614.000000,71.000000,28.000000,0.000000,0.000000,0.000000:
0000
0000
0000
0000
,
0000
0000
0000
0000
,
0000
0000
0000
0000
,
0000
0000
0000
0000
,
0000
0000
0000
0000
,
0000
0000
0000
0000
2200
0000
3300
0202
,
0000
0303
2002
0000
0000
3003
0010
0000
,
1000
0000
0100
0000
0100
0000
0010
0001
,
1000
0000
0010
1000
0001
0000
0000
0000
,
0202
0000
0303
0220
0000
0330
2002
0000
,
0000
3003
1000
0000
0001
0000
0100
0010
,
1000
0000
0100
0010
0001
0000
1000
0100
,
1000
0000
0000
0000
0202
0000
0303
2020
,
0000
3030
1001
0000
0001
0100
0010
0000
,
1000
0100
0010
0000
0001
1000
0010
0000
,
0100
0001
2000
0000
3100
1000
0001
0000
,
0010
0001
1000
0000
0010
1000
0001
0000
,
0100
0000
0001
0000
0011
0000
0000
0010
0001
0000
0100
0000
1000
0000
0100
0000
,
0001
0010
0100
1000
0010
1000
0100
0010
,
0001
1000
0010
0000
2001
0000
3010
1002
,
0000
0103
1001
0000
1000
0010
0001
0010
,
1000
0100
0010
0001
0100
0001
0010
0100
,
1000
0001
0100
0001
1000
0100
0010
0000
,
2001
0000
3010
1002
0000
0103
1001
0000
,
1000
0000
0010
0000
0100
1000
0100
0000
0010
0000
1000
0000
0100
0010
0100
0000
,
1000
0000
0010
0000
0100
1000
0100
0000
0010
0000
1000
0000
0100
0001
0100
0000
,
0010
0100
1000
0010
2010
0000
3001
0102
,
0000
0000
1003
0000
2100
0000
0000
0000
3001
0000
0010
0000
0100
0001
0100
0000
,
0010
0000
0001
0000
0100
0010
0100
0000
0001
0000
0010
0000
0100
0001
0100
0000
,
0010
0000
0001
0000
0100
1000
0100
0000
0001
0000
0010
0000
0100
0000
1000
0000
,
1200
0000
1300
2001
0000
3001
0102
0000
,
1003
0000
0010
0000
0100
0000
0010
0000
1000
0000
0100
0000
0010
0000
0001
1000
,
0001
0000
0100
0000
0010
0000
1000
0000
0100
0000
0010
0000
0001
0000
0100
0010
,
1000
0000
0001
0000
0010
0000
0001
0000
1000
0000
0010
0000
0100
0000
0010
1000
,
0010
0000
0100
0000
0001
0000
1000
0000
0100
0000
0100
0000
1000
0000
0010
1000
,
0001
0100
0001
0100
0001
0100
0010
0100
,
0010
0000
0100
0000
0010
0000
1000
0000
0100
0000
0010
0000
0001
0000
0010
0001
,
1000
0100
1000
0100
1000
0100
0010
0100
,
0010
0000
0100
0000
0010
0000
0001
0000
1000
0000
1000
0000
0010
0000
0100
0001
,
0100
0001
1000
0000
0010
0000
0100
0000
0001
0000
1000
0000
0100
0000
0010
0000
,
0001
0000
1000
0000
0010
0000
0100
0000
0001
0000
0001
0000
0001
0000
0010
0001
,
0100
0001
0010
0100
0010
0001
1000
0010
,
0100
0000
0001
0000
1001
0000
0001
0000
1000
0001
1000
0001
1000
0001
1000
0000
,
0101
0100
0010
1000
0001
1000
1100
0000
,
0101
0100
0010
0010
1000
0001
1000
0100
,
1100
0100
0010
0001
1000
0001
0101
0000
,
1010
0000
0010
0000
0100
0000
0100
0000
0001
0000
1000
0000
0100
0000
1000
0001
,
1000
0001
1000
0001
0100
0100
0100
0001
,
0010
0010
0010
0001
1000
1000
1000
0010
,
0100
0001
1000
0100
0010
0010
0010
0001
,
1000
1000
1000
0010
0100
0001
1000
0000
,
0101
0100
0010
1000
0001
0011
0010
0100
,
1000
0001
0101
0100
0010
1010
1000
0001
,
0011
0010
0100
1000
0010
0100
0110
0100
,
0001
1000
0100
0010
0110
0001
1000
0010
,
1010
0001
1001
1000
1010
0100
0001
1000
,
0001
0100
0010
0010
0100
0001
1000
0001
,
0101
1000
1001
0001
0101
0010
1000
0001
,
1000
0010
0100
0100
0010
1000
0001
0000
,
0100
0000
0101
0100
0000
1010
0010
0000
,
1001
0001
0000
1100
1000
0000
0011
0001
,
0000
1010
0010
0000
1001
0100
0000
1001
,
0010
0000
1100
0001
0000
0011
1000
0000
,
0101
1000
0000
1010
0001
0100
0100
0010
,
0100
0001
1000
0100
0100
1000
0010
1000
,
0001
0010
0010
0001
1000
0010
0100
0001
,
0001
0100
0010
1000
0001
1000
1000
0100
,
1000
0010
0100
0100
0100
0001
0010
0100
,
1000
1000
1000
0010
0100
0010
1000
1000
,
1000
0100
0010
0001
1000
1100
0001
1000
,
0010
1000
0001
0101
1000
0010
0100
0001
,
0010
0110
0010
0001
1000
0010
0100
0101
,
0100
0010
1000
0001
0010
1100
0010
1000
,
0001
0010
0100
0011
1000
0001
0100
0010
,
1000
0101
0010
1000
0100
0010
0011
0100
,
1000
0010
0100
0001
1010
1000
0001
0100
,
0010
1000
1001
1000
1100
0010
0100
0001
,
1001
0001
0101
1000
0010
1000
0011
0010
,
1100
1000
0010
0100
0101
0010
1010
0100
,
0001
0000
1000
0000
0010
0100
0010
0100
0010
0000
1000
0000
0100
0000
0010
0000
,
0001
1000
0001
1000
0001
0000
0100
0000
0010
0000
1000
0000
0001
0010
0001
0010
,
0001
0000
0100
0000
0010
0000
1000
0000
0100
1000
0100
0010
0100
0000
1000
0000
,
0001
0000
0100
0000
0010
1000
0010
0100
0010
0000
1000
0000
0001
0000
0010
0000
,
0100
1000
0100
1000
0001
0000
1000
0000
0010
0000
0100
0000
0001
1000
0001
1000
,
0010
0000
0100
0000
0001
0000
1000
0000
0100
0010
0100
0010
0001
0000
1000
0000
,
0010
0000
0100
0000
0001
1000
0010
1000
0001
0000
0100
0000
0001
1000
0010
1000
,
0200
0000
0000
0000
,
0000
0000
0300
0000
;

//---------------dance-single - ----------------
#NOTES:
     dance-single:
     :
     Challenge:
     13:
     1.000000,1.000000,0.156268,0.115502,1.000000,1005.000000,23.000000,17.000000,0.000000,0.000000,0.000000,1.000000,1.000000,0.156268,0.115502,1.000000,1005.000000,23.000000,17.000000,0.000000,0.000000,0.000000:
0000
0000
0000
0000
,
0000
0000
0000
0000
,
0000
0000
0000
0000
,
0000
0000
0000
0000
,
0000
0000
0000
0000
,
0000
0000
0000
0000
0022
0000
0033
2020
,
0000
3030
2002
0000
0000
3003
0100
0000
,
0001
0000
0010
0000
0010
0000
0100
1000
,
0001
0000
0100
0001
1000
0000
0000
0000
,
2020
0000
3030
0220
0000
0330
2002
0000
,
0000
3003
0001
0000
1000
0000
0010
0100
,
0001
0000
0010
0100
1000
0000
0001
0010
,
0001
0000
0000
0000
2020
0000
3030
0202
,
0000
0303
1001
0000
1000
0001
0100
0010
,
1000
0100
0010
0100
1000
0010
0100
0001
,
1000
0100
0010
0001
1000
0010
0100
0001
,
1000
0000
0001
0000
0100
0000
0010
1000
0010
0000
0100
0000
0001
0000
1000
0000
,
0100
0000
0010
0000
0001
0000
0001
1000
0100
0000
1000
0000
0010
0000
0001
0000
,
0010
1000
0100
0001
0100
1000
0010
0100
,
0001
0010
0100
1000
1010
0010
0010
1001
,
0001
0001
0101
0100
0010
1000
0100
0001
,
0100
1000
0010
0100
0001
0010
1000
0010
,
0001
1000
0010
0100
0001
1000
0010
0100
,
1001
0001
0001
0110
0100
0100
1001
1000
,
0010
0000
0100
0000
0001
1000
0100
0000
0010
0000
0001
0000
1000
0010
0100
0000
,
0001
0000
1000
0000
0100
0010
0001
0000
1000
0000
0010
0000
0100
0001
1000
0000
,
0010
0000
0100
0000
0001
1000
0100
0000
1100
0000
0100
0000
0100
0000
0011
0000
,
0010
0000
0010
0000
1001
0000
0001
0000
0100
0000
0010
0000
1000
0001
0100
0000
,
0010
0000
1000
0000
0100
0010
0001
0000
1000
0000
0001
0000
0100
0010
1000
0000
,
0001
0000
0010
0000
0100
0010
0001
0000
1000
0000
0010
0000
0100
0001
1000
0000
,
1010
0010
0010
0101
0100
0100
1001
1000
,
0010
0100
0001
0000
1000
0000
0100
0000
0010
0001
1000
0000
0001
0000
0100
0010
,
1000
0000
0001
0000
1000
0100
0010
0000
0001
0000
1000
0000
1001
0000
1000
0001
,
0100
0000
0010
0000
1000
0100
0010
0000
0001
0000
1000
0000
0010
0000
1000
0001
,
1000
0000
0010
0000
0100
0001
1000
0000
0100
0000
0010
0000
0011
0000
0001
1000
,
0100
1000
0100
1000
0100
1000
0100
1000
0100
1000
0100
1000
0010
0100
0010
0100
,
0010
0100
0010
0100
0001
0010
0100
1000
0010
0100
0001
1000
0010
0000
0100
0000
,
0001
1000
0001
1000
0001
1000
0001
1000
0001
1000
0001
1000
0010
0100
0010
0100
,
0010
0100
0010
0100
0001
0010
0100
1000
0010
0100
0001
1000
0010
0000
0100
0000
,
0001
0100
0010
1000
0100
0010
0001
1000
0010
0100
0001
0010
0100
0010
0001
1000
,
0010
0100
0001
0010
0100
1000
0010
0100
0001
1000
0100
0010
0001
0000
1000
0000
,
0001
0100
0010
1000
0100
1000
0010
0100
0001
0010
0100
0010
0001
1000
0010
0100
,
0001
0010
0100
1000
0001
0100
0010
1000
0001
0100
0001
0100
0001
0100
0001
0100
,
0010
1000
0100
0010
0001
1000
0010
0100
0001
1000
0100
0010
0001
1000
0010
0100
,
0001
1000
0010
0100
0001
1000
0001
1000
0010
0100
0001
1000
0100
0010
0001
1000
,
0010
0100
0001
0010
0100
0010
0001
1000
0010
0100
0001
0010
0100
1000
0001
0100
,
0010
1000
0001
0100
0010
1000
0010
1000
0001
0010
0100
1000
0010
0100
0001
1000
,
0010
0100
0010
0100
0001
1000
0100
0010
0001
1000
0001
1000
0010
0100
0001
1000
,
0100
0010
0100
0010
0001
1000
0010
0100
0001
1000
0001
1000
0010
0100
0001
1000
,
0010
0100
0001
1000
0010
1000
0001
0010
0100
1000
0001
1000
0010
1000
0001
0010
,
0100
1000
0001
0100
0010
1000
0100
0010
0001
1000
0010
0100
0001
1000
0100
0010
,
0001
0100
0010
1000
0100
0010
0001
1000
0010
0100
0001
1000
0100
0010
0001
1000
,
0010
0100
0001
1000
0010
0100
0010
0100
0010
0100
0010
0100
0001
0010
0100
1000
,
0010
0100
0001
1000
0100
0010
0001
1000
0010
0100
0001
1000
0100
0010
0001
1000
,
0100
0010
0001
1000
0010
0100
0001
1000
0001
0100
0001
0100
0010
1000
0100
0010
,
0001
1000
0001
1000
0010
0100
0010
0100
0001
1000
0001
1000
0100
0010
0100
0010
,
0001
1000
0001
1000
0010
0100
0001
1000
0100
0010
0001
1000
0010
0100
0001
1000
,
0010
0100
0010
0100
0001
1000
0001
1000
0100
0010
0100
0010
0001
1000
0001
1000
,
0010
0100
0001
1000
0100
0010
0001
1000
0010
0100
0001
1000
0010
0000
0100
0000
,
0010
0000
1000
0000
0001
0100
0001
0100
0010
0000
1000
0100
1000
0100
0010
0000
,
0001
1000
0001
1000
0010
0000
0100
0001
0100
0001
1000
0000
0100
1000
0100
1000
,
0001
0000
0010
0001
0010
0001
1000
0000
0010
1000
0010
1000
0001
0000
0100
0001
,
0100
0001
1000
0000
0010
1000
0100
0010
0001
0000
1000
0010
0100
0001
1000
0000
,
0100
0010
0001
1000
0010
0000
0100
0001
1000
0100
0010
0000
0001
1000
0010
0100
,
0001
0000
1000
0100
0010
0001
1000
0000
0001
0100
0010
1000
0001
0000
1000
0100
,
1000
0010
1000
0000
0001
0010
0001
0100
0001
0000
1000
0001
0100
0001
0100
0000
,
0001
1000
0100
1000
0100
0000
1000
0100
0010
0001
0100
0010
1000
0000
0001
0100
,
0010
1000
0100
0010
0001
0000
1000
0001
1000
0010
0100
0001
1000
0000
0001
1000
,
0001
0100
0010
1000
0001
0000
1000
0100
1000
0100
0010
0001
1000
0000
0001
0100
,
0001
0100
0010
1000
0001
0000
0100
0010
0100
0001
1000
0010
1000
0100
0010
0001
,
1000
0100
1000
0010
0100
0001
1000
0100
0010
0001
0100
0010
1000
0001
1000
0010
,
0100
0001
0010
0001
1000
0100
0010
0001
0100
0010
1000
0001
1000
0100
1000
0010
,
0100
0010
1000
0001
0100
0001
0010
0100
0010
0001
0010
0100
1000
0001
0100
0010
,
1000
0001
0100
0010
0100
0001
0010
0001
1000
0100
1000
0100
1000
0010
0100
0001
,
1000
0100
0010
0001
1000
0100
1000
0001
0100
0001
1000
0010
0100
0001
1000
0001
,
0010
0100
0010
0100
0010
0001
1000
0010
0100
0001
1000
0100
0010
0001
0100
0010
,
1000
0010
0100
0001
1000
0010
0100
0001
0010
0100
1000
0001
1000
0010
0100
0010
,
1000
0100
0010
0001
0100
0010
1000
0100
1000
0100
1000
0001
0100
0010
0100
0010
,
0100
0001
1000
0100
0010
0001
0100
0010
1000
0100
1000
0100
0010
0001
0010
0001
,
0100
0010
1000
0001
0010
0100
1000
0001
1000
0100
0010
0001
0100
0010
1000
0100
,
1000
0001
0100
0001
0100
0010
1000
0100
0010
0001
1000
0100
1000
0010
0100
0010
,
0100
0001
0010
0100
1000
0010
0100
0001
1000
0100
0010
0001
0100
0001
1000
0010
,
0100
0001
1000
0100
1000
0010
0100
0001
1000
0100
0010
0001
0100
0010
0100
0001
,
0010
0001
1000
0100
1000
0001
0100
0001
1000
0010
1000
0001
0010
0100
1000
0010
,
0100
0001
1000
0100
0010
0001
0010
0001
1000
0100
1000
0100
1000
0010
0100
0001
,
0010
0100
1000
0010
0100
0001
1000
0100
1000
0001
0010
0001
0100
0010
0100
0010
,
2000
0000
0000
0000
,
0000
0000
3000
0000
;

//---------------dance-single - ----------------
#NOTES:
     dance-single:
     :
     Medium:
     8:
     0.448421,0.505323,0.217416,0.074737,0.000000,419.000000,32.000000,11.000000,0.000000,0.000000,0.000000,0.448421,0.505323,0.217416,0.074737,0.000000,419.000000,32.000000,11.000000,0.000000,0.000000,0.000000:
0000
0000
0000
0000
,
0000
0000
0000
0000
,
0000
0000
0000
0000
,
0000
0000
0000
0000
,
0000
0000
0000
0000
,
0000
0000
0000
0000
1010
0000
0000
0101
,
0000
2002
0000
0000
,
0000
0000
0000
0000
,
0000
0000
0000
3003
,
0101
0000
0000
1010
0000
0000
2002
0000
,
0000
0000
0000
0000
,
0000
0000
0000
0000
,
0000
0000
3003
0000
1100
0000
0000
0011
,
0000
1001
0010
1000
,
0001
0100
0010
1000
,
0100
0010
0002
0000
1003
0000
0010
0000
,
0100
0001
1000
0001
,
0010
0001
2000
0000
3100
0010
0100
0000
,
0110
0000
0010
0100
0010
0000
0100
0010
,
0100
0000
0000
0000
1100
0000
0000
0011
,
0000
0000
1001
0000
1000
0000
0010
0100
,
0010
0000
0100
0010
0100
0000
0010
0100
,
0010
0100
0010
0000
0100
0000
0000
0000
,
0110
0000
0000
0101
0000
0000
1010
0000
,
0001
0000
1000
0000
0100
0000
0010
0001
,
1000
0000
0010
1000
0001
0000
0100
0001
,
1000
0000
0000
0000
1100
0000
0000
0011
,
0000
1010
0000
1000
,
0001
0000
0010
0001
1000
1000
0001
0001
,
0100
0100
0001
0000
1000
0000
0010
0000
,
1010
0000
0000
0011
0000
0000
1001
0000
,
0200
0000
1300
0000
0010
1000
0001
0000
,
0020
0000
0031
0000
1000
0001
0100
0000
,
0002
0000
1003
0000
0010
0100
0001
0000
,
2000
0000
3100
0000
1000
0001
0100
0000
,
0001
1000
0001
1000
0001
0000
0100
0001
,
0100
0001
0100
0000
0010
0000
1000
0000
,
0100
1000
0100
1000
0100
0000
0010
0001
,
0010
0001
0010
0000
0100
0000
1000
0000
,
0010
1000
0010
1000
0010
0000
1000
0001
,
1000
0001
1000
0000
0001
0000
0100
0000
,
0010
1000
0010
1000
0010
0000
0100
0001
,
0100
0001
0100
0000
0010
0000
1000
0000
,
0001
0010
0001
0100
0001
0000
0101
0000
,
1000
1000
0001
0001
1000
0000
0001
0000
,
1000
0100
1000
0010
1000
0000
1001
0000
,
1000
1000
0100
0100
1000
0000
1001
0000
,
1000
0100
1000
0100
0010
0010
0010
0000
,
0001
0001
0001
0000
1000
1000
1000
0000
,
0010
1000
0010
1000
0001
0001
0001
0000
,
0100
0100
0100
0000
1001
0000
0000
0000
,
0001
0010
0100
1000
1000
0100
0010
0001
,
0001
0000
1000
0001
1000
0001
1000
0000
,
0001
0100
0010
1000
1000
0000
0010
0100
,
0001
1000
0000
0001
0100
0100
0001
0000
,
1000
0100
1000
0100
0010
0000
1001
0000
,
0010
0010
0100
0100
0001
0000
1001
0000
,
0100
0100
0010
0010
1000
0000
1010
0000
,
0101
0000
0011
0000
1000
0001
1000
0000
,
1010
0000
0001
0100
0000
0100
0010
0000
,
0010
1000
0000
1000
0100
0000
0100
0010
,
0000
0010
0001
0000
0001
1000
0000
0010
,
1000
0000
0001
0100
0000
0001
1000
0000
,
0100
1000
0000
0001
0010
0000
0100
1000
,
0000
0010
0100
0000
0001
1000
0000
0010
,
1000
0010
1000
0000
0001
0000
0100
0001
,
0100
0000
0010
0000
1000
0100
1000
0000
,
0001
0000
0010
0100
0010
0000
0001
0000
,
1000
0010
1000
0000
0001
0000
0100
0001
,
1000
0000
0010
0000
1000
0100
0010
0000
,
0001
0000
1000
0001
0100
0000
0010
0000
,
1000
0001
0010
0000
0100
0000
1000
0100
,
0010
0001
1000
0000
0010
1000
0010
0100
,
0001
0000
1000
0100
0010
0001
1000
0000
,
0001
0100
0001
1000
0010
0000
0100
0001
,
0010
0100
1000
0000
0001
0100
0010
1000
,
0001
0000
1000
0100
0010
0001
1000
0000
,
0010
0100
0010
1000
0001
0000
0010
0100
,
0010
0001
1000
0000
0001
0010
0001
0010
,
0100
0000
1000
0010
1000
0010
0100
0000
,
0001
1000
0001
1000
0100
0000
1000
0001
,
1000
0001
0100
0000
0001
0100
0010
1000
,
0100
0000
1000
0010
0100
0001
1000
0000
,
0001
0010
0100
1000
0010
0000
1000
0001
,
0100
0010
1000
0000
0100
0010
0001
1000
,
0010
0100
0001
0010
0100
1000
0010
0100
,
0002
0000
0000
0000
,
0000
0000
0003
0000
;

//---------------dance-single - ----------------
#NOTES:
     dance-single:
     :
     Easy:
     5:
     0.238770,0.297249,0.000000,0.047560,0.000000,239.000000,0.000000,7.000000,0.000000,0.000000,0.000000,0.238770,0.297249,0.000000,0.047560,0.000000,239.000000,0.000000,7.000000,0.000000,0.000000,0.000000:
0000
0000
0000
0000
,
0000
0000
0000
0000
,
0000
0000
0000
0000
,
0000
0000
0000
0000
,
0000
0000
0000
0000
,
0000
0000
0000
0000
1000
0000
0000
0001
,
0000
0200
0000
0000
,
0000
0000
0000
0000
,
0000
0000
0300
0000
,
0001
0000
0000
1000
0000
0000
0020
0000
,
0000
0000
0000
0000
,
0000
0000
0000
0000
,
0030
0000
0000
0000
1000
0000
0000
0001
,
0000
0100
0100
0000
,
0010
0000
1000
0000
,
0001
0000
1000
0000
,
0100
0000
0010
0000
,
0001
0000
1000
0010
,
1000
1000
0010
1000
,
0010
0000
0000
0000
1000
0000
0000
0001
,
0000
0100
0000
0001
,
0100
0001
0001
0100
,
0100
0001
0100
0000
,
0001
0000
0000
1000
0000
0000
0100
0000
,
0000
1000
1000
0001
,
0001
1000
0001
1000
,
0001
0000
0000
0000
0100
0000
0000
0001
,
0000
1000
0000
0010
,
1000
0010
1000
1000
,
0010
0010
1000
0000
,
0001
0000
0000
1000
0000
0000
0010
0000
,
0010
0000
0100
0000
,
0001
1000
0100
0000
,
0010
0000
0001
0000
,
1000
0010
0100
0000
,
0002
0003
0100
0001
,
0100
0010
0010
0000
,
2000
3000
0100
1000
,
0100
0010
0010
0000
,
0002
0003
1000
0001
,
1000
1000
0001
0000
,
2000
3000
0001
1000
,
0001
0001
1000
0000
,
0010
0100
0001
1000
,
1000
0100
0000
0000
,
1000
0100
1000
0001
,
0001
0010
0000
0000
,
0001
0010
0100
0100
,
1000
1000
0001
0000
,
1000
0010
0100
0100
,
0001
0001
1000
0000
,
0001
0010
0100
1000
,
0010
0100
0001
0000
,
1000
0100
0010
0001
,
0100
0010
1000
0000
,
0001
1000
0010
0100
,
0001
1000
0100
0000
,
1000
0001
0100
0010
,
1000
0001
0100
0000
,
0001
1000
0001
0100
,
0000
0010
1000
0100
,
0010
0001
0000
1000
,
0001
1000
0010
0100
,
0000
0010
1000
0100
,
0010
0001
0000
1000
,
0100
0000
0000
1000
0000
0000
0010
0000
,
0000
0100
0000
0000
0001
0000
0000
1000
,
0000
0000
0100
0000
0000
0010
0000
0000
,
0001
0001
0000
0100
,
0100
0000
0010
0010
,
0000
1000
1000
0000
,
0100
0010
0000
0001
,
1000
0000
0010
0100
,
0000
0001
0010
0000
,
0100
1000
1000
0010
,
0100
0100
0001
0010
,
0010
0100
1000
1000
,
0001
0100
0100
0010
,
1000
1000
0001
0100
,
0000
0010
1000
0000
,
0100
0010
0010
0001
,
0100
0100
0010
1000
,
1000
0001
0100
0100
,
0010
1000
1000
0001
,
0010
0010
0100
1000
,
1000
0001
0100
0100
,
0020
0000
0000
0000
,
0000
0000
0030
0000
;

//---------------dance-single - ----------------
#NOTES:
     dance-single:
     :
     Beginner:
     3:
     0.168886,0.204507,0.020383,0.000000,0.000000,171.000000,3.000000,0.000000,0.000000,0.000000,0.000000,0.168886,0.204507,0.020383,0.000000,0.000000,171.000000,3.000000,0.000000,0.000000,0.000000,0.000000:
0000
0000
0000
0000
,
0000
0000
0000
0000
,
0000
0000
0000
0000
,
0000
0000
0000
0000
,
0000
0000
0000
0000
,
0000
0000
1000
0000
,
0000
0001
0000
0000
,
0000
0000
0000
0000
,
0000
0000
0000
0000
,
0100
0000
0000
0010
,
0000
0000
0000
0000
,
0000
0000
0000
0000
,
0000
0000
1000
0000
,
0000
0001
0001
0000
,
1000
0000
0010
0000
,
0010
0000
0100
0000
,
0001
0000
1000
0000
,
1000
0000
0100
0100
,
0100
0000
0100
0000
,
0100
0000
1000
0000
,
0000
0001
0001
0000
,
0001
0000
1000
0000
,
1000
0000
0010
0000
,
0010
0000
0000
0100
,
0100
0000
0100
0000
,
0001
0001
0001
0000
,
1000
0000
0010
0000
,
0000
1000
1000
0000
,
1000
0000
0001
0000
,
0100
0100
0100
0000
,
0010
0000
0000
0010
,
0010
0000
1000
0000
,
0001
0000
0001
0000
,
0010
0000
0001
0000
,
1000
0000
1000
0000
,
0100
0100
0100
0000
,
0100
0000
1000
0000
,
0010
0010
0010
0000
,
0010
0000
0100
0000
,
0001
0001
0001
0000
,
0001
0000
0001
0000
,
1000
1000
1000
0000
,
1000
0000
1000
0000
,
1001
0000
0000
0010
,
0010
0010
0000
0000
,
1001
0000
0000
0100
,
0100
0100
0000
0000
,
0001
0000
1000
0000
,
0100
0000
0010
0000
,
0001
0000
1000
0000
,
0010
0010
0010
0000
,
1000
0000
0001
0000
,
0100
0100
0100
0000
,
0001
0000
0010
0000
,
0100
0000
1000
0000
,
0001
0001
0001
0000
,
1000
1000
1000
0000
,
0010
0010
0010
0000
,
0100
0100
0100
0000
,
0001
0000
0000
1000
,
0000
0000
0100
0000
,
0000
0010
0000
0000
,
0001
0000
0000
0100
,
0000
0000
0010
0000
,
0000
1000
0000
0000
,
0100
0000
0000
1000
,
0000
0000
0001
0000
,
0000
0010
0000
0000
,
0001
0001
0000
1000
,
1000
0000
0010
0010
,
0000
0100
0100
0000
,
0001
0001
0000
1000
,
1000
0000
0100
0100
,
0000
0010
0010
0000
,
0100
0100
0000
1000
,
1000
0000
0001
0001
,
0000
0100
0100
0000
,
0010
0010
0000
1000
,
1000
0000
0001
0001
,
0000
0100
0100
0000
,
0100
0100
0000
0001
,
0001
0000
1000
1000
,
0000
0010
0010
0000
,
1000
1000
0000
0001
,
0001
0000
0100
0100
,
0000
0100
0100
0000
,
1001
0000
0000
0000
;

//---------------dance-double - ----------------
#NOTES:
     dance-double:
     :
     Challenge:
     10:
     0.702721,0.772847,0.258182,0.013589,0.360096,684.000000,38.000000,2.000000,0.000000,0.000000,0.000000,0.702721,0.772847,0.258182,0.013589,0.360096,684.000000,38.000000,2.000000,0.000000,0.000000,0.000000:
// measure 0
00000000
00000000
00000000
00000000
,  // measure 1
00000000
00000000
00000000
00000000
,  // measure 2
00000000
00000000
00000000
00000000
,  // measure 3
00000000
00000000
00000000
00000000
,  // measure 4
00000000
00000000
00000000
00000000
,  // measure 5
00000000
00000000
00000000
00000000
11000000
00000000
00000000
01010000
,  // measure 6
00000000
10010000
00000000
10000000
,  // measure 7
00010000
00000000
01000000
00100000
10000000
00000000
01000000
00100000
,  // measure 8
00010000
00000000
10000000
01000000
10000000
00000000
00000000
00000000
,  // measure 9
01010000
00000000
00000000
00011000
00000000
00000000
00001100
00000000
,  // measure 10
00000000
00000000
00001000
00000000
00000001
00000100
00000001
00000100
,  // measure 11
00000001
00000000
00001000
00000100
00001000
00000000
00000010
00000100
,  // measure 12
00000001
00000000
00000000
00000000
00000101
00000000
00000000
00001100
,  // measure 13
00000000
00000000
00001001
00000000
00001000
00000100
00000010
00000001
,  // measure 14
00000100
00000010
00001000
00000100
00010000
00000100
00001000
00000010
,  // measure 15
00000100
00000001
00001000
00000010
00010000
00000100
00001000
00000100
,  // measure 16
00010000
00001000
00100000
00010000
01000000
00010000
00100000
01000000
,  // measure 17
10000000
00000000
00100000
00000000
01000000
00000000
00000000
01000000
00010000
00000000
00100000
00000000
10000000
00000000
00100000
00000000
,  // measure 18
00010000
01000000
10000000
01000000
00010000
00100000
01000000
10000000
,  // measure 19
00100000
01000000
00010000
00000000
11000000
00000000
00100000
10010000
,  // measure 20
00000000
10000000
01010000
00000000
00010000
01000000
00100000
10000000
,  // measure 21
01000000
00100000
00010000
00100000
00001000
00010000
00000100
00001000
,  // measure 22
00000010
00000100
00000001
00001000
00000100
00000010
00000001
00000000
,  // measure 23
00001100
00000000
00000010
00000101
00000000
00000010
00001001
00000000
,  // measure 24
00001000
00000100
00000010
00000001
00001000
00000100
00000001
00000100
,  // measure 25
00001000
00000010
00000001
00000010
00001000
00000100
00000010
00000001
,  // measure 26
00000100
00000010
00001000
00000000
00000011
00000000
00000100
00001001
,  // measure 27
00000000
00000001
00001010
00000000
00001000
00000010
00000100
00000001
,  // measure 28
00000010
00000100
00001000
00000100
00010000
00001000
00100000
00010000
,  // measure 29
01000000
00100000
10000000
00010000
00100000
01000000
10000000
00000000
,  // measure 30
00110000
00000000
01000000
10100000
00000000
01000000
10010000
00000000
,  // measure 31
10000000
00000000
00010000
00000000
01000000
00100000
01000000
00000000
00010000
00000000
10000000
00000000
01000000
00100000
01000000
00000000
,  // measure 32
10000000
00000000
00010000
00000000
00100000
00010000
00100000
00000000
00010000
00000000
10000000
00000000
00100000
10000000
00100000
00000000
,  // measure 33
01000000
00000000
00010000
00000000
10000000
01000000
10000000
00000000
00010000
00000000
00100000
00000000
00010000
10000000
00010000
00000000
,  // measure 34
01000000
00000000
00100000
00000000
10000000
01000000
10000000
00000000
00100000
00000000
01000000
00000000
00010000
00000000
00100000
00000000
,  // measure 35
00001000
00010000
00001000
00010000
00001000
00000000
00100000
00010000
00100000
00010000
00100000
00000000
00001000
00000000
00010000
00000000
,  // measure 36
00000100
00001000
00000010
00000100
00000001
00001000
00000100
00010000
,  // measure 37
00001000
00010000
00001000
00010000
00001000
00000000
00010000
00000100
00010000
00000100
00010000
00000000
00001000
00000000
00100000
00000000
,  // measure 38
00010000
01000000
00100000
10000000
01000000
00100000
00010000
00100000
,  // measure 39
00001000
00010000
00001000
00010000
00001000
00000000
01000000
00010000
01000000
00010000
01000000
00000000
00000100
00001000
00000100
00001000
,  // measure 40
00000100
00000000
00010000
00001000
00010000
00001000
00010000
00000000
00001000
00000000
00100000
00000000
00001000
00000000
00001000
00000000
,  // measure 41
00010000
00001000
00010000
00001000
00010000
00000000
00000010
00001000
00000010
00001000
00000010
00000000
00100000
00010000
00100000
00010000
,  // measure 42
00100000
00000000
00001000
00010000
00001000
00010000
00001000
00000000
00010000
00000000
00000100
00000000
00010000
00000000
00010000
00000000
,  // measure 43
00010100
00000100
00001000
00000010
00000100
00000001
00001001
00001000
,  // measure 44
00000010
00000100
00000101
00000001
00000010
00000100
00001000
00000001
,  // measure 45
00000011
00000010
00000001
00001000
00000010
00000100
00000101
00000100
,  // measure 46
00000010
00001000
00001100
00000100
00010000
00001000
00100000
00010000
,  // measure 47
00110000
00100000
00010000
10000000
10100000
10000000
00010000
00100000
,  // measure 48
00110000
00010000
10000000
00100000
10100000
10000000
00010000
01000000
,  // measure 49
00100000
00000000
10000000
00000000
01000000
00000000
00100000
00000000
00010000
10000000
00010000
10000000
00010000
00000000
00100000
00000000
,  // measure 50
01000000
00000000
10000000
00000000
00100000
00000000
01000000
00000000
00010000
10000000
00010000
00000000
01000000
00000000
00000000
00000000
,  // measure 51
00100000
10000000
00100000
00000000
10000000
00000000
01000000
00000000
00100000
00000000
00010000
10000000
00010000
00000000
01000000
00000000
,  // measure 52
00100000
00000000
10000000
00000000
00010000
01000000
00010000
01000000
00010000
01000000
00010000
00000000
10000000
00000000
00000000
00000000
,  // measure 53
00010000
00000000
01000000
00000000
00100000
00000000
10000000
00000000
01000000
00000000
00100000
00000000
00001000
00100000
00001000
00000000
,  // measure 54
00010000
00000000
00000100
00000000
00000100
00000000
00001000
00000000
00000001
00000100
00000001
00000000
00001000
00000000
00000000
00000000
,  // measure 55
00000001
00000010
00000001
00000010
00000001
00000010
00000001
00000010
00000001
00000000
00000000
00000000
00001000
00000000
00000010
00000000
,  // measure 56
00000100
00000001
00001000
00001000
00000001
00000100
00000010
00000000
,  // measure 57
00001000
00000100
00001000
00000100
00001000
00000100
00001000
00000100
00001000
00000000
00000000
00000000
00000101
00000000
00000000
00000000
,  // measure 58
00001100
00000000
00000011
00000000
00001010
00001000
00000001
00000000
,  // measure 59
00001001
00000000
00000001
00000100
00001000
00010000
00001000
00000000
,  // measure 60
00010000
01000000
10000000
00010000
10000000
00000000
00010000
00100000
,  // measure 61
10000000
00100000
00010000
00000000
10000000
01000000
00100000
00010000
,  // measure 62
10010000
00000000
10000000
00100000
00010000
00001000
00010000
00000000
,  // measure 63
00001000
00000010
00000001
00001000
00000001
00000000
00001000
00000100
,  // measure 64
00000001
00000100
00001000
00000000
00000001
00000010
00000100
00001000
,  // measure 65
00000001
00000100
00000001
00000100
00000001
00000000
00000100
00000000
00000010
00000000
00001000
00000000
00000100
00001000
00000100
00001000
,  // measure 66
00000100
00000000
00000010
00000000
00000001
00000000
00001000
00000000
00000010
00010000
00000010
00010000
00000010
00000000
00010000
00000000
,  // measure 67
00001000
00000000
00100000
00000000
00010000
01000000
00010000
01000000
00010000
00000000
00100000
00000000
00010000
00000000
10000000
00000000
,  // measure 68
00100000
01000000
00100000
01000000
00100000
00000000
10000000
00000000
01000000
00000000
00100000
00000000
00010000
10000000
00010000
10000000
,  // measure 69
00010000
00000000
10000000
00000000
00100000
00000000
01000000
00000000
00001000
00010000
00001000
00010000
00001000
00000000
00010000
00000000
,  // measure 70
00000100
00000000
00001000
00000000
00000010
00000100
00000010
00000100
00000010
00000000
00001000
00000000
00000100
00000000
00000010
00000000
,  // measure 71
00000001
00001000
00000001
00001000
00000001
00000000
00000100
00000000
00000010
00000000
00001000
00000000
00000001
00000010
00000001
00000010
,  // measure 72
00000001
00000000
00001000
00000000
00000100
00000000
00000010
00000000
00000001
00000100
00000010
00000100
00000001
00000000
00000010
00000000
,  // measure 73
00000100
00000000
00001000
00000000
00000010
00001000
00000001
00001000
00000010
00000000
00000100
00000000
00000001
00000000
00001000
00000000
,  // measure 74
00000100
00010000
00001000
00010000
00001000
00000000
00100000
00000000
00010000
00000000
01000000
00000000
00100000
10000000
00100000
01000000
,  // measure 75
00100000
00000000
10000000
00000000
01000000
00000000
00100000
00000000
00010000
10000000
00010000
01000000
00010000
00000000
10000000
00000000
,  // measure 76
00010000
00000000
00100000
00000000
01000000
10000000
01000000
00100000
01000000
00000000
10000000
00000000
00100000
00000000
01000000
00000000
,  // measure 77
00010000
10000000
00010000
00100000
00010000
00000000
01000000
00000000
00100000
00000000
01000000
00000000
00001000
01000000
00001000
00010000
,  // measure 78
00001000
00000000
00010000
00000000
00001000
00000000
00000100
00000000
00000001
00000010
00000100
00001000
00000010
00000000
00000100
00000000
,  // measure 79
00000001
00000000
00000010
00000000
00000001
00000100
00000010
00001000
00000001
00000000
00001000
00000000
00000010
00000000
00000100
00000000
,  // measure 80
00000001
00001000
00000100
00010000
00001000
00000000
00010000
00000000
00100000
00000000
10000000
00000000
00010000
00100000
01000000
10000000
,  // measure 81
00100000
00000000
01000000
00000000
00010000
00000000
10000000
00000000
00010000
01000000
00100000
10000000
01000000
00000000
00100000
00000000
,  // measure 82
00010000
00000000
10000000
00000000
00100000
01000000
00010000
00100000
00001000
00000000
00010000
00000000
00000100
00000000
00001000
00000000
,  // measure 83
00000001
00000100
00000010
00001000
00000001
00000000
00001000
00000000
00000010
00000000
00000100
00000000
00000010
00001000
00000001
00000010
,  // measure 84
00000100
00000000
00001000
00000000
00000100
00000000
00010000
00000000
00001000
00100000
00001000
00100000
00001000
00000000
00010000
00000000
,  // measure 85
00001000
00000000
00001000
00000000
00010000
00000010
00010000
00000010
00010000
00000000
00001000
00000000
00001000
00000000
00010000
00000000
,  // measure 86
00022000
00000000
00000000
00000000
,  // measure 87
00000000
00000000
00033000
00000000
;
