#VERSION:0.82;
#TITLE:What Do You Mean?;
#SUBTITLE:;
#ARTIST:Justin Bieber;
#TITLETRANSLIT:;
#SUBTITLETRANSLIT:;
#ARTISTTRANSLIT:;
#GENRE:Auto-tuned Panpipes;
#ORIGIN:;
#CREDIT:;
#BANNER:What Do You Mean.png;
#BACKGROUND:What Do You Mean-bg.png;
#PREVIEWVID:;
#JACKET:jacket.png;
#CDIMAGE:;
#DISCIMAGE:;
#LYRICSPATH:;
#CDTITLE:;
#MUSIC:What Do You Mean.ogg;
#OFFSET:0.030000;
#SAMPLESTART:99.123764;
#SAMPLELENGTH:13.714000;
#SELECTABLE:YES;
#BPMS:0.000=125.000;
#STOPS:;
#DELAYS:;
#WARPS:;
#TIMESIGNATURES:0.000=4=4;
#TICKCOUNTS:0.000=4;
#COMBOS:0.000=1;
#SPEEDS:0.000=1.000=0.000=0;
#SCROLLS:0.000=1.000;
#FAKES:;
#LABELS:0.000=Song Start;
#BGCHANGES:3.750=What Do You Mean.avi=1.000=0=0=1=====,
99999=-nosongbg-=1.000=0=0=0 // don't automatically add -songbackground-
;
#KEYSOUNDS:;
#ATTACKS:
;

//---------------dance-single - ----------------
#NOTEDATA:;
#CHARTNAME:;
#STEPSTYPE:dance-single;
#DESCRIPTION:;
#CHARTSTYLE:;
#DIFFICULTY:Hard;
#METER:7;
#RADARVALUES:0.414154,0.436838,0.097891,0.158131,0.105421,351.000000,13.000000,21.000000,0.000000,0.000000,0.000000,0.000000,0.000000,0.414154,0.436838,0.097891,0.158131,0.105421,351.000000,13.000000,21.000000,0.000000,0.000000,0.000000,0.000000,0.000000;
#CREDIT:Ben Speirs;
#NOTES:
0000
0000
0000
0000
,
0000
0000
0000
0000
,
0000
0000
0000
0000
,
0000
0000
0000
0000
0000
1000
0100
0010
,
0001
0100
0010
1000
,
0001
0010
0100
1000
,
0001
0100
0001
0000
1000
0000
0001
0000
,
1000
0100
1000
0000
0001
0010
0100
1000
,
0001
0000
0100
0000
0010
0000
1000
0001
,
1000
0010
0100
0001
,
1000
0100
1000
0000
0010
0000
0010
0000
,
0100
0001
0100
0000
0001
0100
0010
1000
,
0100
0000
0000
0100
0000
0000
1000
0000
0000
1000
0000
0000
0020
0000
0000
0000
,
0130
0000
0001
0000
0100
0010
1000
0000
,
0100
0000
0000
0100
0000
0000
1000
0000
0000
1000
0000
0000
0002
0000
0000
0000
,
0103
0010
0100
0001
0000
0001
0100
0010
,
1000
0000
0000
1000
0000
0000
0001
0000
0000
0001
0000
0000
0020
0000
0000
0000
,
0031
0000
1000
0000
0001
1000
0010
0000
,
0100
0000
0000
0100
0000
0000
0010
0000
0000
0010
0000
0000
2000
0000
0000
0000
,
3100
1000
0010
0100
0000
0100
0010
1000
,
0002
0100
1000
0100
,
2003
0100
0001
0100
,
3002
0010
1000
0010
,
2003
0010
0001
0010
,
3001
0100
0010
1000
,
0001
0000
0010
0100
1000
0000
0010
0000
,
1000
0001
0100
0010
,
1000
0000
0001
0000
0010
0000
0100
0010
,
0001
0000
0011
0000
1000
0000
0001
1000
,
0010
0100
0001
1000
0010
0000
0100
0001
,
1000
0000
1010
0000
0001
0000
1000
0010
,
0100
0001
1000
0100
0010
0001
1000
0000
,
1001
1100
1001
0101
,
0100
0001
1000
0000
0100
1000
0001
0010
,
0100
1000
0010
0000
0100
0001
0010
0000
,
0001
0010
0100
1000
0000
0001
0100
0010
,
1010
0000
0000
1000
0000
0000
0001
0000
0000
0001
0000
0000
0200
0000
0000
0000
,
0310
0000
0100
0001
0010
0100
1000
0000
,
0100
0000
0000
0100
0000
0000
1000
0000
0000
1000
0000
0000
0002
0000
0000
0000
,
0103
0010
1000
0001
0000
1000
0100
0010
,
0011
0000
0000
0010
0000
0000
0001
0000
0000
0001
0000
0000
2000
0000
0000
0000
,
3010
0000
1000
0001
0100
0010
1000
0000
,
0100
0000
0000
0100
0000
0000
0010
0000
0000
0010
0000
0000
0002
0000
0000
0000
,
0103
0001
0010
0100
0000
0100
1000
0010
,
0100
0001
1000
0010
,
0101
0000
0100
0010
1000
0000
0001
1000
,
0100
1000
0001
0010
,
0011
0000
0010
0001
1000
0001
0100
0010
,
1000
0001
1000
0010
,
1010
0000
0010
0100
0001
0000
1000
0100
,
1000
0001
0010
0001
,
1000
0010
0100
0001
0000
1000
0100
0000
,
1001
0000
0000
1000
0000
0000
0001
0000
0000
0001
0000
0000
0200
0000
0000
0000
,
0310
0000
0100
0001
0100
0010
1000
0000
,
0100
0000
0000
0100
0000
0000
0010
0000
0000
0010
0000
0000
0002
0000
0000
0000
,
1003
0000
0010
1000
0001
1000
0010
0100
,
0001
0000
0000
0001
0000
0000
0010
0000
0000
0010
0000
0000
0200
0000
0000
0000
,
1300
0000
0100
1000
0010
0000
0100
0000
,
0110
0000
0000
0010
0000
0000
1000
0000
0000
1000
0000
0000
0002
0000
0000
0000
,
0013
0001
1000
0100
0000
1000
0010
0100
,
0001
0000
0000
1000
0000
0000
0010
0000
0100
0000
0010
0000
2000
0000
0000
0000
,
3100
0000
1000
0010
0100
0001
1000
0000
,
0100
0000
0000
1000
0000
0000
0100
0000
1000
0000
0010
0000
0200
0000
0000
0000
,
0301
0000
1000
0001
0100
0010
1000
0000
,
0001
0000
0000
1000
0000
0000
0001
0000
0010
0000
0100
0000
2000
0000
0000
0000
,
3001
0000
1000
0000
0010
0100
0010
0000
,
1000
0000
0000
0001
0000
0000
1000
0000
0100
0000
0010
0000
0002
0000
0000
0000
,
1003
0010
0100
0001
0000
0100
0010
1000
,
0200
0300
0000
0000
;

//---------------dance-single - ----------------
#NOTEDATA:;
#CHARTNAME:;
#STEPSTYPE:dance-single;
#DESCRIPTION:;
#CHARTSTYLE:;
#DIFFICULTY:Medium;
#METER:4;
#RADARVALUES:0.239886,0.307227,0.007530,0.150601,0.000000,202.000000,1.000000,20.000000,0.000000,0.000000,0.000000,0.000000,0.000000,0.239886,0.307227,0.007530,0.150601,0.000000,202.000000,1.000000,20.000000,0.000000,0.000000,0.000000,0.000000,0.000000;
#CREDIT:Ben Speirs;
#NOTES:
0000
0000
0000
0000
,
0000
0000
0000
0000
,
0000
0000
0000
0000
,
0000
0000
0000
0000
,
1000
0001
0100
0000
,
0010
0100
0010
0000
,
0100
0001
1000
0000
,
0100
1000
0001
0000
,
1000
0001
0100
0000
,
0010
0100
0010
0000
,
0100
0001
1000
0000
,
0100
1000
0001
0000
,
1000
0000
0100
0000
1000
0001
1000
0000
,
0010
0000
1000
0000
,
0001
0000
0100
0000
0001
1000
0001
0000
,
0010
0000
0100
0000
,
1000
0000
0001
0000
0100
0010
0100
0000
,
0001
0000
1000
0000
,
0001
0000
1000
0000
0100
0010
0100
0000
,
1000
0000
0001
0000
,
0200
0000
0000
0300
,
0020
0000
0030
2000
0000
0000
3000
0000
,
0200
0000
0000
0300
,
0020
0000
0000
0030
,
0002
0000
0000
0003
,
0200
0000
0300
0020
0000
0000
0030
0000
,
2000
0000
0000
3000
,
0200
0000
0000
0300
,
1000
0001
1000
0000
,
0010
0100
0010
0000
,
1000
0100
1000
0000
,
0001
0010
0001
0000
,
1000
0001
0100
0010
,
1000
0100
0010
0001
,
1000
0001
1000
0010
,
0100
0000
0000
0000
0000
0001
0100
0010
,
1000
0000
0100
0000
1000
0001
1000
0000
,
0010
0000
0100
0000
,
0001
0100
0001
0000
0100
0000
0100
0000
,
0001
0100
0001
0000
0100
0000
0100
0000
,
0001
0000
1000
0000
0100
0010
0100
0000
,
1000
0000
0010
0000
,
1000
0100
1000
0000
0100
0000
0100
0000
,
1000
0100
1000
0000
0100
0000
0100
0000
,
2000
0000
0000
3000
,
0002
0000
0003
0200
0000
0000
0300
0000
,
0020
0000
0000
0030
,
2000
0000
0000
3000
,
0200
0000
0000
0300
,
0020
0000
0030
0002
0000
0000
0003
0000
,
0200
0000
0000
0000
,
0020
0000
0000
0330
,
1001
0000
1000
0000
0001
0100
0001
0000
,
1000
0000
0100
0000
,
1000
0010
1000
0000
0010
0000
0010
0000
,
1000
0010
1000
0000
0010
0000
0010
0000
,
1000
0000
0001
0000
0010
0100
0010
0000
,
0001
0000
1000
0000
,
0001
0100
0001
0000
0100
0000
0100
0000
,
0001
0100
0001
0000
0100
0000
0100
0000
,
0010
0000
1000
0000
0100
1000
0100
0000
,
1000
0001
0100
0000
,
0010
0000
1000
0000
0001
0010
0001
0000
,
1000
0001
0100
0000
,
0010
0000
1000
0000
0100
0010
0001
0000
,
1000
0000
0001
0000
,
0100
0000
0001
0000
0010
0100
1000
0000
,
0010
0000
0000
0000
0100
0001
0100
0001
,
1000
0000
0000
0000
;

//---------------dance-single - ----------------
#NOTEDATA:;
#CHARTNAME:;
#STEPSTYPE:dance-single;
#DESCRIPTION:;
#CHARTSTYLE:;
#DIFFICULTY:Easy;
#METER:3;
#RADARVALUES:0.159207,0.179216,0.000000,0.060241,0.000000,140.000000,0.000000,8.000000,0.000000,0.000000,0.000000,0.000000,0.000000,0.159207,0.179216,0.000000,0.060241,0.000000,140.000000,0.000000,8.000000,0.000000,0.000000,0.000000,0.000000,0.000000;
#CREDIT:Ben Speirs;
#NOTES:
0000
0000
0000
0000
,
0000
0000
0000
0000
,
0000
0000
0000
0000
,
0000
0000
0000
0000
,
1000
0000
0001
0000
,
0100
0000
0100
0000
,
0010
0010
0000
0000
,
1000
1000
0000
0000
,
0100
0000
1000
0000
,
0001
0000
0100
0000
,
0001
0001
0000
0000
,
1000
1000
0000
0000
,
0001
0010
0100
1000
,
0000
0000
0000
0000
,
0010
1000
0010
1000
,
0000
0000
0000
0000
,
1000
0100
0010
0001
,
0000
0000
0000
0000
,
0100
0001
0100
0001
,
0000
0000
0000
0000
,
2000
0000
0000
3000
,
0002
0000
0000
0003
,
0200
0000
0000
0300
,
0020
0000
0000
0030
,
2000
0000
0000
3000
,
0200
0000
0000
0300
,
0020
0000
0000
0030
,
0002
0000
0000
0003
,
0100
0000
0100
0000
,
0010
0000
0010
0000
,
1000
0100
0010
0000
,
0001
0100
0010
0000
,
1000
0000
0001
0000
,
0100
0000
0010
0000
,
1000
0001
0010
0000
,
0001
1000
0000
0000
,
0001
1000
0001
0100
,
0000
0000
0000
0000
,
0001
0010
0100
1000
,
0000
0000
0000
0000
,
0001
1000
0001
0100
,
0000
0000
0000
0000
,
0001
0100
0010
1000
,
0000
0000
0000
0000
,
0100
1000
0100
1000
,
0001
0000
0001
0000
,
0100
0001
0100
0001
,
1000
0000
1000
0000
,
0010
1000
0010
1000
,
0001
0000
0001
0000
,
0010
0001
0010
0001
,
1000
0000
1000
0000
,
0001
0100
0010
1000
,
0000
0000
0000
0000
,
1000
0100
0010
0001
,
0000
0000
0000
0000
,
0001
0100
0010
1000
,
0000
0000
0000
0000
,
1000
0010
0100
0001
,
0000
0000
0000
0000
,
0001
0100
0001
0100
,
0010
0000
0010
0000
,
1000
0100
1000
0100
,
0010
0000
0010
0000
,
0001
1000
0001
1000
,
0010
0000
0010
0000
,
1000
0001
1000
0001
,
0010
0000
0010
0000
,
0100
0000
0000
0000
;

//---------------dance-single - ----------------
#NOTEDATA:;
#CHARTNAME:;
#STEPSTYPE:dance-single;
#DESCRIPTION:;
#CHARTSTYLE:;
#DIFFICULTY:Beginner;
#METER:1;
#RADARVALUES:0.096815,0.128011,0.007530,0.000000,0.000000,89.000000,1.000000,0.000000,0.000000,0.000000,0.000000,0.000000,0.000000,0.096815,0.128011,0.007530,0.000000,0.000000,89.000000,1.000000,0.000000,0.000000,0.000000,0.000000,0.000000,0.000000;
#CREDIT:Ben Speirs;
#NOTES:
0000
0000
0000
0000
,
0000
0000
0000
0000
,
0000
0000
0000
0000
,
0000
0000
0000
0000
,
0100
0000
0000
0000
,
0001
0000
0000
0000
,
1000
1000
0000
0000
,
1000
0000
0000
0000
,
0100
0000
0000
0000
,
0010
0000
0000
0000
,
0001
0001
0000
0000
,
0001
0000
0000
0000
,
1000
0000
1000
1000
,
0000
0000
0000
0000
,
0001
0000
0001
0001
,
0000
0000
0000
0000
,
0100
0000
0100
0100
,
0000
0000
0000
0000
,
0010
0000
0010
0010
,
0000
0000
0000
0000
,
1000
0000
0000
0000
,
0001
0000
0000
0000
,
0010
0000
0000
0000
,
0100
0000
0000
0000
,
1000
0000
0000
0000
,
0010
0000
0000
0000
,
0100
0000
0000
0000
,
0001
0000
0000
0000
,
1000
0000
1000
0000
,
0100
0000
0000
0000
,
0010
0000
0010
0000
,
0001
0000
0000
0000
,
0100
0000
0100
0000
,
0010
0000
0000
0000
,
1000
0000
1000
0000
,
0100
0000
0000
0000
,
1000
0000
1000
1000
,
0000
0000
0000
0000
,
0010
0000
0010
0000
,
0100
0000
0100
0000
,
0001
0000
0001
0001
,
0000
0000
0000
0000
,
0010
0000
0010
0000
,
0100
0000
0100
0000
,
1000
0000
0000
0000
,
0010
0000
0000
0000
,
0100
0000
0000
0000
,
0001
0000
0000
0000
,
0010
0000
0000
0000
,
0100
0000
0000
0000
,
1000
0000
0000
0000
,
0010
0000
0000
0000
,
1000
0000
1000
1000
,
0000
0000
0000
0000
,
0001
0000
0001
0001
,
0000
0000
0000
0000
,
0100
0000
0100
0100
,
0000
0000
0000
0000
,
0010
0000
0010
0010
,
0000
0000
0000
0000
,
1000
0000
0100
0100
,
0000
0000
0000
0000
,
0010
0000
0001
0001
,
0000
0000
0000
0000
,
0100
0000
0010
0010
,
0000
0000
0000
0000
,
1000
0000
0001
0001
,
0000
0000
0000
0000
,
1001
0000
0000
0000
;

//---------------dance-double - ----------------
#NOTEDATA:;
#CHARTNAME:;
#STEPSTYPE:dance-double;
#DESCRIPTION:;
#CHARTSTYLE:;
#DIFFICULTY:Challenge;
#METER:7;
#RADARVALUES:0.423835,0.486442,0.165661,0.225902,0.109186,342.000000,22.000000,30.000000,0.000000,0.000000,0.000000,0.000000,0.000000,0.423835,0.486442,0.165661,0.225902,0.109186,342.000000,22.000000,30.000000,0.000000,0.000000,0.000000,0.000000,0.000000;
#CREDIT:Ben Speirs;
#NOTES:
// measure 0
00000000
00000000
00000000
00000000
,  // measure 1
00000000
00000000
00000000
00000000
,  // measure 2
00000000
00000000
00000000
00000000
,  // measure 3
00000000
00000000
00000000
00000000
00000000
00000001
00000010
00000100
,  // measure 4
00001000
00000000
00000001
00000000
00000100
00000000
00000010
00001000
,  // measure 5
00000100
00000000
00000100
00010000
00001000
00000000
00100000
00000000
,  // measure 6
00001000
00010000
00001000
00100000
00010000
00000000
01000000
00000000
,  // measure 7
00100000
10000000
00100000
01000000
00010000
00000000
10000000
01000000
,  // measure 8
00200000
00310000
20000000
30100000
,  // measure 9
20000000
00000000
30020000
00000000
00130000
00000000
00010000
10000000
,  // measure 10
00100000
01000000
00010000
01000000
00001000
00000000
00010000
00000000
,  // measure 11
00001000
00010000
00000100
00001000
00000100
00000000
00000010
00000001
,  // measure 12
00001000
00000000
00000000
00000100
00000000
00000000
00000010
00000000
00000000
00000001
00000000
00000000
00000200
00000000
00000000
00000000
,  // measure 13
00000310
00000000
00000100
00000010
00001000
00000000
00000100
00000000
,  // measure 14
00010000
00000000
00000000
00001000
00000000
00000000
00100000
00000000
00000000
00010000
00000000
00000000
02000000
00000000
00000000
00000000
,  // measure 15
03100000
10000000
00100000
01000000
00000000
01000000
00010000
00100000
,  // measure 16
00001000
00000000
00000000
00010000
00000000
00000000
00000100
00000000
00000000
00001000
00000000
00000000
00000020
00000000
00000000
00000000
,  // measure 17
00000130
00000000
00000010
00001000
00000100
00000000
00000010
00000000
,  // measure 18
00000001
00000000
00000000
00000010
00000000
00000000
00000100
00000000
00000000
00001000
00000000
00000000
00000200
00000000
00000000
00000000
,  // measure 19
00010300
00001000
00010000
00001000
00000000
00100000
00010000
01000000
,  // measure 20
00200000
10000000
01000000
10300000
,  // measure 21
20000000
00000000
31000000
00100000
00020000
00000000
10030000
00000000
,  // measure 22
00200000
00000000
00000000
00000000
01000000
00000000
00000000
00000000
00010000
00000000
00000000
00000000
01000000
00000000
00000000
00300000
,  // measure 23
20000000
00000000
01000000
00000000
30010000
00100000
00001000
00010000
,  // measure 24
00000200
00001000
00000010
00001000
,  // measure 25
00000320
00000000
00000031
00001000
00000020
00000000
00000130
00000000
,  // measure 26
00000002
00000100
00000010
00001003
,  // measure 27
00001000
00000100
00010000
00001000
00100000
00000000
00010000
10000000
,  // measure 28
00100000
00000000
01100000
00000000
01000000
00010000
00000000
00000000
,  // measure 29
10000000
00000000
00000000
01000000
00000000
00000000
10000000
00000000
00000000
00000000
00010000
00000000
00100000
00000000
00000000
00000000
,  // measure 30
00010000
00000000
01000000
00000000
00001000
00010000
00000000
00000100
,  // measure 31
00001000
00000010
00000000
00000000
00000100
00000100
00000000
00000001
,  // measure 32
00001000
00000000
00001010
00000000
00001001
00000000
00000001
00000010
,  // measure 33
00000100
00000000
00001000
00000001
00000100
00000000
00000001
00000010
,  // measure 34
00000100
00000010
00000100
00000000
00001000
00000100
00010000
00000000
,  // measure 35
00001000
00010000
00001000
00000000
00000000
00000000
00000000
00000000
,  // measure 36
00101000
00000000
00000000
00010000
00000000
00000000
10000000
00000000
00000000
00100000
00000000
00000000
02000000
00000000
00000000
00000000
,  // measure 37
03100000
00000000
10000000
00100000
01000000
00000000
00010000
10000000
,  // measure 38
01000000
00000000
00000000
00100000
00000000
00000000
00010000
00000000
00000000
01000000
00000000
00000000
00002000
00000000
00000000
00000000
,  // measure 39
00013000
00000100
00010000
00000100
00000000
00010000
00001000
00000000
,  // measure 40
00010000
00000000
00000000
00000010
00000000
00000000
00001000
00000000
00000000
00000001
00000000
00000000
00000200
00000000
00000000
00000000
,  // measure 41
00000310
00001000
00000010
00000100
00000000
00000100
00000001
00000000
,  // measure 42
00001000
00000000
00000000
00000100
00000000
00000000
00000010
00000000
00000000
00000001
00000000
00000000
00002000
00000000
00000000
00000000
,  // measure 43
00003100
00010000
00001000
00100000
00000000
00010000
10000000
00100000
,  // measure 44
02000000
00100000
00000000
03100000
,  // measure 45
01100000
00000000
00010000
01000000
00000000
10000000
01000000
00000000
,  // measure 46
20000000
01000000
00000000
31000000
,  // measure 47
11000000
00000000
00010000
01000000
00000000
00001000
00010000
00000000
,  // measure 48
00000200
00001000
00000000
00010300
,  // measure 49
00010100
00000000
00001000
00000100
00000000
00000010
00000001
00000000
,  // measure 50
00002000
00000010
00000000
00003010
,  // measure 51
00001000
00000010
00000100
00000001
00000000
00001000
00000001
00000000
,  // measure 52
00001001
00000000
00000000
00001001
00000000
00000000
00001100
00000000
00000000
00001001
00000000
00000000
00000201
00000000
00000000
00000000
,  // measure 53
00000310
00000000
00000000
00000100
00000000
00000000
00000001
00000000
00000000
00000000
00000100
00000000
00000001
00000000
00001000
00000000
,  // measure 54
00000100
00010000
00001000
00100000
00020000
00000000
10030000
00000000
,  // measure 55
00100000
10000000
00010000
00100000
00001000
00010000
00000010
00001000
,  // measure 56
00000100
00000000
00000000
00010000
00000000
00000000
00001000
00000000
00000000
00100000
00000000
00000000
00020000
00000000
00000000
00000000
,  // measure 57
01030000
00000000
00010000
10000000
00010000
00000000
10000000
00000000
,  // measure 58
00100000
10000000
01000000
00100000
00010000
00000000
01000000
00000000
,  // measure 59
00010000
00100000
00001000
00010000
00000010
00000000
00001000
00000000
,  // measure 60
00001100
00000000
00000000
00010100
00000000
00000000
00011000
00000000
00000000
00110000
00000000
00000000
20010000
00000000
00000000
00000000
,  // measure 61
30100000
00000000
10000000
00100000
00000000
01000000
00010000
00000000
,  // measure 62
10000000
00000000
00000000
00010000
00000000
00000000
01000000
00000000
01000000
00000000
01000000
00000000
01000000
00000000
00000000
00000000
,  // measure 63
00010000
00100000
00001000
00010000
00000000
00010000
00000100
00001000
,  // measure 64
00000010
00000000
00000000
00000100
00000000
00000000
00000001
00000000
00000001
00000000
00000001
00000000
00000001
00000000
00000000
00000000
,  // measure 65
00000100
00000000
00000000
00000010
00000000
00000000
00001000
00000000
00000000
00000000
00000100
00000000
00010000
00000000
00000000
00000000
,  // measure 66
00011000
00000000
00000000
00101000
00000000
00000000
00011000
00000000
00000000
00010100
00000000
00000000
00002001
00000000
00000000
00000000
,  // measure 67
00003010
00001000
00000001
00000100
00000000
00000100
00000010
00010000
,  // measure 68
00001000
00000000
00000000
00000000
;
