#VERSION:0.83;
#TITLE:Unhappy Refrain [true style];
#SUBTITLE:;
#ARTIST:wowaka ft.Hatsune Miku;
#TITLETRANSLIT:;
#SUBTITLETRANSLIT:;
#ARTISTTRANSLIT:;
#GENRE:Vocaloid;
#ORIGIN:;
#CREDIT:;
#BANNER:Unhappy Refrain [true style].png;
#BACKGROUND:Unhappy Refrain [true style]-bg.png;
#PREVIEWVID:;
#JACKET:jacket.png;
#CDIMAGE:;
#DISCIMAGE:;
#LYRICSPATH:;
#CDTITLE:;
#MUSIC:Unhappy Refrain [true style].ogg;
#OFFSET:-0.160000;
#SAMPLESTART:93.600250;
#SAMPLELENGTH:16.533998;
#SELECTABLE:YES;
#BPMS:0.000=205.000;
#STOPS:;
#DELAYS:;
#WARPS:;
#TIMESIGNATURES:0.000=4=4;
#TICKCOUNTS:0.000=4;
#COMBOS:0.000=1;
#SPEEDS:0.000=1.000=0.000=0;
#SCROLLS:0.000=1.000;
#FAKES:;
#LABELS:0.000=Song Start;
#BGCHANGES:4.000=Unhappy Refrain [true style].avi=1.000=0=0=1=====,
99999=-nosongbg-=1.000=0=0=0 // don't automatically add -songbackground-
;
#KEYSOUNDS:;
#ATTACKS:
;

//---------------dance-single - ----------------
#NOTEDATA:;
#CHARTNAME:;
#STEPSTYPE:dance-single;
#DESCRIPTION:;
#CHARTSTYLE:;
#DIFFICULTY:Hard;
#METER:12;
#RADARVALUES:0.973665,1.209330,0.387416,0.294149,0.509381,950.000000,896.000000,54.000000,41.000000,0.000000,0.000000,0.000000,0.000000,0.000000,0.973665,1.209330,0.387416,0.294149,0.509381,950.000000,896.000000,54.000000,41.000000,0.000000,0.000000,0.000000,0.000000,0.000000;
#CREDIT:Ben Speirs;
#NOTES:
// measure 0
0000
0000
0000
0000
,  // measure 1
0000
0000
0000
0000
,  // measure 2
0000
0000
0000
0000
,  // measure 3
0000
0000
0000
0000
,  // measure 4
2010
0000
0000
3001
0000
0000
0010
0000
,  // measure 5
0012
0000
0000
0103
0000
0000
0010
0000
,  // measure 6
0120
0000
0000
1030
0000
0000
0100
0000
,  // measure 7
1200
0000
0000
2300
0000
0000
3001
0000
,  // measure 8
1000
0100
1000
0001
0100
0010
1000
0000
,  // measure 9
0001
0100
0001
1000
0100
0010
0001
0000
,  // measure 10
1000
0010
1000
0001
0010
0100
1000
0000
,  // measure 11
0001
0010
0001
1000
0010
0100
0001
0000
,  // measure 12
1000
0100
0010
0001
0100
0010
1000
0000
,  // measure 13
0001
0010
0100
1000
0010
0100
0001
0000
,  // measure 14
1000
0100
1000
0001
1000
0010
1000
0000
,  // measure 15
0001
1000
0001
0100
0001
0010
0001
0000
,  // measure 16
0000
1001
0000
1000
0000
0100
1000
0010
,  // measure 17
0000
0100
0000
0101
0000
0100
0010
1000
,  // measure 18
0000
0001
0000
0011
0000
0010
0001
1000
,  // measure 19
0000
0001
0000
1001
0000
1000
0010
0100
,  // measure 20
0000
0001
0100
0010
1000
0100
0010
0001
,  // measure 21
0000
0010
0100
0010
0001
1000
0010
0100
,  // measure 22
0000
0001
0100
0010
1000
0100
0010
0001
,  // measure 23
0000
0000
1000
0000
0010
0000
0100
0000
0001
0000
0010
0000
0001
1000
0001
1000
,  // measure 24
0001
1000
0010
0000
0100
0000
0001
0000
1000
0000
0100
0000
0010
0000
0001
0000
,  // measure 25
1000
0010
0100
0000
0001
0000
1000
0000
0100
0000
0010
0000
0001
0000
1000
0000
,  // measure 26
0010
0000
0100
0000
0001
0000
1000
0000
0010
0100
0001
0000
1000
0000
0100
0000
,  // measure 27
0010
0001
0100
0010
1000
0100
0010
0001
,  // measure 28
1000
0010
1000
0000
0001
0000
0010
0000
0100
0000
1000
0000
0001
0000
0100
0000
,  // measure 29
0001
0100
0010
0000
1000
0000
0100
0000
0010
0000
0100
0000
1000
0000
0001
0000
,  // measure 30
1000
2002
0000
3003
0000
0220
0000
0330
,  // measure 31
0000
2002
3003
0220
0330
2002
3003
0220
,  // measure 32
0330
1000
0010
1010
0000
0011
0000
1000
,  // measure 33
0001
0000
0000
0000
1000
0100
1000
0000
0100
0000
0010
0000
0001
0000
1000
0000
,  // measure 34
0000
0000
0001
0100
0001
0000
0100
0000
0010
0100
0010
0000
0100
0000
0001
0000
,  // measure 35
0010
0000
0100
0000
1000
0000
0001
0000
0100
0010
1000
0000
1000
0000
0101
0000
,  // measure 36
0000
0001
0010
0011
0000
1100
0000
0001
,  // measure 37
1000
0000
0000
0000
0001
0010
0001
0000
0010
0000
0100
0000
1000
0000
0001
0000
,  // measure 38
0000
0000
1000
0010
1000
0000
0010
0000
0100
0010
0100
0000
0010
0000
1000
0000
,  // measure 39
0100
0010
0001
1000
0010
0100
0100
0110
,  // measure 40
0000
0000
0010
1000
0010
0000
1000
0000
0010
1000
0010
0000
1000
0000
0010
1000
,  // measure 41
0010
0000
1000
0000
0010
1000
0010
0000
1000
0000
0001
0000
1000
0000
0001
0000
,  // measure 42
0000
0000
0001
0010
0001
0000
0010
0000
0001
0010
0001
0000
0010
0000
0001
0010
,  // measure 43
0001
0000
0010
0000
0001
0010
0001
0000
0010
0000
0001
0000
1000
0000
0001
0000
,  // measure 44
0000
0000
1000
0000
0001
0010
0100
1000
0010
0100
0001
0000
0100
0000
0010
0000
,  // measure 45
1000
0001
1000
1010
0000
0101
0000
1000
,  // measure 46
0001
0000
1000
0100
0010
0001
1000
0000
0020
0000
0000
0000
0130
0000
0010
0000
,  // measure 47
0100
0000
0001
0000
0010
0000
0100
0000
1000
0000
0001
0000
0100
0010
0100
0010
,  // measure 48
0100
0010
1000
0000
0000
0000
1010
0000
0000
0000
1001
0000
0000
0000
0001
0000
,  // measure 49
0010
0000
0002
0023
2030
3002
0203
2300
,  // measure 50
3002
0000
0103
0000
0001
0100
0010
0000
2000
0000
0000
0000
3100
0000
0100
0000
,  // measure 51
1000
0010
0100
0000
0001
0000
1000
0000
0010
0000
0100
0000
0100
0000
1001
0000
,  // measure 52
0000
0010
0000
0101
0000
1001
0001
1000
,  // measure 53
0100
0000
2000
3200
0302
2003
3020
0032
,  // measure 54
2003
0000
3010
0000
1000
0010
0100
0000
0002
0000
0000
0000
0013
0000
0010
0000
,  // measure 55
0001
0100
0010
0000
1000
0000
0001
0000
0100
0000
0010
0000
0010
0000
0101
0000
,  // measure 56
0000
0000
2000
0000
3000
0000
0010
1000
0100
0000
1000
0000
0010
0100
0010
0000
,  // measure 57
1000
0000
0100
1000
0100
0000
1000
0000
0010
0100
0010
0000
1000
0000
0100
0000
,  // measure 58
0000
0000
0020
0000
0030
0000
0001
0010
0100
0000
0010
0000
0001
0000
0100
0001
,  // measure 59
0100
0000
0001
0000
0010
0100
0010
0000
0001
0000
0100
0000
0010
0000
1000
0000
,  // measure 60
0000
0000
0001
0000
1000
0100
0010
0001
0100
0010
1000
0000
0010
0000
0100
0000
,  // measure 61
0001
1000
0001
0101
0000
1010
0000
0001
,  // measure 62
1000
0000
0001
0010
0100
1000
0001
0000
0200
0000
0000
0000
0310
0000
0100
0000
,  // measure 63
0010
0000
1000
0000
0100
0000
0010
0000
0001
0000
1000
0010
1000
0010
0100
0001
,  // measure 64
0100
0001
1000
0000
0000
0000
0000
0000
1001
0000
0000
0000
0001
0000
0010
0000
,  // measure 65
0100
1000
0000
0000
1100
0000
0100
1000
,  // measure 66
0010
0000
0100
0000
0010
0100
0010
0000
1000
0010
1000
0000
0100
1000
0100
0000
,  // measure 67
1000
0001
1000
0000
0001
1000
0001
0000
1000
0010
0100
0000
0001
0000
1000
0000
,  // measure 68
0000
0101
0000
0100
0110
0000
0010
1000
,  // measure 69
0100
1100
0000
1000
1001
0000
1000
0100
,  // measure 70
0010
0000
0001
0100
0001
0100
0001
0000
0000
0000
1000
0100
1000
0100
1000
0000
,  // measure 71
0000
0000
0001
1000
0001
1000
0001
0000
1000
0000
0010
0100
0010
0100
0001
0000
,  // measure 72
0000
0101
0000
0000
1001
0000
1000
0100
,  // measure 73
0010
0001
0000
0000
0011
0000
0010
0001
,  // measure 74
0100
0000
0010
0000
0100
0010
0100
0000
0001
0100
0001
0000
0010
0001
0010
0000
,  // measure 75
0001
1000
0001
0000
1000
0001
1000
0000
0001
0100
0010
0000
1000
0000
0001
0000
,  // measure 76
0000
0000
1010
0000
0010
0000
0100
0000
0001
0000
1000
0000
0100
0010
0100
0010
,  // measure 77
0100
0010
0001
0000
1000
0000
0010
0100
0001
0000
1000
0000
0010
0000
1000
0000
,  // measure 78
0100
1100
0000
0101
0000
1000
1000
0000
,  // measure 79
0001
0000
1000
0100
0010
1001
0000
0000
,  // measure 80
0000
0000
0001
1000
0010
0000
0100
0000
0001
0000
1000
0100
0010
0000
0001
0000
,  // measure 81
0010
0100
0010
0000
0001
0000
0101
0000
0000
0000
1100
0000
0000
0000
0001
0000
,  // measure 82
1000
0000
0010
0000
0100
0001
0100
0010
0100
0001
1000
0000
0010
0000
0010
0000
,  // measure 83
2000
0000
3001
1000
0100
0010
0010
0001
,  // measure 84
0100
0010
1000
0001
0100
0000
0010
0000
1000
0000
0001
0010
0100
0000
1000
0000
,  // measure 85
0100
0010
0100
0000
1000
0000
1010
0000
0000
0000
0011
0000
0000
0000
1000
0000
,  // measure 86
0001
0000
0100
0000
0010
1000
0010
0100
0010
1000
0001
0000
0100
0000
0100
0000
,  // measure 87
0002
0000
0000
0000
1003
0000
0001
0000
0010
0000
0100
0000
1000
0001
1000
0001
,  // measure 88
1000
0001
0100
0000
0010
0000
1000
0100
1000
0000
0010
0000
0100
0000
0001
0100
,  // measure 89
0001
0000
1000
0000
0100
0000
0010
0000
0001
0010
0100
0000
0010
0001
0010
0000
,  // measure 90
0001
0000
1000
0000
0010
0100
0010
0100
0010
0000
1000
0000
0100
0000
0010
0000
,  // measure 91
0001
1000
0010
0100
0001
1000
1000
0100
,  // measure 92
1000
0000
0001
0100
0001
0000
0100
0000
0010
0000
1000
0100
1000
0000
0010
0000
,  // measure 93
0100
0001
0100
0000
0010
0000
1100
0000
0000
0000
0202
0000
0000
0000
0303
0000
,  // measure 94
0000
0000
0001
0000
0100
0010
1000
0000
0100
0010
0001
0000
0100
0000
0010
0000
,  // measure 95
1000
0000
0100
0000
0010
0000
0001
0000
1000
0000
0010
0000
1000
0100
0010
0001
,  // measure 96
0100
0010
1000
0000
1000
0000
0000
0000
0000
0000
0001
0000
0001
0000
0000
0000
,  // measure 97
0000
0100
0100
0000
0000
0010
0010
0000
,  // measure 98
0000
0000
1001
0000
1000
0010
0100
0000
0001
1000
0100
0000
1000
0000
0010
0000
,  // measure 99
0100
0000
0001
1000
0001
0000
1000
0000
0010
0000
1000
0000
0100
0000
0010
0000
,  // measure 100
0001
0000
0100
0010
0100
0000
0001
0000
0010
0000
0100
0010
0100
0000
0010
0000
,  // measure 101
0001
0010
0100
0000
0010
0000
0001
0000
1000
0000
0010
0000
0010
0000
1000
0000
,  // measure 102
0100
0000
1000
0010
0100
0001
0100
0010
1000
0001
1000
0000
0010
0000
0100
0000
,  // measure 103
0001
0000
1000
0000
0010
0000
0100
0000
0001
0000
1000
0000
0100
0010
0100
0010
,  // measure 104
0100
0010
0001
0000
0110
0000
0010
0000
0001
0000
1000
0010
1000
0000
0100
0000
,  // measure 105
1100
0000
0001
0100
0010
0000
1000
0000
0100
0010
0100
0000
0010
0000
0011
0000
,  // measure 106
1000
0000
0001
1000
0100
1000
0010
0000
0100
0000
0001
1000
0010
1000
0001
0000
,  // measure 107
0100
0000
0001
0010
0100
1000
0001
0000
1000
0000
1000
0000
0001
0010
0001
0000
,  // measure 108
1000
0000
0010
0100
0010
0000
1000
0000
0001
0000
0010
0100
0010
0000
0001
0000
,  // measure 109
1000
0010
1000
0000
0010
0000
1000
0000
0100
0000
0010
0000
0010
0000
0011
0000
,  // measure 110
1000
0000
0001
0010
0100
0000
1000
0010
0100
0000
0001
0010
0100
0000
1000
0010
,  // measure 111
0100
0000
0001
0010
0100
1000
0010
0100
0001
1000
0010
0100
0010
0100
0001
0010
,  // measure 112
0001
0010
0100
0000
0000
0000
1000
0000
0100
0000
0010
0000
0000
0000
0000
0000
,  // measure 113
0000
0001
0000
0100
0010
1000
0000
0000
,  // measure 114
0000
0001
1000
0010
0100
0001
0000
0000
,  // measure 115
1000
1000
0100
0010
0001
1000
0000
0000
,  // measure 116
0001
0100
1000
0000
0000
0000
0000
0000
;

//---------------dance-single - ----------------
#NOTEDATA:;
#CHARTNAME:;
#STEPSTYPE:dance-single;
#DESCRIPTION:;
#CHARTSTYLE:;
#DIFFICULTY:Challenge;
#METER:14;
#RADARVALUES:1.202220,1.376135,0.487857,0.236754,0.972128,1173.000000,1105.000000,68.000000,33.000000,0.000000,0.000000,0.000000,0.000000,0.000000,1.202220,1.376135,0.487857,0.236754,0.972128,1173.000000,1105.000000,68.000000,33.000000,0.000000,0.000000,0.000000,0.000000,0.000000;
#CREDIT:Ben Speirs;
#NOTES:
// measure 0
0000
0000
0000
0000
,  // measure 1
0000
0000
0000
0000
,  // measure 2
0000
0000
0000
0000
,  // measure 3
0000
0000
0000
0000
,  // measure 4
0012
0000
0010
0010
0000
0100
0103
0000
,  // measure 5
2010
0000
0100
0100
0000
0001
3001
0000
,  // measure 6
0012
0000
1000
1000
0000
0100
0103
0000
,  // measure 7
2010
0000
0100
0100
0000
0001
3001
0000
,  // measure 8
0001
0100
0001
0000
1000
0000
0010
0100
0010
0000
1000
0000
0100
0000
1000
0000
,  // measure 9
0001
0010
0001
0000
0100
0000
0010
1000
0010
0000
1000
0000
0100
0000
0010
0000
,  // measure 10
0001
1000
0001
0000
1000
0000
0001
0010
0001
0000
0010
0000
0001
0000
0100
0000
,  // measure 11
0010
1000
0010
0000
1000
0000
0100
1000
0100
0000
1000
0000
0100
0000
0010
0000
,  // measure 12
0001
0100
0010
0000
1000
0000
0010
1000
0100
0000
1000
0000
0100
0000
0010
0000
,  // measure 13
0001
1000
0100
0000
1000
0000
0001
0100
0010
0000
1000
0000
0001
0000
0010
0000
,  // measure 14
0100
1000
0010
0000
0100
0000
0001
1000
0010
0000
1000
0000
0100
0000
1000
0000
,  // measure 15
0010
0100
0001
0000
1000
0000
0001
0010
0100
0000
1000
0000
1010
0000
0000
0000
,  // measure 16
0000
0000
0001
0100
0010
0100
0001
0000
1000
0000
0100
0000
0100
0000
1000
0000
,  // measure 17
0010
0000
1000
0100
0010
0100
1000
0000
0010
0000
0100
0000
0100
0000
0001
0000
,  // measure 18
1000
0000
0001
0010
0100
0010
0001
0000
0100
0000
0010
0000
0010
0000
1000
0000
,  // measure 19
0100
0000
1000
0010
0100
0010
1000
0000
0100
0000
0010
0000
0010
0000
0001
0000
,  // measure 20
1000
0000
0001
0100
0010
1000
0001
0000
1000
0000
0100
0000
0100
0000
0010
0000
,  // measure 21
0001
0000
1000
0010
0100
0001
1000
0000
0010
0000
0100
0000
0100
0000
0001
0000
,  // measure 22
1000
0000
0001
0010
0100
1000
0001
0000
0100
0000
0010
0000
0010
0000
1000
0000
,  // measure 23
0001
0000
1000
0100
0010
0001
1000
0000
0010
0000
0100
0000
0001
1000
0001
1000
,  // measure 24
0001
1000
0010
0000
0100
0000
0110
0000
0010
0000
1000
0000
0100
0000
1100
0000
,  // measure 25
0100
0010
0001
0000
0100
0000
0101
0000
0001
0000
1000
0000
0010
0000
1010
0000
,  // measure 26
1000
0000
0100
0000
0010
0000
0110
0000
0100
1000
0001
0000
0100
0000
0101
0000
,  // measure 27
0001
1000
0100
1100
1000
0001
1000
1010
,  // measure 28
0010
1000
0001
0000
0010
0001
0010
0000
0001
0000
0100
0010
0100
0000
0010
0000
,  // measure 29
1000
0100
0010
0000
0001
0100
0001
0000
1000
0000
0010
0100
0010
0000
1000
0000
,  // measure 30
0100
2200
0000
3300
0000
0022
0000
0033
,  // measure 31
0000
0000
1000
0000
0010
0000
0010
0000
1000
0000
0001
0000
1000
0100
0010
0001
,  // measure 32
0100
0010
1000
0000
0001
0000
0101
0000
0100
0000
0110
0000
0010
1000
0001
0000
,  // measure 33
2000
0000
3100
0000
1000
0000
0010
1000
0100
0010
0001
0000
0100
0000
0110
0000
,  // measure 34
0010
0000
1000
0010
1000
0010
0100
0000
0001
0010
0100
0000
1000
0000
0001
0000
,  // measure 35
0101
0100
0010
1000
1001
0100
0100
1001
,  // measure 36
0000
0000
0001
0000
1000
0000
1010
0000
0010
0000
0110
0000
0100
0001
1000
0000
,  // measure 37
0002
0000
0013
0000
0001
0000
0100
0001
0010
0100
1000
0000
0010
0000
0110
0000
,  // measure 38
0100
0000
0001
0100
0001
0100
0010
0000
1000
0100
0010
0000
0001
0000
1000
0000
,  // measure 39
1010
0000
0010
0000
0100
0000
0101
0000
1000
0100
0010
0000
0010
0000
1001
0000
,  // measure 40
0000
0000
1000
0100
0010
0000
0001
0000
1000
0010
0100
0000
0001
0000
1000
0100
,  // measure 41
0010
0000
0001
0000
1000
0010
0100
0000
0001
0000
1000
0001
1000
0001
0100
0000
,  // measure 42
0000
0000
0001
0010
0100
0000
1000
0000
0001
0100
0010
0000
1000
0000
0001
0010
,  // measure 43
0100
0000
1000
0000
0001
0100
0010
0000
1000
0000
0001
1000
0001
1000
0010
0000
,  // measure 44
0000
0000
1000
0000
0001
0010
0100
1000
0010
0100
0001
0000
0100
0000
0010
0000
,  // measure 45
1010
0000
0100
0001
1000
0001
0200
0000
0310
0000
0020
0000
1030
0000
0001
1000
,  // measure 46
0001
0000
1000
0100
0010
0001
1000
0000
0002
0000
0103
0000
0001
0000
1000
0000
,  // measure 47
1010
0000
0010
0000
0100
0000
0101
0000
0001
0000
1000
0001
0010
0100
0010
0001
,  // measure 48
1000
0010
0100
0000
0010
0000
1000
0000
0100
0000
0010
0000
0001
0000
1000
0000
,  // measure 49
1001
0000
0000
0000
0001
0100
0010
1000
0100
0010
0001
1000
0001
0100
0010
1000
,  // measure 50
0100
0000
1000
0100
1000
0100
1000
0000
0010
0000
0100
0000
0001
0000
1000
0000
,  // measure 51
1100
0000
0100
0010
0001
0000
0100
0000
0010
1000
0001
0000
1000
0000
1001
0000
,  // measure 52
0001
1000
0010
0000
0100
0000
0001
0000
0010
0000
0100
0000
1000
0000
0001
0000
,  // measure 53
1001
0000
0000
0000
1000
0010
0100
0001
0010
0100
1000
0001
1000
0010
0100
0001
,  // measure 54
0010
0000
0001
0010
0001
0010
0001
0000
0100
0000
0010
0000
1000
0000
0001
0000
,  // measure 55
0011
0000
0010
0100
1000
0000
0010
0000
0100
0001
1000
0000
0001
0000
1001
0000
,  // measure 56
0000
0000
1000
0100
1000
0000
0001
0100
0010
1000
0001
0000
1000
0000
0001
0010
,  // measure 57
0100
1000
0001
0000
1000
0010
0100
0001
0100
0010
1000
0001
0010
0100
1000
0000
,  // measure 58
0000
0000
0001
0010
0001
0000
1000
0010
0100
0001
1000
0000
0001
0000
1000
0100
,  // measure 59
0010
0001
1000
0000
0010
0000
0100
0000
0001
0000
1000
0010
0100
0000
0001
0000
,  // measure 60
0000
0000
1000
0000
0001
0100
0010
1000
0100
0010
0001
0000
1000
0000
0010
0000
,  // measure 61
1010
0000
1000
0000
0001
0010
0001
1000
0100
0010
0001
0100
0010
1000
0010
0100
,  // measure 62
0001
0000
1000
0100
1000
0100
0010
0000
0002
0000
0003
0000
1000
0000
0010
0000
,  // measure 63
1010
0000
1000
0000
0001
0000
0010
0000
0001
0000
1000
0010
0100
0001
0100
0010
,  // measure 64
1000
0100
0010
0000
0001
0010
0001
0000
0011
0000
0000
0000
0010
0000
0001
0000
,  // measure 65
0100
0000
0110
0000
0010
0100
0010
0000
1001
0000
0000
0000
1000
0000
0100
0000
,  // measure 66
0010
0000
0002
0000
0103
0000
0001
0100
0010
0000
2000
0000
3100
0000
1000
0100
,  // measure 67
0010
0000
0002
0000
1003
0000
0010
1000
0001
0000
0010
0000
0011
0000
1100
0000
,  // measure 68
0100
0000
1001
0000
1000
0001
0100
0000
0101
0000
0000
0000
0001
0000
0100
0000
,  // measure 69
0010
0000
1010
0000
1000
0001
0010
0000
0011
0000
0000
0000
0001
0000
0010
0000
,  // measure 70
0100
0000
1000
0100
1000
0010
1000
0000
0000
0000
0001
0100
0001
0010
0001
0000
,  // measure 71
0000
0000
1000
0010
1000
0001
1000
0000
0001
0000
0100
0010
1000
0001
1000
0000
,  // measure 72
0000
0000
1010
0000
0010
1000
0001
0000
0011
0000
0010
0001
0100
0000
0010
1000
,  // measure 73
0100
0000
1100
0000
0100
0010
0001
0000
0101
0000
0100
0001
1000
0000
1001
0000
,  // measure 74
0000
0000
0001
1000
0010
0100
0001
0000
1000
0000
0010
1000
0100
0010
0001
0000
,  // measure 75
1000
0000
0010
1000
0001
0100
0010
0000
1000
0000
0100
0010
0001
1000
0010
0000
,  // measure 76
0100
0000
0001
0100
0010
0000
1000
0100
0010
0000
0001
1000
0010
0000
1000
0001
,  // measure 77
0010
0000
0001
0010
0100
0000
1000
0010
0100
0000
0001
1000
0100
0000
0010
0001
,  // measure 78
0100
0010
1000
0000
0000
0000
0001
0000
0000
0000
0100
0000
0100
0000
0000
0000
,  // measure 79
0001
0000
1000
0100
0010
1001
0000
0000
,  // measure 80
0000
0000
0001
1000
0010
0000
1000
0000
0100
0010
0001
0010
0100
0000
1000
0000
,  // measure 81
0010
1000
0100
0000
0010
0000
0022
0000
0033
0000
2200
0000
3300
0000
0001
0000
,  // measure 82
1000
0000
0010
0000
1000
0100
0010
0001
0100
0010
1000
0000
0001
0000
0100
0000
,  // measure 83
0010
1000
0100
0000
0010
0000
0001
0000
1000
0000
0010
1000
0010
0000
1000
0100
,  // measure 84
1000
0000
0001
0000
0101
0000
0100
0010
1000
0000
0100
0000
1100
0000
0100
0010
,  // measure 85
0001
0000
1000
0000
0010
1000
0001
0000
0010
0001
0200
0000
0000
0000
0301
0000
,  // measure 86
1000
0000
0010
0000
1000
0100
0010
0000
0001
0100
0010
0000
1000
0000
0001
0000
,  // measure 87
2000
0000
3010
0000
0100
0000
0001
0010
0001
0000
1000
0010
0100
0001
0010
0100
,  // measure 88
1000
0010
1000
0001
0100
0000
0001
0000
0010
0100
1000
0100
0010
0000
0001
0000
,  // measure 89
0100
0001
0010
0000
0100
0000
2200
0000
3300
0000
0022
0000
0033
0000
1000
0000
,  // measure 90
0001
0000
0100
0000
0001
0010
0100
1000
0010
0100
0001
0000
1000
0000
0010
0000
,  // measure 91
0100
0001
0010
0000
0100
0000
1000
0000
0001
0000
0100
0001
0100
0000
0001
0010
,  // measure 92
0001
0000
1000
0000
1010
0000
0010
0100
0001
0000
0010
0000
0011
0000
0010
0100
,  // measure 93
1000
0000
0001
0000
0100
0001
1000
0000
0100
1000
0020
0000
0000
0000
1030
0000
,  // measure 94
0001
0000
0100
0000
0001
0010
0100
0000
1000
0010
0100
0000
0001
0000
1000
0000
,  // measure 95
0002
0000
0103
0000
0010
0000
1000
0100
1000
0000
0001
0000
0100
0010
0100
0010
,  // measure 96
0100
0010
1000
0000
1010
0000
0000
0000
0000
0000
0001
0000
0011
0000
0000
0000
,  // measure 97
0000
1000
1100
0000
0000
0001
0101
0000
,  // measure 98
0000
0000
1001
0000
1000
0100
0010
0001
0100
0010
1000
0000
0001
0000
0100
0000
,  // measure 99
0020
0000
0130
0000
0001
0010
0100
1000
0001
0000
1000
0000
0010
0000
1000
0100
,  // measure 100
0010
0000
0001
0010
0002
0000
0103
0000
0010
0000
1000
0010
2000
0000
3100
0000
,  // measure 101
1000
0001
0100
0000
0010
1000
0001
0000
1000
0000
0001
0100
0001
0100
0010
0000
,  // measure 102
1000
0000
0001
0000
1000
0100
0010
0000
0001
1000
0010
0000
0100
0000
0001
0000
,  // measure 103
2000
0000
3100
0000
1000
0000
0010
0000
1000
0000
0001
0000
0010
0001
0100
0010
,  // measure 104
1000
0001
0100
0000
0110
0000
0010
1000
0100
0000
1000
0000
1100
0000
0100
0010
,  // measure 105
0001
0000
1000
0010
0100
0001
1000
0000
0001
0100
0010
0000
1000
0100
0010
0000
,  // measure 106
0001
0000
1000
0010
0100
0001
0010
0100
1000
0010
0100
0001
0010
0100
0010
0001
,  // measure 107
0100
0010
1000
0100
0010
0001
1000
0010
0100
0001
1000
0000
1000
0000
0010
0000
,  // measure 108
1000
0000
0001
0010
0001
0010
0100
0000
1000
0000
0010
1000
0010
1000
0100
0000
,  // measure 109
0010
0001
0100
0000
0010
1000
0100
0000
1000
0000
0001
1000
0001
0000
1000
0000
,  // measure 110
0010
0000
1000
0100
0010
0001
0100
0010
1000
0001
0010
0100
0010
0001
1000
0010
,  // measure 111
0100
0001
1000
0100
0010
0001
1000
0010
0100
0001
1000
0100
0010
0001
1000
0010
,  // measure 112
0100
0001
1000
0000
0000
0000
0001
0000
1000
0000
0010
0000
0000
0000
0000
0000
,  // measure 113
1000
0100
0100
1000
0010
0010
0100
0000
,  // measure 114
0001
0100
0100
0010
1000
1000
0001
0000
,  // measure 115
1000
0100
0100
0010
0001
0001
1000
0000
,  // measure 116
0001
0100
1000
0000
0000
0000
0000
0000
;

//---------------dance-double - ----------------
#NOTEDATA:;
#CHARTNAME:;
#STEPSTYPE:dance-double;
#DESCRIPTION:;
#CHARTSTYLE:;
#DIFFICULTY:Challenge;
#METER:14;
#RADARVALUES:1.149950,1.376135,0.552427,0.150662,0.846576,1122.000000,1045.000000,77.000000,21.000000,0.000000,0.000000,0.000000,0.000000,0.000000,1.149950,1.376135,0.552427,0.150662,0.846576,1122.000000,1045.000000,77.000000,21.000000,0.000000,0.000000,0.000000,0.000000,0.000000;
#CREDIT:Ben Speirs;
#NOTES:
// measure 0
00000000
00000000
00000000
00000000
,  // measure 1
00000000
00000000
00000000
00000000
,  // measure 2
00000000
00000000
00000000
00000000
,  // measure 3
00000000
00000000
00000000
00000000
,  // measure 4
20100000
00000000
00010000
00010000
00000000
01000000
31000000
00000000
,  // measure 5
00120000
00000000
01000000
01000000
00000000
10000000
10030000
00000000
,  // measure 6
00012000
00000000
00100000
00100000
00000000
00010000
00013000
00000000
,  // measure 7
00021000
00000000
00000000
00000000
00000100
00000000
00000100
00000000
00000000
00000000
00000010
00000000
00000010
00030000
00000000
00000000
,  // measure 8
00001000
00000010
00001000
00000000
00000001
00000000
00000010
00000100
00000010
00000000
00000001
00000000
00001000
00000000
00000010
00000000
,  // measure 9
00001000
00000100
00001000
00000000
00000001
00000000
00000100
00000010
00000100
00000000
00000001
00000000
00000010
00000000
00000100
00000000
,  // measure 10
00001000
00000100
00001000
00000000
00000100
00000000
00010000
00001000
00010000
00000000
00001000
00000000
00100000
00000000
00010000
00000000
,  // measure 11
01000000
00100000
01000000
00000000
00010000
00000000
10000000
01000000
10000000
00000000
00100000
00000000
01000000
00000000
00010000
00000000
,  // measure 12
10000000
01000000
00100000
00000000
00010000
00000000
10000000
00100000
01000000
00000000
00010000
00000000
00100000
00010000
00100000
00000000
,  // measure 13
00010000
01000000
00100000
00000000
10000000
00000000
01000000
00100000
00010000
00000000
10000000
00000000
00100000
01000000
00100000
00000000
,  // measure 14
10000000
01000000
00100000
00000000
00010000
00000000
01000000
00001000
00010000
00000000
00000100
00000000
00010000
00000100
00010000
00000000
,  // measure 15
00000010
00001000
00000001
00000000
00001000
00000000
00000001
00000100
00000010
00000000
00001000
00000000
00001001
00000000
00000000
00000000
,  // measure 16
00000000
00000000
00000001
00000100
00000010
00000100
00000001
00000000
00001000
00000000
00000100
00000000
00000100
00000000
00010000
00000000
,  // measure 17
00001000
00000000
00100000
00001000
00010000
00001000
00100000
00000000
00010000
00000000
10000000
00000000
10000000
00000000
00100000
00000000
,  // measure 18
01000000
00000000
00010000
01000000
00100000
01000000
00010000
00000000
10000000
00000000
01000000
00000000
01000000
00000000
00100000
00000000
,  // measure 19
00001000
00000000
00010000
00000010
00001000
00000010
00010000
00000000
00000100
00000000
00001000
00000000
00001000
00000000
00000010
00000000
,  // measure 20
00000100
00000000
00000001
00000010
00000100
00001000
00000001
00000000
00001000
00000000
00000100
00000000
00000100
00000000
00010000
00000000
,  // measure 21
00000100
00000000
00010000
00001000
00100000
00010000
01000000
00000000
00100000
00000000
10000000
00000000
10000000
00000000
00010000
00000000
,  // measure 22
00100000
00000000
00010000
10000000
01000000
00100000
00010000
00000000
01000000
00000000
00100000
00000000
00100000
00000000
10000000
00000000
,  // measure 23
01000000
00000000
00100000
00001000
00010000
00000100
00001000
00000000
00000010
00000000
00000100
00000000
00000001
00000100
00000001
00000100
,  // measure 24
00000001
00000100
00000001
00000000
00000100
00000000
00000110
00000000
00000010
00000000
00001000
00000000
00000100
00000000
00001100
00000000
,  // measure 25
00001000
00000100
00000010
00000000
00000001
00000000
00000100
00000000
00000010
00000000
00001000
00000000
00000100
00000000
00010100
00000000
,  // measure 26
00010000
00000000
00001000
00000000
01000000
00000000
01010000
00000000
00010000
10000000
00100000
00000000
10000000
00000000
01000000
00000000
,  // measure 27
00100000
00010000
01000000
01010000
00010000
10000000
00100000
10100000
,  // measure 28
10000000
01000000
00100000
00000000
00010000
00000000
01000000
00000000
00001000
00000000
00010000
00000000
00000010
00000000
00001010
00000000
,  // measure 29
00001000
00000100
00000010
00000000
00000001
00000000
00000100
00000000
00000010
00000000
00001000
00000000
00000100
00000000
00010100
00000000
,  // measure 30
00001000
00022000
00000000
00033000
00000000
00022000
00000000
00033000
,  // measure 31
00000000
00000000
00010000
00000000
00001000
00000000
00001000
00000000
00010000
00001000
00010000
00000000
00001000
00010000
00001000
00010000
,  // measure 32
00001000
00010000
00000100
00000000
00001000
00000000
00001100
00000000
00000000
00000000
00000101
00000000
00000000
00000000
00000001
00000000
,  // measure 33
00001000
00000000
00000010
00000000
00000100
00000001
00000100
00000000
00000010
00000000
00000100
00000000
00000001
00000000
00001000
00000000
,  // measure 34
00000000
00000000
00000100
00001000
00000100
00000000
00010000
00000000
00001000
00010000
00001000
00000000
00100000
00000000
00001000
00000000
,  // measure 35
01000000
00000000
00010000
00000000
10000000
00000000
00100000
00000000
10000000
01000000
00100000
00000000
01000000
00000000
10010000
00000000
,  // measure 36
00000000
00010000
00100000
00110000
00000000
10100000
00000000
10000000
,  // measure 37
00010000
00000000
01000000
00000000
00100000
10000000
00100000
00000000
01000000
00000000
00100000
00000000
10000000
00000000
00010000
00000000
,  // measure 38
00000000
00000000
00100000
00010000
00100000
00000000
00001000
00000000
00010000
00001000
00010000
00000000
00000100
00000000
00010000
00000000
,  // measure 39
00000010
00000000
00001000
00000000
00000001
00000000
00000100
00000000
00000001
00000010
00000100
00000000
00000010
00000000
00001001
00000000
,  // measure 40
00000000
00000000
00000001
00000010
00000100
00000000
00000010
00000000
00000001
00000010
00000100
00000000
00000010
00000000
00000001
00000010
,  // measure 41
00000100
00000000
00000010
00000000
00000001
00000010
00000000
00000100
00001000
00000000
00000100
00000000
00010000
00000000
00001000
00000000
,  // measure 42
00000000
00000000
00100000
00010000
10000000
00000000
00010000
00000000
00100000
00010000
10000000
00000000
00010000
00000000
00100000
00010000
,  // measure 43
10000000
00000000
00010000
00000000
00100000
00010000
00000000
10000000
00010000
00000000
00100000
00000000
00010000
00000000
10000000
00000000
,  // measure 44
00000000
00000000
00100000
00000000
10000000
01000000
00100000
00010000
01000000
00000000
00100000
10000000
00000000
00010000
01000000
00000000
,  // measure 45
00100000
10000000
01000000
11000000
00000000
01010000
00000000
10000000
,  // measure 46
00100000
00000000
01000000
00000000
00010000
01000000
00010000
00000000
02000000
00000000
00000000
00000000
03100000
00000000
10000000
00000000
,  // measure 47
01000000
00000000
00100000
00000000
00010000
00000000
10000000
00000000
00100000
00000000
01000000
00000000
00010000
01000000
00010000
00100000
,  // measure 48
00001000
00010000
00000100
00000000
00001000
00000000
00001100
00000000
00000001
00000000
00001001
00000000
00001000
00000000
00000010
00000000
,  // measure 49
00001001
00000000
00000000
00000000
00000001
00000100
00000010
00001000
00000100
00010000
00001000
00010000
00000100
00100000
00010000
01000000
,  // measure 50
00100000
10000000
01000000
11000000
00000000
01010000
01000000
00100000
,  // measure 51
01100000
00000000
10000000
00000000
00010000
00000000
01000000
00100000
01000000
00000000
00010000
00100000
01000000
00000000
11000000
00000000
,  // measure 52
00000000
00010000
00100000
00110000
10000000
10010000
00010000
01000000
,  // measure 53
10010000
00000000
00000000
00000000
10000000
00100000
01000000
00010000
00100000
00001000
00010000
00001000
00100000
00000100
00001000
00000010
,  // measure 54
00000100
00000001
00000010
00000011
00000000
00001010
00000010
00000100
,  // measure 55
00000110
00000000
00000001
00000000
00001000
00000000
00000010
00000100
00000010
00000000
00001000
00000100
00000010
00000000
00000011
00000000
,  // measure 56
00000000
00000000
00000001
00000100
00000010
00000000
00001000
00000000
00000100
00010000
00001000
00000000
00100000
00000000
00010000
01000000
,  // measure 57
00100000
00000000
10000000
00000000
01000000
00100000
00010000
00000000
10000000
00000000
00100000
00000000
00100000
00000000
10100000
00000000
,  // measure 58
00000000
00000000
10000000
01000000
00100000
00000000
00010000
00000000
01000000
00010000
00100000
00000000
00001000
00000000
00010000
00000100
,  // measure 59
00000010
00000000
00000001
00000000
00000100
00000010
00001000
00000000
00000001
00000000
00000100
00000000
00000010
00000000
00000110
00000000
,  // measure 60
00000000
00000000
00001000
00000000
00000010
00001000
00000100
00010000
00001000
00100000
00010000
00000000
01000000
00000000
00100000
00000000
,  // measure 61
10000000
01000000
00100000
01100000
00000000
10010000
00000000
10000000
,  // measure 62
00100000
00000000
01000000
00000000
00010000
01000000
00100000
10000000
01000000
00000000
00100000
00000000
00010000
10000000
00100000
00000000
,  // measure 63
01000000
00000000
00010000
00000000
00100000
00000000
00001000
00010000
00001000
00010000
00000100
00001000
00000010
00000100
00000001
00000010
,  // measure 64
00000100
00001000
00000010
00000000
00000000
00000000
00001000
00000000
00001001
00000000
00000000
00000000
00000001
00000000
00000100
00000000
,  // measure 65
00000010
00001010
00000000
00000001
00000011
00000000
00000010
00000001
,  // measure 66
00000100
00000000
00000010
00000000
00001000
00000100
00001000
00000000
00000100
00010000
00001000
00000000
00010000
00001000
00010000
00000000
,  // measure 67
00001000
00100000
00010000
00000000
00100000
00010000
00100000
00000000
00010000
00000000
01000000
00000000
00100000
00000000
01100000
00000000
,  // measure 68
00000000
10100000
10000000
01000000
11000000
01000000
00100000
00010000
,  // measure 69
01000000
01010000
01000000
00001000
00011000
00010000
00000100
00001000
,  // measure 70
00000001
00000000
00000100
00000010
00000100
00000010
00000100
00000000
00000001
00000000
00001000
00000100
00001000
00000100
00001000
00000000
,  // measure 71
00000001
00000000
00000010
00000001
00000010
00000001
00000010
00000000
00000001
00000000
00000100
00000000
00000010
00000000
00001000
00000000
,  // measure 72
00000000
00000000
00000101
00000000
00000100
00000010
00001000
00000000
00001100
00000000
00000000
00000100
00000000
00000000
00010000
00000000
,  // measure 73
00001000
00000000
00011000
00000000
00001000
00100000
00010000
00000000
00110000
00000000
00000000
00010000
00000000
00000000
10000000
00000000
,  // measure 74
00100000
00000000
01000000
00010000
01000000
00100000
10000000
00000000
00010000
00000000
00100000
01000000
00100000
00010000
10000000
00000000
,  // measure 75
00100000
00000000
10000000
01000000
00100000
00010000
01000000
00000000
00100000
00000000
01000000
00000000
00010000
00000000
00100000
00000000
,  // measure 76
00001000
00000000
00010000
00001000
00010000
00000000
00000100
00001000
00000010
00000000
00000100
00000001
00000100
00000010
00001000
00000100
,  // measure 77
00000010
00000000
00000001
00000010
00000001
00000000
00001000
00000100
00001000
00000000
00000001
00000100
00000010
00001000
00000100
00010000
,  // measure 78
00001000
00100000
00010000
00000000
00000000
00000000
01000000
00000000
00000000
00000000
00100000
00000000
00100000
00000000
00000000
00000000
,  // measure 79
10010000
00000000
10000000
01000000
00100000
10010000
00000000
00000000
,  // measure 80
00000000
00000000
00010000
10000000
00100000
00000000
01000000
00000000
00010000
10000000
01000000
00100000
00010000
00000000
01000000
00000000
,  // measure 81
00100000
01000000
00010000
00000000
00100000
00000000
00202000
00000000
00303000
00000000
00020200
00000000
00030300
00000000
00000100
00000000
,  // measure 82
00001000
00000000
00000001
00000000
00000100
00000010
00001000
00000100
00000010
00000001
00000100
00000000
00000010
00000000
00001000
00000000
,  // measure 83
00000001
00000000
00000100
00000000
00000010
00000100
00000001
00000000
00001000
00000000
00000100
00001000
00000100
00010000
00001000
00000000
,  // measure 84
00100000
00000000
00010000
00100000
00010000
00000000
01000000
00000000
00100000
10000000
00100000
10000000
01000000
00000000
00100000
00000000
,  // measure 85
00010000
01000000
00100000
00000000
10000000
01000000
00100000
00000000
01000000
00000000
20020000
00000000
00000000
00000000
00000000
00000000
,  // measure 86
30030000
00000000
10000000
00000000
01000000
00100000
00010000
01000000
00100000
00010000
00001000
00000000
00010000
00000000
00000100
00000000
,  // measure 87
00000010
00000000
00000010
00000000
00000001
00000000
00001000
00000000
00000010
00000000
00000100
00000001
00000100
00000000
00000010
00000000
,  // measure 88
00001000
00000000
00000001
00000010
00000100
00001000
00000001
00000000
00000100
00000000
00000010
00001000
00000100
00010000
00001000
00000000
,  // measure 89
00010000
00000100
00001000
00000000
00000010
00000000
00001010
00000000
00000100
00000000
00000011
00000000
00001000
00000000
00001001
00000000
,  // measure 90
00000001
00000000
00000100
00000010
00000100
00000001
00001000
00000000
00000010
00000000
00001000
00000100
00010000
00001000
00100000
00000000
,  // measure 91
00001000
00000000
01000000
00010000
10000000
00000000
00100000
10000000
00010000
00000000
00100000
00010000
10000000
01000000
00100000
00000000
,  // measure 92
00010000
00000000
10000000
01000000
00100000
00000000
00010000
00000000
01000000
00100000
01000000
00100000
10000000
00000000
00010000
00000000
,  // measure 93
00100000
00010000
01000000
00000000
00001000
00000000
02002000
00000000
03003000
00000000
00020200
00000000
00000000
00000000
00000000
00000000
,  // measure 94
00030300
00000000
00000100
00000000
00001000
00000010
00000100
00000000
00000001
00000010
00000100
00000000
00000010
00000000
00000001
00000000
,  // measure 95
00001000
00000000
00001000
00000000
00000001
00000000
00000100
00000000
00000010
00000000
00001000
00000100
00010000
00001000
00100000
00001000
,  // measure 96
01000000
00100000
10000000
00000000
11000000
00000000
00000000
00000000
00000000
00000000
00010000
00000000
01010000
00000000
00000000
00000000
,  // measure 97
00000000
00010000
00011000
00000000
00000000
00000001
00001001
00000000
,  // measure 98
00000000
00000000
00000110
00000000
00000001
00000100
00000010
00001000
00000100
00000010
00000001
00000000
00000100
00000000
00000010
00000000
,  // measure 99
00001010
00000000
00001000
00000000
00000001
00000010
00000100
00000000
00000010
00000000
00000001
00001000
00000100
00000000
00010000
00000000
,  // measure 100
00001000
00000000
00100000
00010000
00100000
00001000
00100000
00000000
00001000
00000000
00010000
00000100
00010000
00001000
00010000
00000000
,  // measure 101
00000100
00001000
00000010
00000000
00000100
00000000
00000110
00000000
00000000
00000000
00002002
00000000
00000000
00000000
00000000
00000000
,  // measure 102
00003003
00000000
00000001
00000100
00000010
00001000
00000100
00010000
00001000
00100000
00010000
00000000
01000000
00000000
00100000
01000000
,  // measure 103
00100000
10000000
00010000
00000000
00100000
00000000
01000000
00100000
00010000
00000000
10000000
00000000
01000000
00100000
00010000
00100000
,  // measure 104
01000000
00000000
10000000
00000000
11000000
00000000
01000000
00100000
00010000
01000000
00100000
00000000
01100000
00000000
01000000
00100000
,  // measure 105
10000000
00010000
00100000
00000000
00010000
00100000
00001000
00000000
00010000
00000000
00011000
00000000
00000100
00000000
00001001
00000000
,  // measure 106
00001000
00000000
00000010
00001000
00000100
00000010
00000001
00000000
00000100
00000000
00000010
00000100
00000010
00000100
00000001
00000000
,  // measure 107
00001000
00000000
00000001
00000010
00000100
00001000
00000001
00000000
00000100
00000000
00000010
00001000
00000100
00010000
00001000
00000000
,  // measure 108
00100000
00000000
00010000
00000000
00110000
00000000
00100000
00010000
01000000
00100000
10000000
00000000
00100000
00000000
10100000
00000000
,  // measure 109
10000000
01000000
00100000
00000000
00010000
10000000
00100000
00000000
01000000
00000000
00010000
01000000
00010000
01000000
00001000
00000000
,  // measure 110
01000000
00000000
00001000
00010000
00001000
00010000
00000100
00001000
00000010
00000100
00000001
00000010
00000001
00000010
00000100
00000010
,  // measure 111
00000001
00000100
00000010
00001000
00000100
00010000
00001000
00100000
00010000
01000000
00100000
10000000
01000000
00100000
00010000
01000000
,  // measure 112
00100000
00010000
00001000
00000000
00000000
00000000
00010000
00000000
00001000
00000000
00100000
00000000
00000000
00000000
00000000
00000000
,  // measure 113
00010000
00100000
00001000
00010000
00000100
00001000
00001000
00000000
,  // measure 114
00000100
00001000
00000010
00000100
00000001
00001000
00001000
00000000
,  // measure 115
00000001
00000100
00001000
00010000
00100000
10000000
10000000
00000000
,  // measure 116
01000000
00010000
00001000
00000000
00000000
00000000
00000000
00000000
;

//---------------dance-single - ----------------
#NOTEDATA:;
#CHARTNAME:;
#STEPSTYPE:dance-single;
#DESCRIPTION:;
#CHARTSTYLE:;
#DIFFICULTY:Medium;
#METER:9;
#RADARVALUES:0.751259,1.000825,0.451986,0.000000,0.025110,733.000000,670.000000,63.000000,0.000000,0.000000,0.000000,0.000000,0.000000,0.000000,0.751259,1.000825,0.451986,0.000000,0.025110,733.000000,670.000000,63.000000,0.000000,0.000000,0.000000,0.000000,0.000000,0.000000;
#CREDIT:Ben Speirs;
#NOTES:
// measure 0
0000
0000
0000
0000
,  // measure 1
0000
0000
0000
0000
,  // measure 2
0000
0000
0000
0000
,  // measure 3
0000
0000
0000
0000
,  // measure 4
1000
0000
0000
1010
0000
0000
1000
0000
,  // measure 5
0001
0000
0000
0011
0000
0000
0010
0000
,  // measure 6
0001
0000
0000
0101
0000
0000
0100
0000
,  // measure 7
0001
0000
0000
1001
0000
0000
1000
0000
,  // measure 8
0001
0100
0010
0100
0001
1000
0010
0000
,  // measure 9
1000
0100
0010
0100
1000
0010
0100
0000
,  // measure 10
0001
1000
0010
1000
0100
0010
0001
0000
,  // measure 11
0010
0001
0100
0010
0100
0001
1000
0000
,  // measure 12
0001
0010
0100
1000
0001
0100
0010
0000
,  // measure 13
1000
0100
0010
0001
0100
0010
1000
0000
,  // measure 14
0001
1000
0010
0100
0001
1000
0010
0000
,  // measure 15
1000
0100
0010
0001
1000
0010
0100
0000
,  // measure 16
0000
1001
0000
0001
0000
1000
0100
0010
,  // measure 17
0000
0001
0000
0101
0000
0100
0001
1000
,  // measure 18
0000
0010
0000
1010
0000
1000
0100
0010
,  // measure 19
0000
0001
0000
0011
0000
0010
0001
0100
,  // measure 20
0000
0001
1000
0010
0000
1000
0100
0010
,  // measure 21
0000
0001
1000
0010
0000
0100
0001
1000
,  // measure 22
0000
0010
1000
0100
0000
0010
0001
0100
,  // measure 23
0000
0001
1000
0010
0100
0001
1000
0100
,  // measure 24
0010
0001
0000
0011
0000
1000
0000
0001
,  // measure 25
1000
0010
0000
1010
0000
1000
0001
0100
,  // measure 26
0000
0010
0000
0110
0000
0100
0001
1000
,  // measure 27
0000
0010
0000
1010
0000
1000
0100
0010
,  // measure 28
0000
0001
0000
0011
0000
1000
0000
0001
,  // measure 29
1000
0010
0000
1010
0000
1000
0000
0001
,  // measure 30
1000
0010
0000
0000
0000
0100
0000
0000
,  // measure 31
0000
0110
0000
1001
0000
0110
0000
1001
,  // measure 32
0000
1000
0100
0010
0001
0100
0010
1000
,  // measure 33
0001
0000
0100
0010
0100
0001
1000
0010
,  // measure 34
0000
1000
0100
0100
1000
0010
0100
0001
,  // measure 35
1000
0010
0100
0001
0000
1001
0000
0000
,  // measure 36
0000
0001
1000
0010
0000
1000
0100
0010
,  // measure 37
0001
0000
0010
0001
0100
0010
0010
0100
,  // measure 38
0000
0001
0100
0010
1000
0100
0010
0001
,  // measure 39
1000
0010
0100
0001
1000
0001
0001
0100
,  // measure 40
0000
1001
0000
1000
0100
0000
0001
0100
,  // measure 41
0000
1000
0100
0000
0001
0100
0000
1001
,  // measure 42
0000
1001
0000
1000
0010
0000
0001
0010
,  // measure 43
0000
1000
0010
0000
0001
0010
0000
1001
,  // measure 44
0000
1000
0100
0010
0001
0100
0010
1000
,  // measure 45
0001
1000
0010
1010
0000
0011
0000
1000
,  // measure 46
0100
0010
0001
0100
0010
0010
0100
0001
,  // measure 47
0010
0100
1000
0001
1000
0001
0000
0000
,  // measure 48
0000
1000
0100
1100
0000
0101
0000
1000
,  // measure 49
0001
0000
1000
0100
0001
1000
0010
0001
,  // measure 50
1000
0010
0100
0100
0010
1000
0100
0010
,  // measure 51
0001
1000
0010
1000
0001
0100
0100
1001
,  // measure 52
0000
0010
0000
1010
0000
0101
0000
1000
,  // measure 53
0100
0000
0001
0010
1000
0001
0100
1000
,  // measure 54
0001
0100
0010
0010
0100
0001
1000
0100
,  // measure 55
0010
0001
1000
0010
0100
0010
0010
0110
,  // measure 56
0000
1001
0000
1000
0100
0000
0001
0100
,  // measure 57
0000
1000
0100
0000
0001
0100
0000
1001
,  // measure 58
0000
1001
0000
1000
0010
0000
0001
0010
,  // measure 59
0000
1000
0010
0000
0001
0010
0000
1001
,  // measure 60
0000
0001
0010
0100
1000
0001
0100
0010
,  // measure 61
0100
0001
1000
0010
0000
1000
0000
0001
,  // measure 62
1000
0100
0010
0001
1000
1000
0001
1000
,  // measure 63
0010
0100
0001
1000
0010
0100
0001
1000
,  // measure 64
0000
1100
0000
0000
0101
0000
0010
0001
,  // measure 65
0100
0010
0000
0000
0110
0000
0100
0001
,  // measure 66
1000
0010
0000
1010
0000
1000
0000
1100
,  // measure 67
0000
0001
0000
0101
0000
1000
0100
0010
,  // measure 68
0000
1100
0000
0000
0101
0000
0000
0010
,  // measure 69
0000
0011
0000
0000
1010
0000
0000
0001
,  // measure 70
0000
1000
0100
0010
0000
0001
1000
0010
,  // measure 71
0000
0100
0001
1000
0000
0010
1000
0001
,  // measure 72
0000
1001
0000
0000
0110
0000
0000
1001
,  // measure 73
0000
1001
0000
0000
0110
0000
0000
1001
,  // measure 74
0000
0001
0010
0100
0000
1000
0010
0100
,  // measure 75
0000
0001
1000
0010
0000
0100
0001
1000
,  // measure 76
0000
0001
0100
0010
0100
0001
0100
0010
,  // measure 77
0100
0001
1000
0100
0010
0001
0010
0100
,  // measure 78
1000
0001
0000
1000
0000
0010
0010
0000
,  // measure 79
1000
0000
0001
0010
0100
1001
0000
0000
,  // measure 80
0000
1000
0100
0000
0010
0001
1000
0000
,  // measure 81
0010
1000
0001
0101
0000
1100
0000
0001
,  // measure 82
1000
0100
0010
0001
0100
0010
0100
0001
,  // measure 83
0010
0100
1000
0001
0100
0010
1000
0001
,  // measure 84
0000
1000
0010
0000
0010
0100
0001
0000
,  // measure 85
0001
1000
0100
1100
0000
0101
0000
1000
,  // measure 86
0000
0001
1000
0010
0100
0001
1000
0100
,  // measure 87
0010
0001
1000
0010
0100
0001
1000
0001
,  // measure 88
0000
1000
0001
0000
0010
0001
1000
0000
,  // measure 89
0010
1000
0000
1100
0000
0101
0000
0010
,  // measure 90
0000
0001
1000
0010
0100
0001
1000
0100
,  // measure 91
0010
0001
0010
0100
0010
0001
1000
0010
,  // measure 92
0000
1000
0100
0000
0010
0001
0100
0000
,  // measure 93
0010
1000
0000
1010
0000
0011
0000
0000
,  // measure 94
0000
1000
0100
0010
0001
0100
0010
0100
,  // measure 95
0001
1000
0100
0010
0001
0100
0100
0010
,  // measure 96
0000
1000
1000
0000
0000
0001
0001
0000
,  // measure 97
0000
0100
0100
0000
0000
0010
0010
0000
,  // measure 98
0000
1001
0000
0100
1000
0010
0100
0001
,  // measure 99
0000
0100
0010
1000
0000
0001
1000
0010
,  // measure 100
0000
1000
0100
0000
0100
0010
0001
0000
,  // measure 101
1000
0010
0000
1010
0000
0011
0000
0000
,  // measure 102
0000
1000
0100
0010
0001
0100
0010
0100
,  // measure 103
0001
1000
0000
0010
1000
0001
0000
0010
,  // measure 104
0000
0001
0100
0010
0100
0001
1000
0100
,  // measure 105
0010
0001
0100
0010
1000
0100
1000
0010
,  // measure 106
0100
0001
0010
0100
0010
0001
1000
0010
,  // measure 107
0100
0001
1000
0100
0010
0001
1000
0010
,  // measure 108
0100
0001
1000
0100
0010
0001
0100
0010
,  // measure 109
0100
0001
0010
1000
0010
0001
0100
0010
,  // measure 110
1000
0100
0100
0010
0001
1000
0010
1000
,  // measure 111
0100
0000
0010
0000
0001
1000
0001
1000
0001
1000
0001
1000
0001
1000
0001
1000
,  // measure 112
0001
1000
0010
0000
0000
0000
1000
0000
0100
0000
0010
0000
0000
0000
0000
0000
,  // measure 113
0000
0001
0000
0100
0010
1000
0000
0000
,  // measure 114
0000
0001
0000
0010
0001
0100
0000
0000
,  // measure 115
0000
0001
0100
0010
1000
0001
0000
0000
,  // measure 116
0001
0100
1000
0000
0000
0000
0000
0000
;

//---------------dance-single - ----------------
#NOTEDATA:;
#CHARTNAME:;
#STEPSTYPE:dance-single;
#DESCRIPTION:;
#CHARTSTYLE:;
#DIFFICULTY:Easy;
#METER:5;
#RADARVALUES:0.352569,0.417010,0.107616,0.028697,0.000000,344.000000,329.000000,15.000000,4.000000,0.000000,0.000000,0.000000,0.000000,0.000000,0.352569,0.417010,0.107616,0.028697,0.000000,344.000000,329.000000,15.000000,4.000000,0.000000,0.000000,0.000000,0.000000,0.000000;
#CREDIT:Ben Speirs;
#NOTES:
// measure 0
0000
0000
0000
0000
,  // measure 1
0000
0000
0000
0000
,  // measure 2
0000
0000
0000
0000
,  // measure 3
0000
0000
0000
0000
,  // measure 4
0001
0000
0000
0001
0000
0000
0001
0000
,  // measure 5
1000
0000
0000
1000
0000
0000
1000
0000
,  // measure 6
0010
0000
0000
0010
0000
0000
0010
0000
,  // measure 7
0100
0000
0000
0100
0000
0000
0100
0000
,  // measure 8
0001
1000
0010
0000
,  // measure 9
1000
0100
0010
0000
,  // measure 10
0001
1000
0010
0000
,  // measure 11
1000
0001
0100
0000
,  // measure 12
0001
1000
0100
0000
,  // measure 13
0010
0001
1000
0000
,  // measure 14
0010
1000
0100
0000
,  // measure 15
1000
0001
0100
0000
,  // measure 16
0000
1001
0000
0000
0000
1000
0000
0000
,  // measure 17
0000
0010
0000
0000
0000
1000
0000
0000
,  // measure 18
0000
0001
0000
0000
0000
0010
0000
0000
,  // measure 19
0000
0001
0000
0000
0000
0100
0000
0000
,  // measure 20
0000
0010
0000
1000
0000
0100
0000
0000
,  // measure 21
0000
0010
0000
0001
0000
0100
0000
0000
,  // measure 22
0000
0001
0000
1000
0000
0010
0000
0000
,  // measure 23
0000
1000
0000
0001
0000
0010
0000
0000
,  // measure 24
0000
0001
0000
0100
0000
0001
0000
0100
,  // measure 25
0000
0010
0000
0100
0000
0001
0000
0000
,  // measure 26
0000
1000
0000
0100
0000
1000
0000
0100
,  // measure 27
0000
0010
0000
0100
0000
1000
0000
0000
,  // measure 28
0000
0001
0000
1000
0000
0001
0000
1000
,  // measure 29
0000
0010
0000
1000
0000
0001
0000
0000
,  // measure 30
0000
1001
0000
0000
0000
1001
0000
0000
,  // measure 31
0000
1000
0000
1000
0000
0001
0000
0001
,  // measure 32
0000
0100
0000
0100
0000
0010
0000
0000
,  // measure 33
0000
0100
0000
0010
0000
0100
0000
0000
,  // measure 34
0000
0010
0000
1000
0000
0001
0000
0000
,  // measure 35
0000
0010
0000
0001
0000
1000
0000
0000
,  // measure 36
0000
0100
0000
0100
0000
0010
0000
0000
,  // measure 37
0000
0010
0000
0010
0000
0100
0000
0000
,  // measure 38
0000
1000
0000
0100
0000
0010
0000
0000
,  // measure 39
0000
0001
0000
1000
0000
0010
0000
0000
,  // measure 40
0000
1000
0000
0000
0000
1000
0000
0000
,  // measure 41
0000
0001
0000
0000
0000
0001
0000
0100
,  // measure 42
0000
0010
0000
0000
0000
0010
0000
0000
,  // measure 43
0000
0100
0000
0000
0000
0100
0000
0000
,  // measure 44
0000
0001
0000
1000
0000
0001
0000
0000
,  // measure 45
0000
1000
0000
0100
0000
0010
0000
0000
,  // measure 46
0000
0100
0000
1000
0000
0010
0000
0000
,  // measure 47
0000
1000
0000
0001
0000
0100
0000
0000
,  // measure 48
0000
0001
0000
0001
0000
1000
0000
0000
,  // measure 49
0000
0000
0000
1000
0000
0100
0000
0010
,  // measure 50
0000
0001
0000
1000
0000
0001
0000
0000
,  // measure 51
0000
1000
0000
0010
0000
1000
0000
0000
,  // measure 52
0000
0010
0000
0010
0000
0100
0000
0000
,  // measure 53
0000
0000
0000
0010
0000
1000
0000
0100
,  // measure 54
0000
0010
0000
0010
0000
0001
0000
0000
,  // measure 55
0000
1000
0000
0100
0000
1000
0000
0000
,  // measure 56
0000
0001
0000
0000
1000
0000
0000
0010
,  // measure 57
0000
0000
0100
0000
0000
0001
0000
0001
,  // measure 58
0000
1000
0000
0000
0100
0000
0000
1000
,  // measure 59
0000
0000
0001
0000
0000
0010
0000
0010
,  // measure 60
0000
0001
0000
1000
0000
0001
0000
0000
,  // measure 61
0000
1000
0000
0100
0000
1000
0000
0000
,  // measure 62
0000
0001
0000
1000
0000
0010
0000
0100
,  // measure 63
0000
0001
0000
1000
0000
0001
0000
0000
,  // measure 64
0000
1100
0000
0000
0000
0000
0000
0000
,  // measure 65
0000
0101
0000
0000
0000
0000
0000
0000
,  // measure 66
0000
0001
0000
1000
0000
0010
0000
0100
,  // measure 67
0000
0001
0000
1000
0000
0001
0000
0000
,  // measure 68
0000
1000
0000
0000
1100
0000
0000
0000
,  // measure 69
0000
0001
0000
0000
0101
0000
0000
0000
,  // measure 70
0000
0100
0000
0010
0000
0100
0000
0001
,  // measure 71
0000
1000
0000
0001
0000
1000
0000
0000
,  // measure 72
0000
1100
0000
0000
1100
0000
0000
0000
,  // measure 73
0000
0101
0000
0000
0101
0000
0000
0000
,  // measure 74
0000
1000
0000
0001
0000
0100
0000
0000
,  // measure 75
0000
0010
0000
1000
0000
0001
0000
0000
,  // measure 76
0000
1000
0000
0100
0000
0010
0000
0000
,  // measure 77
0000
0001
0000
1000
0000
0010
0000
0000
,  // measure 78
0000
2002
0000
0000
0000
0000
0000
0000
,  // measure 79
0000
0000
0000
3003
,  // measure 80
0000
1000
0000
0000
0000
0001
0000
0000
,  // measure 81
0000
0100
0000
0001
0000
1000
0000
0000
,  // measure 82
0000
0010
0000
1000
0000
0100
0000
0010
,  // measure 83
0000
0001
0000
1000
0000
0001
0000
0000
,  // measure 84
0000
0100
0000
0000
0000
0001
0000
0000
,  // measure 85
0000
1000
0000
0010
0000
0100
0000
0000
,  // measure 86
0000
0001
0000
1000
0000
0100
0000
0010
,  // measure 87
0000
0001
0000
1000
0000
0010
0000
0000
,  // measure 88
0000
1000
0000
0100
0000
1000
0000
0001
,  // measure 89
0000
1000
0000
0010
0000
1000
0000
0000
,  // measure 90
0000
0001
0000
1000
0000
0001
0000
0100
,  // measure 91
0000
0001
0000
0010
0000
0001
0000
0000
,  // measure 92
0000
0100
0000
0010
0000
0100
0000
0001
,  // measure 93
0000
1000
0000
0100
0000
1000
0000
0000
,  // measure 94
0000
0001
0000
0010
0000
0100
0000
0010
,  // measure 95
0000
0001
0000
1000
0000
0010
0000
0000
,  // measure 96
0000
2002
0000
0000
0000
0000
0000
0000
,  // measure 97
0000
0000
0000
0000
0000
0000
0000
3003
,  // measure 98
0000
1001
0000
0000
0000
0000
0000
0000
,  // measure 99
0000
1000
0000
0001
0000
0100
0000
0000
,  // measure 100
0000
0010
0000
0010
0000
0100
0000
0100
,  // measure 101
0000
0010
0000
1000
0000
0001
0000
0000
,  // measure 102
0000
1000
0000
0100
0000
0010
0000
0000
,  // measure 103
0000
0001
0000
1000
0000
0010
0000
0000
,  // measure 104
0000
1000
0000
0100
0000
1000
0000
0100
,  // measure 105
0000
1000
0000
0100
0000
1000
0000
1000
,  // measure 106
0000
0001
0000
0100
0000
0001
0000
0100
,  // measure 107
0000
0001
0000
0100
0000
0001
0000
0001
,  // measure 108
0000
0100
0000
0010
0000
0100
0000
0010
,  // measure 109
0000
0100
0000
0010
0000
0100
0000
0100
,  // measure 110
0000
0010
0000
1000
0000
0100
0000
0010
,  // measure 111
0000
0001
0000
0100
0000
0010
0000
1000
,  // measure 112
0000
1001
0000
0000
0000
0000
0000
0000
,  // measure 113
0000
1000
0000
0100
0000
1000
0000
0000
,  // measure 114
0000
0001
0000
0010
0000
0001
0000
0000
,  // measure 115
0000
1000
0000
0001
0000
1000
0000
0000
,  // measure 116
0001
0100
1000
0000
0000
0000
0000
0000
;

//---------------dance-single - ----------------
#NOTEDATA:;
#CHARTNAME:;
#STEPSTYPE:dance-single;
#DESCRIPTION:;
#CHARTSTYLE:;
#DIFFICULTY:Beginner;
#METER:3;
#RADARVALUES:0.165011,0.333608,0.078918,0.000000,0.000000,161.000000,150.000000,11.000000,0.000000,0.000000,0.000000,0.000000,0.000000,0.000000,0.165011,0.333608,0.078918,0.000000,0.000000,161.000000,150.000000,11.000000,0.000000,0.000000,0.000000,0.000000,0.000000,0.000000;
#CREDIT:Ben Speirs;
#NOTES:
// measure 0
0000
0000
0000
0000
,  // measure 1
0000
0000
0000
0000
,  // measure 2
0000
0000
0000
0000
,  // measure 3
0000
0000
0000
0000
,  // measure 4
1000
0000
0000
0000
,  // measure 5
0001
0000
0000
0000
,  // measure 6
0100
0000
0000
0000
,  // measure 7
0100
0000
0000
0000
,  // measure 8
0001
0000
0000
0000
,  // measure 9
1000
0000
0000
0000
,  // measure 10
0010
0000
0000
0000
,  // measure 11
0010
0000
0000
0000
,  // measure 12
1000
0000
0000
0000
,  // measure 13
0001
0000
0000
0000
,  // measure 14
0100
0000
0000
0000
,  // measure 15
0100
0000
0000
0000
,  // measure 16
0000
0000
0000
0000
,  // measure 17
0000
0001
0000
0000
0000
0000
0000
0000
,  // measure 18
0000
1000
0000
0000
0000
0000
0000
0000
,  // measure 19
0000
0010
0000
0000
0000
0000
0000
0000
,  // measure 20
0000
0100
0000
0000
0000
0000
0000
0000
,  // measure 21
0000
0100
0000
0000
0000
0000
0000
0000
,  // measure 22
0000
0001
0000
0000
0000
0000
0000
0000
,  // measure 23
0000
0001
0000
0000
0000
0000
0000
0000
,  // measure 24
0000
1000
0000
0000
0000
1000
0000
0000
,  // measure 25
0000
1000
0000
0000
0000
0000
0000
0000
,  // measure 26
0000
0100
0000
0000
0000
0100
0000
0000
,  // measure 27
0000
0100
0000
0000
0000
0000
0000
0000
,  // measure 28
0000
0010
0000
0000
0000
0010
0000
0000
,  // measure 29
0000
0010
0000
0000
0000
0000
0000
0000
,  // measure 30
0000
0001
0000
0000
0000
0001
0000
0000
,  // measure 31
0000
0100
0000
0100
0000
0100
0000
0100
,  // measure 32
0000
0000
0000
0000
,  // measure 33
0000
0010
0000
0000
0000
0000
0000
0000
,  // measure 34
0000
1000
0000
0000
0000
1000
0000
0000
,  // measure 35
0000
1000
0000
0000
0000
0000
0000
0000
,  // measure 36
0000
0100
0000
0000
0000
0000
0000
0000
,  // measure 37
0000
0010
0000
0000
0000
0000
0000
0000
,  // measure 38
0000
0001
0000
0000
0000
0001
0000
0000
,  // measure 39
0000
0001
0000
0000
0000
0000
0000
0000
,  // measure 40
0000
0100
0000
0000
0000
0100
0000
0000
,  // measure 41
0000
0100
0000
0000
0000
0000
0000
0000
,  // measure 42
0000
0100
0000
0000
0000
0100
0000
0000
,  // measure 43
0000
0100
0000
0000
0000
0000
0000
0000
,  // measure 44
0000
0001
0000
0000
0000
0000
0000
0000
,  // measure 45
0000
1000
0000
0000
0000
0000
0000
0000
,  // measure 46
0000
0010
0000
0000
0000
0010
0000
0000
,  // measure 47
0000
0010
0000
0000
0000
0000
0000
0000
,  // measure 48
0000
1000
0000
0000
0000
0000
0000
0000
,  // measure 49
0000
0100
0000
0000
0000
0000
0000
0000
,  // measure 50
0000
0010
0000
0000
0000
0010
0000
0000
,  // measure 51
0000
0010
0000
0000
0000
0000
0000
0000
,  // measure 52
0000
0001
0000
0000
0000
0000
0000
0000
,  // measure 53
0000
1000
0000
0000
0000
0000
0000
0000
,  // measure 54
0000
0010
0000
0000
0000
0010
0000
0000
,  // measure 55
0000
0010
0000
0000
0000
0000
0000
0000
,  // measure 56
0000
0100
0000
0000
0000
0100
0000
0000
,  // measure 57
0000
0100
0000
0000
0000
0000
0000
0000
,  // measure 58
0000
0100
0000
0000
0000
0100
0000
0000
,  // measure 59
0000
0100
0000
0000
0000
0000
0000
0000
,  // measure 60
0000
0001
0000
0000
0000
0000
0000
0000
,  // measure 61
0000
1000
0000
0000
0000
0000
0000
0000
,  // measure 62
0000
0010
0000
0000
0000
0010
0000
0000
,  // measure 63
0000
0010
0000
0000
0000
0000
0000
0000
,  // measure 64
0000
1001
0000
0000
0000
0000
0000
0000
,  // measure 65
0000
1001
0000
0000
0000
0000
0000
0000
,  // measure 66
0000
1000
0000
1000
0000
1000
0000
0000
,  // measure 67
0000
0001
0000
0001
0000
0001
0000
0000
,  // measure 68
0000
1001
0000
0000
0000
0000
0000
0000
,  // measure 69
0000
1001
0000
0000
0000
0000
0000
0000
,  // measure 70
0000
0001
0000
0001
0000
0001
0000
0000
,  // measure 71
0000
1000
0000
1000
0000
1000
0000
0000
,  // measure 72
0000
1001
0000
0000
0000
0000
0000
0000
,  // measure 73
0000
1001
0000
0000
0000
0000
0000
0000
,  // measure 74
0000
1000
0000
1000
0000
1000
0000
0000
,  // measure 75
0000
0001
0000
0001
0000
0001
0000
0000
,  // measure 76
0000
0100
0000
0100
0000
0100
0000
0000
,  // measure 77
0000
0100
0000
0100
0000
0100
0000
0000
,  // measure 78
0000
1001
0000
0000
0000
0000
0000
0000
,  // measure 79
0000
0000
0000
0000
,  // measure 80
0000
1001
0000
0000
0000
0000
0000
0000
,  // measure 81
0000
1000
0000
0000
0000
0000
0000
0000
,  // measure 82
0000
0010
0000
0000
0000
0010
0000
0000
,  // measure 83
0000
0010
0000
0000
0000
0000
0000
0000
,  // measure 84
0000
1000
0000
0000
0000
0000
0000
0000
,  // measure 85
0000
0001
0000
0000
0000
0000
0000
0000
,  // measure 86
0000
0100
0000
0000
0000
0100
0000
0000
,  // measure 87
0000
0100
0000
0000
0000
0000
0000
0000
,  // measure 88
0000
0001
0000
0000
0000
0000
0000
0000
,  // measure 89
0000
1000
0000
0000
0000
0000
0000
0000
,  // measure 90
0000
0001
0000
0000
0000
0001
0000
0000
,  // measure 91
0000
0001
0000
0000
0000
0000
0000
0000
,  // measure 92
0000
0100
0000
0000
0000
0000
0000
0000
,  // measure 93
0000
0010
0000
0000
0000
0000
0000
0000
,  // measure 94
0000
1000
0000
0000
0000
1000
0000
0000
,  // measure 95
0000
1000
0000
0000
0000
0000
0000
0000
,  // measure 96
0000
1001
0000
0000
0000
0000
0000
0000
,  // measure 97
0000
0000
0000
0000
,  // measure 98
0000
1001
0000
0000
0000
0000
0000
0000
,  // measure 99
0000
0000
0000
0000
,  // measure 100
0000
1000
0000
0000
0000
1000
0000
0000
,  // measure 101
0000
1000
0000
0000
0000
0000
0000
0000
,  // measure 102
0000
0100
0000
0000
0000
0100
0000
0000
,  // measure 103
0000
0100
0000
0000
0000
0000
0000
0000
,  // measure 104
0000
0010
0000
0000
0000
0000
0000
0000
,  // measure 105
0000
0001
0000
0000
0000
0000
0000
0000
,  // measure 106
0000
1000
0000
0000
0000
0000
0000
0000
,  // measure 107
0000
0010
0000
0000
0000
0000
0000
0000
,  // measure 108
0000
1000
0000
0000
0000
1000
0000
0000
,  // measure 109
0000
0001
0000
0000
0000
0001
0000
0000
,  // measure 110
0000
0100
0000
0000
0000
0100
0000
0000
,  // measure 111
0000
0010
0000
0000
0000
0010
0000
0000
,  // measure 112
0000
1001
0000
0000
0000
0000
0000
0000
,  // measure 113
0000
0000
0000
0000
,  // measure 114
0000
0000
0000
0000
,  // measure 115
0000
0000
0000
0000
,  // measure 116
0001
0100
1000
0000
0000
0000
0000
0000
;
