#VERSION:0.82;
#TITLE:Uma Thurman;
#SUBTITLE:;
#ARTIST:Fall Out Boy;
#TITLETRANSLIT:;
#SUBTITLETRANSLIT:;
#ARTISTTRANSLIT:;
#GENRE:Poison Ivy;
#ORIGIN:;
#CREDIT:;
#BANNER:Uma Thurman.png;
#BACKGROUND:Uma Thurman-bg.png;
#PREVIEWVID:;
#JACKET:jacket.png;
#CDIMAGE:;
#DISCIMAGE:;
#LYRICSPATH:;
#CDTITLE:;
#MUSIC:Uma Thurman.ogg;
#OFFSET:0.010000;
#SAMPLESTART:102.384087;
#SAMPLELENGTH:13.714000;
#SELECTABLE:YES;
#BPMS:0.000=150.000,
240.000=75.000,
248.000=150.000;
#STOPS:;
#DELAYS:;
#WARPS:;
#TIMESIGNATURES:0.000=4=4;
#TICKCOUNTS:0.000=4;
#COMBOS:0.000=1;
#SPEEDS:0.000=1.000=0.000=0;
#SCROLLS:0.000=1.000;
#FAKES:;
#LABELS:0.000=Song Start;
#BGCHANGES:8.000=Uma Thurman.avi=1.000=0=0=1=====,
99999=-nosongbg-=1.000=0=0=0 // don't automatically add -songbackground-
;
#KEYSOUNDS:;
#ATTACKS:
;

//---------------dance-single - ----------------
#NOTEDATA:;
#CHARTNAME:;
#STEPSTYPE:dance-single;
#DESCRIPTION:;
#CHARTSTYLE:;
#DIFFICULTY:Medium;
#METER:6;
#RADARVALUES:0.395219,0.556793,0.203532,0.233685,0.000000,309.000000,27.000000,31.000000,0.000000,0.000000,0.000000,0.000000,0.000000,0.395219,0.556793,0.203532,0.233685,0.000000,309.000000,27.000000,31.000000,0.000000,0.000000,0.000000,0.000000,0.000000;
#CREDIT:Ben Speirs;
#NOTES:
0000
0000
0000
0000
,
0000
0000
0000
0000
,
0000
0000
0000
0000
,
0000
0000
0000
0000
,
1000
0001
0100
0010
,
1000
0000
0001
0000
1000
0100
0010
0000
,
0002
0003
2000
3000
,
0020
0030
0200
0300
,
1001
0000
0100
0000
0010
0010
0010
0000
,
1000
0001
0100
0000
,
0010
0000
1000
0000
0100
0100
0100
0000
,
0020
0000
0000
0000
0031
1000
0000
0000
,
0001
0001
1000
1000
,
0010
0010
0100
0100
,
0001
1000
0001
1000
0001
1000
0001
1000
,
0020
0000
0000
0030
,
0100
0010
1000
1000
,
1100
0101
1100
0101
,
1000
0000
0001
0000
0010
0100
1000
0000
,
0002
0000
0000
0000
1003
1000
0000
0000
,
0100
0010
1000
0001
,
1001
0000
0110
0000
1000
0100
0010
0000
,
0001
0000
1000
0000
0010
0100
0010
0000
,
2002
0000
0000
0000
3000
0003
0000
0010
,
0010
0000
0000
1000
1000
0000
0000
0001
,
0001
1000
0100
0000
,
0010
0000
0001
0000
1000
0010
0100
0000
,
0001
0000
1000
0000
0100
0000
0000
0010
,
0010
0000
0000
0001
0001
0000
0000
1000
,
1000
0010
0100
0000
,
0010
1000
0001
0010
,
0100
1000
0001
0000
1001
0000
0000
0000
,
1000
0100
0010
0001
,
1000
0000
1000
0000
0010
0100
0010
0100
,
0010
0000
0000
0000
0010
0100
0010
0100
,
0010
0000
0110
1001
,
0001
1000
0010
0100
,
0001
0000
1000
0000
0001
0010
0100
0000
,
2000
3000
0002
0003
,
0200
0300
0020
0030
,
1001
0000
0010
0000
0100
0100
0100
0000
,
0001
1000
0010
0000
,
0100
0000
0001
0000
0010
0010
0010
0000
,
0200
0000
0000
0000
1300
0001
0000
0000
,
1000
1000
0001
0001
,
0100
0100
0010
0010
,
1000
0001
1000
0001
1000
0001
1000
0001
,
0200
0000
0000
0310
,
1001
0000
0100
0001
,
1001
0110
1001
0110
,
1000
0000
0001
0000
0100
0010
1000
0000
,
0002
0000
1003
0000
,
0100
0000
0010
0010
,
0110
0000
1001
0000
0001
0100
0010
0000
,
1000
0000
0001
0000
1000
0100
0010
0000
,
0002
0000
0000
0000
1003
0000
0000
0010
,
0010
0000
0000
1000
1000
0000
0000
0001
,
0001
0000
1000
0000
0100
0010
0001
0000
,
1000
0000
1000
0000
0010
0100
0001
0000
,
2000
0000
3001
0000
,
0100
0100
0010
0010
1000
1000
0001
0001
,
1000
0100
0010
0001
0200
0000
0010
0310
,
0110
0001
0100
1000
,
0010
0000
0001
0000
1000
0100
0001
0000
,
2000
0000
3100
0000
0001
0100
1000
0000
,
0002
0103
1001
0110
,
1000
0000
0001
0000
0010
0000
0100
1000
,
0010
0000
0000
0000
0100
0001
1000
0000
,
2200
3300
0202
0303
,
2020
3030
0022
0033
,
1000
0000
0001
0000
0100
0100
0100
0000
,
0010
0010
0010
0000
1000
0000
0000
0000
,
0001
0000
1000
0000
0100
0100
0100
0000
,
0020
0000
0031
0000
,
1000
0001
1000
0001
1000
0001
1000
0001
,
1000
0001
1000
0001
1000
0001
1000
0001
,
0100
0010
0100
0010
1000
0001
1000
0001
,
0020
0000
0130
1001
;

//---------------dance-single - ----------------
#NOTEDATA:;
#CHARTNAME:;
#STEPSTYPE:dance-single;
#DESCRIPTION:;
#CHARTSTYLE:;
#DIFFICULTY:Easy;
#METER:4;
#RADARVALUES:0.243377,0.380964,0.052768,0.158303,0.000000,198.000000,7.000000,21.000000,0.000000,0.000000,0.000000,0.000000,0.000000,0.243377,0.380964,0.052768,0.158303,0.000000,198.000000,7.000000,21.000000,0.000000,0.000000,0.000000,0.000000,0.000000;
#CREDIT:Ben Speirs;
#NOTES:
0000
0000
0000
0000
,
0000
0000
0000
0000
,
0000
0000
0000
0000
,
0000
0000
0000
0000
,
1000
0000
0001
0000
,
0100
0000
0100
0000
,
0020
0030
2000
3000
,
0002
0003
0200
0300
,
0001
0000
1000
0000
,
0100
0010
0001
0000
,
0100
0000
0010
1000
,
0001
0000
1000
0000
,
0100
0100
0100
0100
,
0010
0010
0010
0010
,
0001
1000
0001
1000
,
0220
0000
0000
0330
,
1000
0000
0001
0000
,
0100
0010
1000
0001
,
0010
0000
0001
0000
,
2000
0000
3001
0000
,
1000
0000
0010
0000
,
0100
0001
1000
0000
,
0100
0100
0010
0010
,
1001
0000
0000
0000
,
0010
0000
0010
0000
,
1000
0001
0100
0000
,
0001
0010
0001
1000
,
0010
0000
0010
0000
,
1000
0000
1000
0000
,
0001
0000
0001
0000
,
0100
0000
0010
1000
,
0001
0000
1000
0000
,
0100
0010
0001
0000
,
1000
0000
0010
0010
,
0010
0000
0100
0100
,
0100
0000
0110
0000
,
0001
0000
1000
0000
,
0100
0000
0010
0001
,
2000
3000
0002
0003
,
0200
0300
0020
0030
,
1000
0000
0001
0000
,
0100
0100
0010
0000
,
1000
0000
0100
0100
,
0010
0000
0001
0000
,
1000
0001
1000
0001
,
1000
0001
1000
0001
,
0100
0100
0100
0100
,
0200
0000
0000
0300
,
0010
0000
1000
0000
,
0001
0010
0100
1000
,
0010
0000
0100
0000
,
2002
0000
3003
0000
,
0010
0000
1000
0000
,
0100
0010
0001
0000
,
1000
1000
0001
0001
,
0100
0000
0010
0000
,
1000
0000
0001
0000
,
0100
0100
0100
0000
,
0010
0000
1000
0000
,
0100
0100
0100
0000
,
0010
1001
0100
1001
,
0010
0000
0100
0000
1000
0010
0100
0001
,
1000
1000
0001
0001
,
0100
0000
0010
0100
,
0010
0000
0100
0010
,
0100
0000
0001
0001
,
0010
0100
1000
0000
,
0001
0000
1000
0010
,
0200
0300
0002
0003
,
2000
3000
0200
0300
,
0010
0000
0001
0000
,
2000
0000
3000
0000
,
0010
0000
1000
0000
,
0002
0000
0003
0000
,
0100
0100
0100
0100
,
0010
0010
0010
0010
,
1000
1000
0001
0001
,
0200
0000
0310
1001
;

//---------------dance-single - ----------------
#NOTEDATA:;
#CHARTNAME:;
#STEPSTYPE:dance-single;
#DESCRIPTION:;
#CHARTSTYLE:;
#DIFFICULTY:Beginner;
#METER:2;
#RADARVALUES:0.137842,0.205134,0.067844,0.000000,0.000000,119.000000,9.000000,0.000000,0.000000,0.000000,0.000000,0.000000,0.000000,0.137842,0.205134,0.067844,0.000000,0.000000,119.000000,9.000000,0.000000,0.000000,0.000000,0.000000,0.000000,0.000000;
#CREDIT:Ben Speirs;
#NOTES:
0000
0000
0000
0000
,
0000
0000
0000
0000
,
0000
0000
0000
0000
,
0000
0000
0000
0000
,
0100
0000
0000
0000
,
0001
0000
0000
0000
,
1000
0000
1000
0000
,
1000
0000
1000
0000
,
1001
0000
0000
0000
,
0100
0100
0000
0000
,
0010
0000
0010
0000
,
0001
0000
0000
0000
,
1001
0000
0000
0000
,
0100
0100
0000
0000
,
0100
0000
0010
0000
,
1000
0000
0000
0000
,
0001
0000
1000
0000
,
0100
0100
0100
0000
,
1000
0000
0001
0000
,
1000
0000
0000
0000
,
0001
0000
1000
0000
,
0010
0010
0010
0000
,
1000
0000
0001
0000
,
1000
0000
0000
0000
,
0110
0000
0000
0000
,
0010
0000
0000
0000
,
0001
0000
0001
0000
,
1000
0000
0000
0000
,
0100
0000
0000
0000
,
0010
0000
0000
0000
,
0100
0000
0100
0000
,
1000
0000
0000
0000
,
0001
0000
0000
0000
,
1000
0000
0000
0000
,
0010
0000
0000
0000
,
0010
0000
0000
0000
,
0100
0000
0000
0000
,
0100
0000
0000
0000
,
0001
0000
0001
0000
,
0001
0000
0001
0000
,
1001
0000
0000
0000
,
0100
0100
0000
0000
,
1000
0000
0001
0000
,
0100
0000
0000
0000
,
0010
0000
0010
0000
,
0010
0000
0010
0000
,
0010
0010
0010
0000
,
0010
0000
0000
0000
,
1001
0000
0000
0000
,
0100
0100
0100
0000
,
0100
0000
0000
0000
,
1000
0000
0001
0000
,
1001
0000
0000
0000
,
0010
0010
0010
0000
,
0010
0000
0000
0000
,
0001
0000
1000
0000
,
0100
0000
0000
0000
,
0100
0000
0000
0000
,
0010
0000
0010
0000
,
0001
0000
1000
0000
,
1001
0000
0000
0000
,
0010
0000
0010
0000
,
1001
0000
0000
0000
,
0100
0000
0100
0000
,
0100
0000
0000
0000
,
0010
0000
0010
0010
,
0000
0000
0000
0000
,
0001
0000
0000
0000
,
1000
0000
1000
0000
,
1000
0000
1000
0000
,
0010
0000
0000
0000
,
0100
0100
0000
0000
,
0001
0000
0000
0000
,
1000
1000
0000
0000
,
0100
0000
0100
0000
,
0100
0000
0100
0000
,
0100
0100
0100
0100
,
0100
0000
0000
1001
;

//---------------dance-single - ----------------
#NOTEDATA:;
#CHARTNAME:;
#STEPSTYPE:dance-single;
#DESCRIPTION:;
#CHARTSTYLE:;
#DIFFICULTY:Hard;
#METER:9;
#RADARVALUES:0.631058,0.967062,0.505062,0.203532,0.188456,492.000000,67.000000,27.000000,0.000000,0.000000,0.000000,0.000000,0.000000,0.631058,0.967062,0.505062,0.203532,0.188456,492.000000,67.000000,27.000000,0.000000,0.000000,0.000000,0.000000,0.000000;
#CREDIT:Ben Speirs;
#NOTES:
0000
0000
0000
0000
,
0000
0000
0000
0000
,
0000
0000
0000
0000
,
0000
0000
0000
0000
,
1010
0000
0110
0000
0101
0000
1000
0100
,
0001
0000
0100
0000
0010
1000
0100
0000
,
2100
3001
0102
1003
,
2010
3001
0012
1003
,
1001
0000
0001
0100
1000
0001
0010
0000
,
0010
1000
0100
0000
0100
0000
0010
0001
,
1000
0000
0010
0010
1000
0100
0010
0000
,
0002
0000
1000
1003
0010
0010
0100
0000
,
1001
1001
1001
1001
,
1001
1001
1001
1001
,
0001
0100
1000
0010
0001
0100
1000
0010
,
0001
1000
0001
1000
0001
1000
0001
1000
0010
0000
0100
0000
1001
0000
0000
0000
,
0100
0010
0100
0001
1000
0000
0001
0000
,
1100
0101
1100
0101
,
0010
0100
0001
1000
0010
1000
0100
0010
,
0002
0000
0000
0000
1000
0003
0000
0000
0001
0000
0001
0000
0100
0000
0000
0000
,
0010
0100
0010
1000
0001
0000
1000
0000
,
0011
0000
1010
0000
0100
0100
0010
0100
,
0002
0000
1003
0100
0010
0001
1000
0000
,
0220
0000
0000
0000
0000
0000
0330
0001
,
0101
0000
0000
1000
1100
0000
0000
0001
,
1000
0001
0000
0110
0000
1000
0100
0010
,
0002
0000
2003
0000
3010
0100
0001
0000
,
0100
0000
0010
0000
0100
0000
0001
0000
0010
0100
0010
0000
0001
0000
1000
0000
,
1010
0000
0101
0000
1001
0000
1000
0100
,
0010
0001
1000
0010
0100
0000
0001
0100
,
0000
0100
0010
1000
0000
1000
0100
0010
,
0001
0100
0100
0000
1001
0000
0110
0000
,
2000
3002
0203
0320
,
1030
0000
0001
1000
0100
0010
0001
1000
,
0020
0000
0130
0001
0100
0010
1000
0100
,
0020
0000
0031
1000
0010
0000
1001
0000
,
1010
0000
0110
0000
0101
0000
1000
0100
,
0001
0000
0100
0000
0010
1000
0100
0000
,
2100
3001
0102
1003
,
2010
3001
0012
1003
,
1001
0000
1000
0010
0001
1000
0100
0000
,
0100
0001
0010
0000
0010
0000
0100
1000
,
0001
0000
0100
0100
0001
0010
0100
0000
,
2000
0000
0001
3001
0100
0100
0010
0000
,
1001
1001
1001
1001
,
1001
1001
1001
1001
,
1000
0100
0001
0010
1000
0100
0001
0010
,
0001
1000
0001
1000
0001
1000
0001
1000
0001
0000
0100
0000
1001
0000
0000
0000
,
0010
0100
0010
1000
0001
0000
1000
0000
,
1001
0110
1001
0110
,
0100
0010
1000
0001
0100
0001
0010
0100
,
2000
0000
0000
0000
0001
3000
0000
0000
1000
0000
1000
0000
0010
0000
0000
0000
,
0100
0010
0100
0001
1000
0000
0001
0000
,
1001
0000
0110
0000
0010
0010
0100
0010
,
2000
0000
3001
0010
0100
1000
0001
0000
,
0100
0010
0100
0010
0100
0010
0100
0010
0100
0000
0001
0000
1000
0000
0010
0000
,
0102
0000
0003
0010
2100
0000
3000
0010
,
0101
0001
1000
0100
0000
0100
0010
0001
,
1000
0000
1001
0000
0010
0100
0001
0000
,
1000
0100
0010
0001
1000
0010
0100
0000
,
0001
0000
1000
0000
1100
0000
0001
0000
0100
0000
0010
1000
0100
0000
0010
0000
,
0001
0000
0100
1000
0010
0000
0100
0000
1010
0000
0101
0000
0011
0000
1100
0000
,
1001
1000
0100
0010
0001
1000
0010
0100
,
0001
0010
0100
0010
0001
1000
0010
0100
,
0001
1000
0100
0010
0001
1000
0010
0100
,
0001
0000
0000
0000
1000
0000
0001
0000
0100
0010
0100
0000
0001
0000
0000
0000
,
0100
0001
0010
0100
1000
0001
0010
1000
,
0010
0001
0100
0010
1000
0001
0010
0000
,
0001
0100
0001
0000
1000
0000
0000
0000
0100
1000
0100
0000
0010
0000
0000
0000
,
0001
1000
0001
0000
0100
0000
0000
0000
0010
1000
0010
0000
0100
0000
0000
0000
,
1001
0000
1000
0010
0001
1000
0100
0000
,
0100
0001
0010
0000
0010
0000
0100
1000
,
0001
0000
0100
0100
0001
0010
0100
0000
,
2000
0000
0001
3001
0100
0100
0010
0000
,
1000
0001
1000
0001
1000
0001
1000
0001
1000
0001
1000
0001
1000
0001
1000
0001
,
1000
0001
1000
0001
1000
0001
1000
0001
1000
0001
1000
0001
1000
0001
1000
0001
,
1000
0001
1000
0001
1000
0001
1000
0001
1000
0001
1000
0001
1000
0001
1000
0001
,
1000
0001
1000
0001
1000
0001
1000
0001
1000
0001
1000
0001
0100
0000
0000
0000
;

//---------------dance-single - ----------------
#NOTEDATA:;
#CHARTNAME:;
#STEPSTYPE:dance-single;
#DESCRIPTION:;
#CHARTSTYLE:;
#DIFFICULTY:Challenge;
#METER:10;
#RADARVALUES:0.773208,1.000000,0.278915,0.067844,0.572906,672.000000,37.000000,9.000000,0.000000,0.000000,0.000000,0.000000,0.000000,0.773208,1.000000,0.278915,0.067844,0.572906,672.000000,37.000000,9.000000,0.000000,0.000000,0.000000,0.000000,0.000000;
#CREDIT:Ben Speirs;
#NOTES:
0000
0000
0000
0000
,
0000
0000
0000
0000
,
0000
0000
0000
0000
,
0000
0000
0000
0000
,
0011
0000
1100
0000
0101
0000
1010
0001
,
1000
0000
0110
0000
0001
0100
0010
0000
,
1010
1000
0100
0000
0011
0001
0100
0000
,
1001
1000
0100
0000
1001
0001
0100
0000
,
0010
1000
0100
0100
0010
0001
1000
0010
,
0100
0001
1000
1000
0010
1000
0100
0010
,
0001
1000
0010
0010
0100
0001
0010
0100
,
2000
0000
0100
0000
0010
0010
3010
0000
,
1000
0010
1000
0010
1000
0010
1000
0010
,
0100
0001
0100
0001
0100
0001
0100
0001
,
1000
0100
0010
0001
1000
0010
0100
0001
,
1000
0100
0010
0001
0100
0010
1000
0001
0020
0000
0000
0000
0100
0000
0130
0000
,
1100
1000
0010
0100
0001
1000
0010
0000
,
0100
0001
0100
0000
0010
1000
0010
0000
1000
0001
1000
0000
0100
0010
0100
0000
,
0010
0001
0010
0100
1000
0010
0100
0001
,
2000
0000
0100
0000
0010
0010
3010
0000
,
0011
0001
0100
0010
1000
0001
0100
0000
,
0010
1000
0010
0000
0100
0001
0100
0000
0001
1000
0001
0000
0010
0000
0100
0000
,
1000
0001
0100
0010
1000
0001
0010
0000
,
1001
0000
0100
0010
0000
0010
0000
0100
,
0001
0000
0000
0000
0010
0100
0010
0100
1000
0000
0000
0000
0010
0100
0010
0100
,
0001
1000
0000
0100
0100
0010
0001
0000
,
1000
0001
0100
0000
0010
1000
0001
0000
0100
0001
1000
0100
0010
0000
0000
0000
,
0002
0000
1000
0000
0100
0100
0103
0000
,
1010
1000
1001
0001
0101
0000
1000
0001
,
0010
0000
0100
0000
1000
0000
0001
0000
0100
0000
0000
0000
0010
1000
0001
0000
,
0000
0000
0001
0000
0010
0001
1000
0000
0000
0000
1000
0000
0010
0100
0010
0100
,
0001
0010
0100
1000
0001
0100
1001
0000
,
1000
1000
0001
1000
0010
0100
0100
0001
,
0010
0010
0100
0010
0001
1000
1000
0010
,
0100
0100
0001
0010
0100
0010
0010
0001
,
1000
1000
0010
0100
0101
0000
1001
0000
,
1100
0000
0011
0000
1010
0000
0101
1000
,
0001
0000
0110
0000
1000
0010
0100
0000
,
0101
0001
0010
0000
1100
1000
0010
0000
,
1001
0001
0010
0000
1001
1000
0010
0000
,
0100
0001
0010
0010
0100
1000
0001
0100
,
0010
1000
0001
0001
0100
0001
0010
0100
,
1000
0001
0100
0100
0010
1000
0100
0010
,
0002
0000
0010
0000
0100
0100
0103
0000
,
0001
0100
0001
0100
0001
0100
0001
0100
,
0010
1000
0010
1000
0010
1000
0010
1000
,
0001
0010
0100
1000
0001
0100
0010
1000
,
0001
0010
0100
1000
0010
0100
0001
1000
0200
0000
0000
0000
0010
0000
0310
0000
,
0011
0000
0100
1000
0001
0000
0100
0000
0100
0000
0000
0000
1001
0000
0000
0000
,
1000
0010
0100
0000
0001
0010
0100
0000
1000
0010
0100
0000
0001
0010
0100
0000
,
1000
0010
0001
0010
1000
0100
0001
0100
,
2000
0000
0100
0000
0001
0001
3001
0000
,
1100
0000
0010
0001
1000
0000
0010
0000
0010
0000
0000
0000
1001
0000
0000
0000
,
0001
0100
0010
0000
1000
0100
0010
0000
0001
0100
0010
0000
1000
0100
0010
0000
,
0001
0100
1000
0100
0001
0010
1000
0010
,
0001
0100
0001
0100
0010
1000
0010
1000
0001
0010
0100
1000
0010
0100
0001
1000
,
0100
0000
0000
0000
0100
0010
0100
0010
0001
0000
0000
0000
0100
0010
0100
0010
,
1000
0001
0001
0010
0010
0100
1000
0000
,
0001
1000
0010
0000
0100
0001
1000
0000
0010
1000
0001
0010
0100
0000
0000
0000
,
2000
0000
0001
0000
0010
0010
3010
0000
,
0101
0000
0100
0000
1010
0000
1000
0000
1100
0000
0100
0010
0011
0000
0001
0000
,
1001
0000
0000
0000
1000
0000
0010
0000
1010
0000
0000
0000
1000
0000
0000
0000
0001
0000
0100
0010
0100
0000
0001
0000
1000
0100
1000
0000
0001
0000
0100
0010
,
0100
0001
0100
0001
0100
0001
0100
0001
0100
0001
0100
0001
1000
0001
1000
0001
,
1000
0100
1000
0100
1000
0100
1000
0100
1000
0100
1000
0100
0010
0100
0010
0100
,
0010
0001
0010
0001
1000
0001
0100
0010
1000
0100
0010
0001
1000
0000
0000
0000
,
0001
0100
0001
0100
0010
1000
0010
1000
0001
0100
0010
1000
0001
0000
0000
0000
,
0010
1000
0010
1000
0010
1000
0010
1000
0010
1000
0010
1000
0001
1000
0001
1000
,
0001
0010
0001
0010
0001
0010
0001
0010
0100
1000
0100
1000
0100
1000
0100
1000
,
0001
0100
0001
0100
0001
0100
0001
0100
0010
1000
0010
1000
0010
1000
0010
1000
,
0001
1000
0001
1000
0001
1000
0001
1000
0100
0010
0100
0010
0100
0010
0100
0010
,
0001
1000
0100
0100
0010
0001
1000
0010
,
0100
0001
1000
1000
0010
1000
0100
0010
,
0001
1000
0010
0010
0100
0001
0010
0100
,
2000
0000
0100
0000
0001
0001
3001
0000
,
0010
1000
0001
1000
0001
1000
0001
1000
0001
1000
0001
1000
0001
1000
0001
1000
,
0010
1000
0001
1000
0001
1000
0001
1000
0100
1000
0100
1000
0001
1000
0001
1000
,
0010
1000
0001
0010
0100
1000
0001
0100
0010
1000
0001
0010
0100
0010
0001
0100
,
0010
1000
0100
0010
0001
1000
0010
0100
0001
0010
0100
1000
0001
0000
0000
0000
;

//---------------dance-double - ----------------
#NOTEDATA:;
#CHARTNAME:;
#STEPSTYPE:dance-double;
#DESCRIPTION:;
#CHARTSTYLE:;
#DIFFICULTY:Challenge;
#METER:8;
#RADARVALUES:0.553522,0.556793,0.339221,0.414603,0.000000,414.000000,45.000000,55.000000,0.000000,0.000000,0.000000,0.000000,0.000000,0.553522,0.556793,0.339221,0.414603,0.000000,414.000000,45.000000,55.000000,0.000000,0.000000,0.000000,0.000000,0.000000;
#CREDIT:Ben Speirs;
#NOTES:
// measure 0
00000000
00000000
00000000
00000000
,  // measure 1
00000000
00000000
00000000
00000000
,  // measure 2
00000000
00000000
00000000
00000000
,  // measure 3
00000000
00000000
00000000
00000000
,  // measure 4
00000200
00000000
00002300
00000000
00003020
00000000
00000130
00000010
,  // measure 5
00001000
00000000
00000002
00000000
00001003
00000100
00010000
00000000
,  // measure 6
00022000
00033000
00220000
00330000
,  // measure 7
20200000
30300000
20020000
30030000
,  // measure 8
20000000
00000000
30100000
00000000
01000000
00100000
01000000
00000000
,  // measure 9
00010000
01000000
00010000
00000000
10000000
00000000
00010000
00100000
,  // measure 10
01000000
00000000
10000000
01000000
00100000
00010000
01000000
00000000
,  // measure 11
00002000
00000000
00000000
00000000
00010000
00013000
00000000
00000000
,  // measure 12
00001000
00010000
00000100
00001000
00000010
00000100
00000001
00000000
,  // measure 13
00000100
00000001
00001000
00000010
00001000
00000100
00010000
00000000
,  // measure 14
00001000
00100000
00010000
01000000
00100000
10000000
01000000
00100000
,  // measure 15
00020000
00000000
00000000
00000000
10030000
10000000
01000000
00000000
,  // measure 16
10000000
00100000
01000000
00010000
10000000
00000000
00100000
00000000
,  // measure 17
10010000
00110000
00011000
00001010
,  // measure 18
00001000
00000001
00000100
00000000
00000001
00001000
00000100
00000000
,  // measure 19
00002000
00000000
00003100
00000000
00001000
00000001
00000100
00000000
,  // measure 20
00000001
00000010
00000100
00001000
00000001
00000000
00000100
00000000
,  // measure 21
00000101
00000000
00001100
00000000
00001000
00000100
00010000
00001000
,  // measure 22
00200000
00000000
00310000
10000000
00100000
01000000
00010000
00000000
,  // measure 23
20000000
00000000
30000000
00000000
,  // measure 24
12000000
03000000
10020000
00030000
,  // measure 25
10000000
00100000
01000000
00000000
00010000
10000000
00100000
00000000
,  // measure 26
10100000
00000000
00110000
00000000
01000000
01000000
01000000
00000000
,  // measure 27
00010000
00100000
00001000
00010000
00000100
00001000
00000020
00000000
,  // measure 28
00000130
00000000
00000010
00001000
00000200
00000000
00000310
00000001
,  // measure 29
00001000
00000001
00001000
00000001
00000100
00000000
00000010
00001000
,  // measure 30
00000001
00001000
00000000
00000001
00001000
00000001
00000100
00000100
,  // measure 31
00000010
00001000
00000100
00000000
00001100
00000000
00010100
00000000
,  // measure 32
00002000
00203000
00320000
20030000
,  // measure 33
30200000
00000000
10300000
01000000
00100000
00010000
10000000
00100000
,  // measure 34
02000000
00000000
03000000
00000000
00100000
10000000
01000000
00100000
,  // measure 35
00020000
00030000
00101000
00010100
,  // measure 36
00002000
00000000
00003020
00000000
00000230
00000000
00000301
00001000
,  // measure 37
00000010
00000000
00000100
00000000
00000001
00000010
00000100
00000000
,  // measure 38
00002200
00003300
00000022
00000033
,  // measure 39
00002002
00003003
00000220
00000330
,  // measure 40
00002000
00000000
00003010
00001000
00000100
00000010
00000002
00000000
,  // measure 41
00000103
00000010
00000200
00000000
00000301
00000000
00000100
00000010
,  // measure 42
00002000
00000000
00003100
00010000
00001000
00100000
00010000
00000000
,  // measure 43
02000000
00000000
00000000
00000000
00100000
03100000
00000000
00000000
,  // measure 44
01100000
10010000
01100000
10010000
,  // measure 45
00011000
00001001
00011000
10010000
,  // measure 46
10000000
01000000
00010000
00001000
00000100
00000001
00001000
00000010
,  // measure 47
00000200
00000000
00000000
00000000
00000010
00000310
00000000
00000000
,  // measure 48
00000100
00000010
00000100
00000010
00001000
00000000
00001010
00000000
,  // measure 49
00000011
00000000
00000101
00000000
00000001
00001000
00000100
00000000
,  // measure 50
00001000
00000100
00010000
00000000
00001000
00100000
00010000
00000000
,  // measure 51
02000000
00000000
00100000
00000000
00010000
00010000
03010000
00000000
,  // measure 52
01000000
00010000
00100000
01000000
10000000
00000000
11000000
00000000
,  // measure 53
10010000
00000000
01010000
00000000
10000000
10000000
00010000
01000000
,  // measure 54
00100000
00000000
01000000
00010000
00100000
00001000
00010000
00000000
,  // measure 55
00011000
00000000
00010100
00000000
00001000
00000010
00000100
00000000
,  // measure 56
00001002
00000103
00002001
00003100
,  // measure 57
00001000
00000100
00000010
00000001
00000200
00000000
00000310
00000000
,  // measure 58
00000100
00000000
00001010
00000000
00000010
00001000
00000100
00000000
,  // measure 59
00001000
00000100
00010000
00001000
00100000
00010000
01000000
00000000
,  // measure 60
00100000
00100000
10100000
10000000
01000000
00100000
00110000
00000000
,  // measure 61
00010000
01000000
01010000
10000000
01000000
00010000
00001000
00000100
,  // measure 62
00000010
00001000
00000100
00000010
00000001
00000100
00000010
00001000
,  // measure 63
00000100
00000010
00000001
00000100
00001000
00010000
00001000
00010000
,  // measure 64
00100000
10000000
01000000
00100000
00001000
00010000
00001000
00010000
,  // measure 65
00100000
10000000
01000000
00100000
00010000
10000000
00100000
01000000
,  // measure 66
00010000
00100000
00001000
00010000
00000100
00001000
00000010
00000100
,  // measure 67
00001000
00000100
00000010
00001000
00000100
00000010
00000001
00001000
,  // measure 68
00000010
00000010
00000100
00000001
00001000
00001000
00000100
00010000
,  // measure 69
00001000
00001000
00010000
00001000
01000000
01000000
00010000
10000000
,  // measure 70
00200000
01000000
10000000
10300000
,  // measure 71
00100000
10000000
02000000
00000000
13000000
00000000
01000000
10000000
,  // measure 72
00200000
00000000
01300000
00010000
00100000
00001000
00010000
00000000
,  // measure 73
00020200
00000000
00030000
00000000
00001000
00001300
00000000
00000000
,  // measure 74
00000100
00001000
00000010
00000100
00000001
00000010
00000100
00001000
,  // measure 75
00000010
00000100
00001000
00010000
00100000
00100000
00010000
00001000
,  // measure 76
00100000
00100000
00010000
00100000
01000000
10000000
00100000
01000000
,  // measure 77
00010000
00000010
00000001
00000100
00001000
00010000
00100000
00000000
;
