#TITLE:Ugly Boy;
#SUBTITLE:;
#ARTIST:Die Antwoord;
#TITLETRANSLIT:;
#SUBTITLETRANSLIT:;
#ARTISTTRANSLIT:;
#GENRE:Terrifyingly Hypnotic;
#CREDIT:;
#BANNER:Ugly Boy.png;
#BACKGROUND:Ugly Boy-bg.png;
#LYRICSPATH:;
#CDTITLE:;
#MUSIC:Ugly Boy.ogg;
#OFFSET:-0.000700;
#SAMPLESTART:56.473240;
#SAMPLELENGTH:13.714000;
#SELECTABLE:YES;
#BPMS:0.000000=102.000000
;
#STOPS:
;
#BGCHANGES:8.000=Ugly Boy.avi=1.000=0=0=1=====,
99999=-nosongbg-=1.000=0=0=0 // don't automatically add -songbackground-
;
#KEYSOUNDS:;
#ATTACKS:;

//---------------dance-single - ----------------
#NOTES:
     dance-single:
     :
     Hard:
     8:
     0.426510,0.403994,0.108698,0.217396,0.275368,367.000000,15.000000,30.000000,0.000000,0.000000,0.000000,0.426510,0.403994,0.108698,0.217396,0.275368,367.000000,15.000000,30.000000,0.000000,0.000000,0.000000:
0000
0000
0000
0000
,
0000
0000
0000
0000
,
0000
0000
0000
0000
,
0000
0000
0000
0000
,
0100
0001
1000
0000
0000
0000
0010
0000
,
0100
0001
0010
0000
0000
0000
0100
0000
,
0010
0001
1000
0000
0000
0000
0010
0000
,
0100
0010
1000
0000
0001
0010
0100
0000
,
1000
0100
1000
0100
0010
0010
0010
0000
,
0001
0100
0001
0100
0010
0010
0010
0000
,
1000
0001
0100
0010
1000
0001
1000
0000
,
0100
0000
0010
0002
0003
1000
0000
0010
1000
0000
0001
0000
0100
0000
0000
0000
,
0010
0100
0001
0010
0100
1000
1100
0000
,
0100
1000
0010
0100
0001
1000
1001
0000
,
0010
0000
1000
0100
0000
0100
0000
0000
0010
0000
0001
0000
1001
0000
0000
0000
,
0001
0000
0100
0010
0000
0010
0000
0000
1000
0000
0001
0000
1001
0000
0000
0000
,
0200
0000
0000
0000
0310
0000
0100
0000
0001
0000
1000
0000
0020
0030
0000
0000
,
1000
0000
0001
0200
0300
0000
0001
0000
0010
0000
0100
0000
1000
0000
0000
0000
,
0001
0000
0100
0010
0000
0000
1000
0000
1000
0000
0001
0010
0001
0000
0000
0000
,
1000
0100
1000
0001
0100
0010
0110
0000
,
0001
0000
0100
0001
0100
0000
0001
1000
0000
0000
0100
0000
0100
0000
0000
0000
,
1000
0000
0010
1000
0010
0000
1000
0001
0000
0000
0010
0000
0010
0000
0000
0000
,
0001
0000
0100
0010
0100
0000
0001
1000
0000
0000
0100
0000
0100
0000
0000
0000
,
1000
0000
0001
0100
0001
0000
1000
0100
0000
0000
0010
0000
0010
0000
0000
0000
,
1001
0100
0010
1000
0100
0010
0001
1000
,
0010
0100
0010
0000
1000
0000
0001
0000
1000
0100
1000
0100
0000
0010
0000
0001
,
0000
0000
1000
0000
0001
0000
0100
0000
0010
1000
0010
0000
0100
0000
0001
1000
,
0000
0001
0000
0000
0100
0000
0010
0000
1000
0100
1000
0000
1100
0000
0000
0000
,
1001
0010
0100
0001
0010
0100
1000
0001
,
0100
0010
0100
0000
0001
0000
1000
0000
0001
0010
0001
0010
0000
0100
0000
1000
,
0000
0000
0001
0000
1000
0000
0010
0000
0100
0001
0100
0000
0010
0000
1000
0001
,
0000
1000
0000
0000
0010
0000
0100
0000
0001
0010
0001
0000
0011
0000
0000
0000
,
2000
0000
0000
0100
0000
0000
3020
0000
0000
0000
0100
0000
0130
0000
0000
0000
,
0002
0000
0000
0100
0000
0000
2003
0000
0000
0000
0010
0000
3010
0000
0000
0000
,
2000
0000
0000
0100
0000
0000
3002
0000
0000
0000
0100
0000
0103
0000
0000
0000
,
0200
0000
0000
0010
0000
0000
0302
0000
0000
0000
0010
0000
0013
0000
0000
0000
,
0200
0000
0000
2300
0000
0000
3002
0000
0000
0000
0103
0000
0010
0000
0000
0000
,
0200
0000
0000
0302
0000
0000
2003
0000
0000
0000
3100
0000
0010
0000
0000
0000
,
0002
0000
0000
0023
0000
0000
0230
0000
0000
0000
1300
0000
0001
0000
0000
0000
,
2000
0000
0000
3020
0000
0000
0230
0000
0000
0000
0301
0000
1000
0000
0000
0000
,
1100
0000
0100
1000
0000
1000
0002
0000
0000
0000
0100
0000
0103
0000
0000
0000
,
0101
0000
0001
1000
0000
1000
0200
0000
0000
0000
1000
0000
1300
0000
0000
0000
,
2000
0000
0000
0010
0000
0000
3002
0000
0000
0000
0100
0000
0103
0000
0000
0000
,
0002
0000
0000
0010
0000
0000
2003
0000
0000
0000
0100
0000
3100
0000
0000
0000
,
0000
0000
1000
0100
1000
0000
0001
1000
0000
0000
0001
0000
0001
0000
0000
0000
,
0000
0000
0001
0100
0001
0000
1000
0001
0000
0000
1000
0000
1000
0000
0000
0000
,
0000
0000
0010
1000
0010
0000
0100
0010
0000
0000
0100
0000
0100
0000
0000
0000
,
0000
0000
0001
0100
0001
0000
1000
0001
0000
0000
0010
0000
0010
0000
0000
0000
,
1100
0000
0100
0000
0010
0000
0001
0000
1000
0000
0010
0000
0100
0000
0001
1000
,
0001
0000
0100
0000
0010
0000
1000
0000
0100
0010
0100
0010
0000
0001
0000
1000
,
0000
0000
0010
0000
1000
0000
0001
0000
0100
0010
0100
0000
0001
0000
1000
0100
,
0000
0100
0000
0000
1000
0000
0001
0000
0100
0010
0100
0000
1001
0000
0000
0000
,
0011
0000
0010
0000
0100
0000
1000
0000
0001
0000
0100
0000
0010
0000
1000
0001
,
1000
0000
0010
0000
0100
0000
0001
0000
0010
0100
0010
0100
0000
1000
0000
0001
,
0000
0000
0100
0000
0001
0000
1000
0000
0010
0100
0010
0000
1000
0000
0001
0010
,
0000
0010
0000
0000
0001
0000
1000
0000
0010
0100
0010
0000
1001
0000
0000
0000
;

//---------------dance-single - ----------------
#NOTES:
     dance-single:
     :
     Challenge:
     9:
     0.542455,0.525193,0.144931,0.079712,0.644942,493.000000,20.000000,11.000000,0.000000,0.000000,0.000000,0.542455,0.525193,0.144931,0.079712,0.644942,493.000000,20.000000,11.000000,0.000000,0.000000,0.000000:
0000
0000
0000
0000
,
0000
0000
0000
0000
,
0000
0000
0000
0000
,
0000
0000
0000
0000
,
0100
0000
0001
0000
1000
0000
0100
0010
0000
0010
0000
0010
0001
0000
1000
0100
,
0000
1000
0001
0000
1000
0000
0100
0000
1000
0100
0010
0001
0000
1000
0000
0001
,
0000
0000
0100
0000
0100
0000
0010
0000
0100
0001
1000
0000
0001
0000
0010
0100
,
0000
0100
0000
0000
0010
0000
0001
0000
1000
0001
1000
0000
1001
0000
0000
0000
,
0101
0000
0100
0010
0000
0010
0000
1000
0100
0000
0010
0000
0001
1000
0001
0100
,
0000
0100
0000
0010
0000
0010
0000
1000
0100
0000
1000
0000
0001
0100
0001
0000
,
1000
0000
0100
0010
0000
0010
0000
0001
1000
0000
0001
0000
0010
0100
0000
0000
,
1000
0000
0001
0200
0300
0010
0000
1000
0001
0000
1000
0000
0100
0010
0100
0010
,
0001
0000
1000
0001
0000
1000
0100
0010
0001
0000
1000
0000
1001
0000
0000
0000
,
0010
0000
0001
0100
0000
0100
0000
0010
1000
0000
0001
0000
1001
0000
0000
0000
,
1000
0000
0001
0100
0000
0010
0000
1000
0100
0000
0010
0000
0001
0000
0000
0000
,
1000
0000
0100
1000
0000
0001
0100
0000
0010
0000
1000
0000
0102
0000
0000
0000
,
1003
0000
0100
0000
1000
0001
0100
0000
0010
0000
1000
0000
0002
0003
0000
0010
,
0100
0010
0001
2000
3000
0001
0000
0100
0000
0010
0000
1000
0001
0000
1000
0100
,
1000
0000
0001
0100
0000
0000
0001
1000
0001
0000
0100
0010
0100
0000
0010
0000
,
1000
0000
0001
0100
0000
0010
0000
0000
1000
0000
0001
0010
0100
1000
0100
1000
,
0001
0000
0100
0001
1000
0000
0100
1000
0001
0000
0010
0200
0000
0000
1300
0000
,
0001
0000
1000
0100
0010
0000
0001
1000
0010
0000
0100
0020
0000
0000
1030
0000
,
1000
0000
0010
1000
0001
0000
0010
0001
1000
0000
0100
0020
0000
0000
0031
0000
,
1000
0000
0001
0010
0100
0000
1000
0001
0100
0000
0010
0200
0000
0000
0301
0000
,
0101
0000
1001
0000
1100
0000
1000
0001
0000
0100
0000
0010
1000
0000
0001
0100
,
0000
0100
0010
0000
1000
0000
0001
0000
1000
0100
0010
0001
0000
1000
0000
0001
,
0100
0000
0010
0000
1000
0000
0001
0000
0010
0100
0010
0000
0001
0000
1000
0010
,
0000
0010
0100
0000
0001
0000
1000
0000
0100
0010
0001
0000
0100
0010
0100
0010
,
1010
0000
1001
0000
0011
0000
0001
1000
0000
0010
0000
0100
0001
0000
1000
0010
,
0000
0010
0100
0000
0001
0000
1000
0000
0001
0010
0100
1000
0000
0001
0000
1000
,
0010
0000
0100
0000
0001
0000
1000
0000
0100
0010
0100
0000
1000
0000
0001
0100
,
0000
0100
0010
0000
1000
0000
0001
0000
0010
0100
1000
0000
0010
0000
0000
0000
,
0100
0000
0100
0001
0000
0001
1000
0000
0000
0000
0000
0000
0100
0000
1000
0100
,
1000
0000
0001
0100
0000
0100
0010
0000
0000
0000
0000
0100
0001
0000
1000
0000
,
0100
0000
1000
0001
0000
0001
0100
0000
0000
0000
0001
0100
0001
1000
0100
0000
,
0010
0000
0010
0001
0000
0001
1000
0000
0000
0010
1000
0010
1000
0100
0010
0000
,
0001
0000
0001
1000
0000
1000
0100
0000
0000
0000
0000
1000
0100
0000
1000
0000
,
0010
0000
0010
0100
0000
0100
0001
0000
0000
0000
0000
0000
0100
0000
0001
1000
,
0001
0000
0100
0010
0000
0010
1000
0000
0000
0000
0000
0000
0010
0000
1000
0000
,
0100
0000
0100
0010
0000
0010
0001
0000
0000
0000
0000
0000
1000
0000
0000
0010
,
0100
0000
0001
1000
0000
0100
0010
0000
0000
0000
0001
0010
0100
1000
0001
0000
,
1000
0000
0010
0100
0000
0001
1000
0000
0000
0000
0010
0100
0001
0000
1000
0100
,
0010
0000
0001
1000
0000
0010
0100
0000
0000
0000
0000
0000
0001
0000
0000
0000
,
0100
0000
0010
1000
0000
0001
0010
0000
0000
0000
0000
0000
1001
0000
0000
0000
,
0000
0000
1000
0100
1000
0000
0100
1000
0001
0000
1000
0100
2000
0000
3001
0000
,
1000
0000
0001
0100
0001
0000
0100
0001
1000
0000
0001
0100
0002
0000
1003
0000
,
0010
0000
0100
0001
0010
0000
0100
1000
0010
0000
0100
0010
0100
0000
0110
0000
,
0001
0000
0100
0010
1000
0000
0100
0010
0001
0000
1000
0002
0000
0000
1003
0000
,
1001
0000
1100
0000
1001
0000
0100
0001
0000
1000
0000
0100
0010
0000
0001
1000
,
0000
0010
0100
0000
0001
0000
1000
0000
0001
0010
0100
1000
0001
1000
0010
0000
,
0100
0000
0001
0000
1000
0000
0100
0000
0010
0001
0010
0000
0100
0000
1000
0010
,
0000
0010
0100
0000
0001
0000
1000
0100
0010
0001
1000
0000
0001
1000
0001
1000
,
1001
0000
0011
0000
1001
0000
0010
1000
0000
0001
0000
0010
0100
0000
1000
0001
,
0000
0100
0010
0000
1000
0000
0001
0000
1000
0100
0010
0001
1000
0001
0100
0000
,
0010
0000
1000
0000
0001
0000
0010
0000
0100
1000
0100
0000
0010
0000
0001
0100
,
0000
0100
0010
0000
1000
0000
0001
0010
0100
1000
0001
0000
0101
0000
0000
0000
;

//---------------dance-single - ----------------
#NOTES:
     dance-single:
     :
     Medium:
     5:
     0.294002,0.323195,0.159424,0.217396,0.000000,232.000000,22.000000,30.000000,0.000000,0.000000,0.000000,0.294002,0.323195,0.159424,0.217396,0.000000,232.000000,22.000000,30.000000,0.000000,0.000000,0.000000:
0000
0000
0000
0000
,
0000
0000
0000
0000
,
0000
0000
0000
0000
,
0000
0000
0000
0000
,
0200
0301
0000
1000
,
0020
1030
0000
0001
,
0020
0130
0000
0010
,
0002
0000
1003
0000
0010
0100
0001
0000
,
2100
0000
3001
0000
1000
0100
1000
0000
,
0102
0000
1003
0000
0001
0100
0001
0000
,
0020
0230
2300
3001
,
2000
3020
0230
0301
,
1000
0100
1000
0000
0001
0100
0001
0000
,
0010
0000
0010
0000
0001
0010
0100
0000
,
1000
0000
1000
0000
0100
1000
0001
0000
,
0100
0000
0100
0000
0010
0100
0001
0000
,
2000
0100
0010
3001
,
0002
0100
0010
1003
,
0001
1000
0001
0000
0100
0100
0100
0000
,
0010
0000
1000
0000
0100
0010
0001
0000
,
0000
1100
1010
0002
,
0003
0101
1001
2000
,
3000
1010
0011
0200
,
0300
0101
1100
0001
,
1100
0100
0010
0000
0001
0000
1000
0000
,
0010
0010
0010
0000
0100
0100
0100
0000
,
0001
0000
1000
0000
0001
0010
0001
0000
,
1000
0000
0001
0010
0100
1000
0001
0000
,
0011
0010
0100
0000
1000
0000
0001
0000
,
0100
0100
0100
0000
0010
0010
0010
0000
,
1000
0000
0001
0000
1000
0100
1000
0000
,
0001
0000
1000
0100
0010
0001
1000
0000
,
0002
0100
0000
0103
,
2000
0100
0000
3100
,
0002
0010
0000
0013
,
2000
0010
0000
3010
,
0002
0100
0010
0103
,
2000
0100
0010
3100
,
0002
0010
0100
0013
,
2000
0010
0100
3010
,
0001
0000
1000
0000
0010
0100
0010
0000
,
1000
0000
0001
0000
0010
0100
0010
0000
,
0002
0000
1003
0000
0010
0100
0010
0000
,
2000
0000
3001
0000
0010
0100
0010
0000
,
0000
0011
0101
2000
,
3000
1100
1010
0002
,
0003
0101
1001
0020
,
0030
1100
1001
0010
,
0011
0010
0100
0000
1000
0000
0001
0000
,
0100
0010
0100
0000
0001
1000
0001
0000
,
0010
0000
0001
0000
1000
1000
1000
0000
,
0100
0000
1000
0100
0010
0001
1000
0000
,
1100
0100
0010
0000
0001
0000
1000
0000
,
0010
0100
0010
0000
1000
0001
1000
0000
,
0100
0000
1000
0000
0001
0001
0001
0000
,
0010
0000
0001
0010
0100
1000
0001
0000
;

//---------------dance-single - ----------------
#NOTES:
     dance-single:
     :
     Easy:
     3:
     0.170811,0.201997,0.036233,0.123191,0.000000,143.000000,5.000000,17.000000,0.000000,0.000000,0.000000,0.170811,0.201997,0.036233,0.123191,0.000000,143.000000,5.000000,17.000000,0.000000,0.000000,0.000000:
0000
0000
0000
0000
,
0000
0000
0000
0000
,
0000
0000
0000
0000
,
0000
0000
0000
0000
,
1000
0000
0001
0000
,
0100
0100
0000
0000
,
0001
0000
1000
0000
,
0010
0010
0000
0000
,
1000
0100
0010
0010
,
0001
1000
0010
0000
,
0100
0001
1000
1000
,
0010
1000
0001
0000
,
0001
0010
0001
0000
,
1000
0010
1000
0000
,
0001
0100
0010
0010
,
1000
0100
0010
0000
,
0002
0000
0003
1000
,
0010
0010
0100
0001
,
0010
0000
0010
0000
,
0100
0100
0100
0000
,
0000
2000
3000
1000
,
0000
0002
0003
0001
,
0000
0200
0300
0100
,
0020
0000
0000
0030
,
1001
1000
0100
0100
,
0010
0010
0001
0001
,
1000
1000
0100
0100
,
0010
0010
0001
0001
,
1001
0001
0100
0100
,
0010
0010
1000
1000
,
0001
0001
0100
0100
,
0010
0010
1000
0000
,
0200
0000
0000
0300
,
0020
0000
0000
0030
,
0002
0000
0000
0003
,
2000
0000
0000
3000
,
0020
0000
0000
0030
,
0200
0000
0000
0300
,
0002
0000
0000
0003
,
2000
0000
0000
3000
,
0100
0100
0000
0100
,
0010
0010
0000
0010
,
0001
0001
0000
0001
,
1000
1000
0000
1000
,
0000
0020
0030
0010
,
0000
2000
3000
1000
,
0000
0002
0003
0001
,
0200
0000
0000
0300
,
1001
0001
0010
0010
,
0100
0100
1000
1000
,
0001
0001
0010
0010
,
0100
0100
1000
1000
,
1001
1000
0010
0010
,
0100
0100
0001
0001
,
1000
1000
0010
0010
,
0100
0100
0001
1001
;

//---------------dance-single - ----------------
#NOTES:
     dance-single:
     :
     Beginner:
     1:
     0.089029,0.121198,0.028986,0.000000,0.000000,82.000000,4.000000,0.000000,0.000000,0.000000,0.000000,0.089029,0.121198,0.028986,0.000000,0.000000,82.000000,4.000000,0.000000,0.000000,0.000000,0.000000:
0000
0000
0000
0000
,
0000
0000
0000
0000
,
0000
0000
0000
0000
,
0000
0000
0000
0000
,
0100
0000
0000
0000
,
0001
0000
0000
0000
,
1000
0000
0000
0000
,
0010
0000
0000
0000
,
1001
0000
0100
0000
,
0010
0000
0000
0000
,
1000
0000
0001
0000
,
0010
0000
0000
0000
,
0001
0000
1000
0000
,
0100
0000
0000
0000
,
1000
0000
0010
0000
,
0100
0000
0000
0000
,
0001
0000
0000
0000
,
1000
0000
0000
0000
,
0010
0000
0010
0000
,
0100
0000
0100
0000
,
0000
0001
0001
0000
,
0000
1000
1000
0000
,
0000
0010
0010
0000
,
0000
0100
0100
0000
,
1001
0000
0000
0000
,
0010
0000
0010
0000
,
1000
0000
0000
0000
,
0001
0001
0001
0000
,
1000
0000
0000
0000
,
0100
0000
0100
0000
,
0010
0000
0000
0000
,
0001
0001
0001
0000
,
1000
0000
0000
0000
,
0010
0000
0000
0000
,
0100
0000
0000
0000
,
0001
0000
0000
0000
,
0010
0000
0000
0000
,
0100
0000
0000
0000
,
1000
0000
0000
0000
,
0001
0000
0000
0000
,
0100
0100
0000
0000
,
0010
0010
0000
0000
,
1000
0000
0000
0000
,
0001
0000
0000
1001
,
0000
0100
0100
0000
,
0000
1000
1000
0000
,
0000
0001
0001
0000
,
0000
0010
0010
0000
,
1001
0000
0000
0000
,
0100
0000
0100
0000
,
0010
0000
0000
0000
,
1000
1000
1000
0000
,
0001
0000
0000
0000
,
0010
0000
0010
0000
,
0001
0000
0000
0000
,
0100
0100
0100
0100
;

//---------------dance-double - ----------------
#NOTES:
     dance-double:
     :
     Challenge:
     8:
     0.458602,0.504993,0.065219,0.086958,0.510881,422.000000,9.000000,12.000000,0.000000,0.000000,0.000000,0.458602,0.504993,0.065219,0.086958,0.510881,422.000000,9.000000,12.000000,0.000000,0.000000,0.000000:
// measure 0
00000000
00000000
00000000
00000000
,  // measure 1
00000000
00000000
00000000
00000000
,  // measure 2
00000000
00000000
00000000
00000000
,  // measure 3
00000000
00000000
00000000
00000000
,  // measure 4
10000000
00000000
01000000
00000000
10000000
00000000
00100000
01000000
00000000
00100000
00000000
10000000
00010000
00000000
10000000
01000000
,  // measure 5
00000000
00100000
00010000
00000000
10000000
00000000
00100000
00000000
01000000
00010000
01000000
00010000
00000000
10000000
00000000
00100000
,  // measure 6
00000000
00000000
10000000
00000000
00010000
00000000
00100000
00000000
01000000
00100000
01000000
00000000
00100000
00000000
00010000
01000000
,  // measure 7
00000000
00100000
00000000
00000000
10000000
00000000
00010000
00000000
00100000
01000000
00100000
00000000
00010000
00000000
00000000
00000000
,  // measure 8
00100000
00000000
00000000
00001000
00000000
00010000
00000000
00000000
00000100
00000000
00001000
00000000
00000010
00000000
00000000
00000000
,  // measure 9
00000100
00000000
00000000
00000001
00000000
00001000
00000000
00000000
00000010
00000000
00001000
00000000
00000100
00000000
00000000
00000000
,  // measure 10
00010000
00000000
00000000
00000100
00000000
00010000
00000000
00000000
00001000
00000000
00100000
00000000
00010000
00000000
00000000
00000000
,  // measure 11
10000000
00000000
00100000
01000000
00000000
01000000
00000000
00010000
10000000
00000000
00100000
00000000
01000000
00000000
00000000
00000000
,  // measure 12
00010000
00000000
10000000
01000000
00000000
00100000
00010000
00000000
10000000
00000000
00100000
00000000
01000000
00000000
00000000
00000000
,  // measure 13
00010000
00000000
01000000
00010000
00000000
00100000
00000000
00010000
00100000
00000000
00001000
00000000
00010000
00000000
00000000
00000000
,  // measure 14
00000100
00000000
00001000
00000010
00000000
00000100
00000000
00000100
00000001
00000000
00001000
00000000
00000010
00000000
00000000
00000000
,  // measure 15
00001000
00000000
00000001
00000010
00000000
00000100
00001000
00000000
00000001
00000000
00000100
00000000
00000100
00000000
00000000
00000000
,  // measure 16
00000000
00000000
00000000
00000000
00001001
00000000
00001000
00000000
00000010
00001000
00000100
00000000
00010000
00000000
00000000
00000000
,  // measure 17
00000100
00000000
00001000
00000010
00000000
00000100
00000000
00000100
00000000
00000010
00000000
00001000
00000100
00000000
00010000
00000000
,  // measure 18
00001000
00000000
00100000
00010000
00100000
00000000
00001000
00000000
00100000
00000000
00010000
10000000
00010000
00000000
00000000
00000000
,  // measure 19
10000000
00000000
00100000
01000000
00100000
00000000
01000000
00000000
00010000
00000000
10000000
00000000
00100000
01000000
00100000
01000000
,  // measure 20
00010000
00000000
01000000
00100000
10000000
00000000
00100000
01000000
00010000
00000000
10000000
02000000
00000000
00000000
03100000
00000000
,  // measure 21
00010000
00000000
00100000
00010000
00100000
00000000
00010000
00100000
00001000
00000000
00010000
00000200
00000000
00000000
00001300
00000000
,  // measure 22
00000001
00000000
00001000
00000010
00000100
00000000
00000001
00001000
00000010
00000000
00000100
00000002
00000000
00000000
00001003
00000000
,  // measure 23
00001000
00000000
00000010
00000100
00000010
00000000
00001000
00000100
00000000
00000000
00010000
00002000
00000000
00000000
00103000
00000000
,  // measure 24
00110000
00000000
00100000
00000000
00010000
00000000
10000000
00100000
00000000
01000000
00000000
01000000
00000000
00000000
00010000
10000000
,  // measure 25
00000000
00010000
10000000
00000000
00100000
00000000
01000000
00000000
00010000
00100000
00001000
00010000
00000000
00000100
00000000
00001000
,  // measure 26
00000000
00000000
00000010
00000000
00000010
00000000
00000100
00000000
00000001
00001000
00000001
00000000
00001000
00000000
00000010
00000100
,  // measure 27
00000000
00000100
00000000
00000000
00000001
00000000
00001000
00000000
00000100
00001000
00000001
00000000
00000011
00000000
00000000
00000000
,  // measure 28
00001010
00000000
00000010
00000000
00000110
00000000
00000100
00000001
00000000
00001000
00000000
00000010
00000000
00000000
00001000
00000100
,  // measure 29
00000000
00000010
00000001
00000000
00001000
00000000
00000010
00000000
00001000
00000100
00010000
00001000
00000000
00100000
00000000
00100000
,  // measure 30
00000000
00000000
00010000
00000000
00100000
00000000
00001000
00000000
00100000
00010000
10000000
00000000
00010000
00000000
10000000
00100000
,  // measure 31
00000000
00100000
00000000
00000000
01000000
00000000
01000000
00000000
00100000
10000000
00100000
00000000
01000000
00000000
00000000
00000000
,  // measure 32
00010000
00000000
00000000
01000000
00000000
00000000
00002000
00000000
00000000
00000000
00000000
00000000
00013000
00000000
00000000
00000000
,  // measure 33
00010000
00000000
00000000
00000100
00000000
00000000
00002000
00000000
00000000
00000000
00000000
00000000
00003010
00000000
00000010
00000000
,  // measure 34
00000100
00000000
00000000
00000001
00000000
00000000
00001000
00000000
00000000
00000000
00000001
00000010
00000001
00000010
00000001
00000000
,  // measure 35
00000100
00000000
00000000
00000010
00000000
00000000
00001000
00000000
00000000
00000000
00000100
00010000
00000100
00010000
00000100
00000000
,  // measure 36
00010000
00000000
00000000
00001000
00000000
00000000
00200000
00000000
00000000
00000000
00000000
00000000
00310000
00000000
10000000
00000000
,  // measure 37
00100000
00000000
00000000
01000000
00000000
00000000
00200000
00000000
00000000
00000000
00000000
00000000
10300000
00000000
00000000
00000000
,  // measure 38
00010000
00000000
00000000
10000000
00000000
00000000
02000000
00000000
00000000
00000000
00000000
03000000
10000000
00000000
10000000
00000000
,  // measure 39
00010000
00000000
00000000
00100000
00000000
00000000
00002000
00000000
00000000
00000000
00000000
00000000
00013000
00000000
00000000
00000000
,  // measure 40
00000100
00000000
00001000
00000100
00000000
00000000
00001000
00000000
00000000
00000000
00000001
00000100
00000000
00000000
00000001
00000000
,  // measure 41
00000000
00000000
00001000
00000010
00000000
00000000
00001000
00000000
00000000
00000000
00000001
00000010
00000001
00000000
00001000
00000000
,  // measure 42
00000010
00000000
00010000
00001000
00000000
00000000
00100000
00000000
00000000
00000000
00001000
00010000
00000000
00000000
00000100
00000000
,  // measure 43
00000000
00000000
00001000
00000100
00000000
00000000
00010000
00000000
00000000
00000000
00001000
00000000
02000000
00000000
00000000
00000000
,  // measure 44
03000000
00000000
00100000
10000000
00100000
00000000
10000000
01000000
10000000
00000000
00010000
10000000
00010000
00000000
01000000
00000000
,  // measure 45
00000000
00000000
00010000
01000000
00010000
00000000
00100000
00010000
00100000
00000000
00001000
00100000
00001000
00000000
00010000
00000000
,  // measure 46
00000000
00000000
00000100
00010000
00000100
00000000
00001000
00000001
00001000
00000000
00000010
00001000
00000010
00000000
00000100
00000000
,  // measure 47
00000000
00000000
00000001
00000100
00000001
00000000
00001000
00000100
00000000
00000000
00001000
00000002
00000000
00000000
00000013
00000000
,  // measure 48
00000011
00000000
00000110
00000000
00001100
00000000
00000001
00000100
00000000
00000010
00000000
00001000
00000001
00000000
00001000
00000100
,  // measure 49
00000000
00000010
00000001
00000000
00001000
00000000
00000001
00000000
00000100
00000010
00001000
00000100
00000000
00010000
00000000
00001000
,  // measure 50
00000000
00000000
00010000
00000000
00001000
00000000
00100000
00000000
00010000
10000000
00010000
00000000
01000000
00000000
00100000
10000000
,  // measure 51
00000000
10000000
00010000
00000000
10000000
00000000
00010000
00000000
00100000
00010000
10000000
00000000
00010000
00100000
01000000
10000000
,  // measure 52
10100000
00000000
00100000
00000000
01000000
00000000
00010000
00100000
00000000
00100000
00000000
00010000
10000000
00000000
00100000
01000000
,  // measure 53
00000000
01000000
00010000
00000000
10000000
00000000
00100000
00000000
10000000
01000000
00100000
00010000
00000000
01000000
00000000
00010000
,  // measure 54
00000000
00000000
00100000
00000000
00100000
00000000
00001000
00000000
00100000
00010000
00100000
00000000
00001000
00000000
00010000
00000100
,  // measure 55
00000000
00000100
00000000
00000000
00001000
00000000
00000010
00001000
00000100
00010000
00001000
00000000
00100000
00000000
00000000
00000000
;
