#VERSION:0.82;
#TITLE:This Is What You Came For;
#SUBTITLE:;
#ARTIST:Calvin Harris feat. Rihanna;
#TITLETRANSLIT:;
#SUBTITLETRANSLIT:;
#ARTISTTRANSLIT:;
#GENRE:EDM;
#ORIGIN:;
#CREDIT:;
#BANNER:This Is What You Came For.png;
#BACKGROUND:This Is What You Came For-bg.png;
#PREVIEWVID:;
#JACKET:jacket.png;
#CDIMAGE:;
#DISCIMAGE:;
#LYRICSPATH:;
#CDTITLE:;
#MUSIC:This Is What You Came For.ogg;
#OFFSET:0.010000;
#SAMPLESTART:61.944233;
#SAMPLELENGTH:13.714000;
#SELECTABLE:YES;
#BPMS:0.000=124.000,
160.000=62.000,
176.000=124.000;
#STOPS:;
#DELAYS:;
#WARPS:;
#TIMESIGNATURES:0.000=4=4;
#TICKCOUNTS:0.000=4;
#COMBOS:0.000=1;
#SPEEDS:0.000=1.000=0.000=0;
#SCROLLS:0.000=1.000;
#FAKES:;
#LABELS:0.000=Song Start;
#BGCHANGES:8.000=This Is What You Came For.avi=1.000=0=0=1=====,
99999=-nosongbg-=1.000=0=0=0 // don't automatically add -songbackground-
;
#KEYSOUNDS:;
#ATTACKS:
;

//---------------dance-single - ----------------
#NOTEDATA:;
#CHARTNAME:;
#STEPSTYPE:dance-single;
#DESCRIPTION:;
#CHARTSTYLE:;
#DIFFICULTY:Hard;
#METER:8;
#RADARVALUES:0.496226,0.629944,0.164050,0.149785,0.410125,443.000000,23.000000,21.000000,0.000000,0.000000,0.000000,0.000000,0.000000,0.496226,0.629944,0.164050,0.149785,0.410125,443.000000,23.000000,21.000000,0.000000,0.000000,0.000000,0.000000,0.000000;
#CREDIT:Ben Speirs;
#NOTES:
0000
0000
0000
0000
,
0000
0000
0000
0000
,
0000
0000
0000
0000
,
0000
0000
0000
0000
,
1000
0000
0000
0100
0000
0000
1000
0000
,
0001
0000
0000
0100
0000
0000
0001
0000
,
1000
0010
0100
0001
0010
0100
2000
0000
,
3001
0000
1000
0100
0010
0001
1000
0000
,
1100
0100
1000
1010
,
0101
0010
0001
0101
,
1010
0001
1000
1100
,
0011
0000
1000
0000
0001
0010
0100
1000
,
0001
0000
0101
0000
0100
0001
1000
0000
,
0100
0000
1100
0000
1000
0000
0010
1000
,
0002
0000
0103
0000
0001
0000
0100
0001
,
2000
0000
3100
0000
1000
0001
0100
0000
,
1001
0000
0000
1000
0000
0000
0001
0000
0000
0010
0000
0000
0001
0000
0000
0000
,
1000
0100
0010
0001
1000
0100
1000
0000
,
0010
0000
0000
1000
0000
0000
0001
0000
0000
0100
0000
0000
0001
0000
0000
0000
,
2000
0000
3100
0010
0002
0000
0103
0010
,
1000
0000
0000
0001
0000
0000
0010
0000
0000
0001
0000
0000
0100
0000
0000
0000
,
0010
0000
0000
0010
0000
0000
0100
0000
0000
0100
0000
0000
0001
0000
0000
0000
,
1000
0100
0010
0001
0100
1000
0100
0001
,
1000
0000
0001
0010
0100
1000
0010
0000
,
1001
0000
0000
1000
0000
0000
0010
0000
0000
0100
0000
0100
0001
0000
0000
0000
,
1000
0000
0000
0001
0000
0000
0010
0000
0000
0001
0000
0000
1000
0100
1000
0000
,
0001
0000
0000
1000
0000
0000
0010
0000
0000
0100
0000
0100
0001
0000
0000
0000
,
0100
0000
0000
0001
0000
0000
1000
0000
0000
0010
0000
0000
1000
0100
1000
0000
,
0001
0000
0000
0010
0000
0000
0100
0000
0000
1000
0000
0010
0100
0000
0001
0000
,
1000
0000
0000
0010
0000
0000
1000
0000
0000
0001
0000
0000
0010
0001
0010
0000
,
0002
0000
0000
0000
0103
0000
0000
0000
0001
0000
0000
0000
1000
0100
1000
0000
,
0020
0000
0000
0000
1030
0000
0000
0000
0001
0000
1000
0000
0010
0100
0000
0100
,
0001
0000
0100
0010
1000
0000
1001
0000
,
1100
0000
0000
0100
1000
0000
0010
0000
0100
0001
0000
0001
1000
0000
0010
0000
,
0100
0000
0000
0001
0100
0000
0010
0000
1000
0100
0000
0100
1000
0000
0001
0000
,
0010
0000
0000
0001
1000
0000
0010
0000
0100
0001
0000
0001
1000
0100
1000
0000
,
0010
0000
0010
0100
0000
0000
0001
0000
0001
1000
0000
0000
1100
0000
0000
0000
,
1000
0000
1000
0001
0000
0000
0100
0000
0100
0010
0000
0000
1000
0001
1000
0000
,
0020
0000
0000
0000
0130
0000
0001
0000
0100
0000
0010
0000
1000
0100
1000
0000
,
0002
0000
0000
0000
0013
0000
0001
0000
1000
0000
1000
0000
0001
0100
0000
0100
,
0020
0000
1000
0000
0200
0000
0330
0000
0010
0100
0010
0100
0001
0000
1000
0000
,
0200
0000
0000
0000
1000
0000
0000
0000
0020
0300
0000
0000
0030
0000
0000
0000
0002
0000
0000
0000
0013
0000
0001
0000
2000
0000
0000
0000
3100
0000
1000
0000
,
0010
0010
0100
0100
0001
1000
0001
1000
,
0020
0000
0130
0001
2000
0000
3100
0010
0002
0000
0103
0000
0010
0000
1000
0000
,
1100
0000
0000
0100
0000
0000
1000
0000
0000
0010
0000
0100
0001
0000
0000
0000
,
0100
0000
0000
0001
0000
0000
1000
0000
0000
0010
0000
1000
0100
0000
0000
0010
,
0001
0000
0000
1000
0000
0000
0010
0000
0000
0100
0000
0000
1001
0000
0000
0000
,
0001
0000
0000
0100
0000
0000
0010
0000
0000
1000
0000
0000
1010
0000
0000
0000
,
0001
1000
0010
0100
0001
1000
1100
0000
,
0010
1000
0100
0010
0001
1000
1001
0000
,
0001
0100
0010
1000
0100
0010
0011
0000
,
0001
1000
0001
1000
0001
1000
0001
1000
0010
0000
0100
0000
0001
0000
0000
0000
,
1100
0000
0000
0100
1000
0000
0010
0000
0100
0001
0000
0001
1000
0000
0010
0000
,
0100
0000
0000
0100
0001
0000
1000
0000
0100
0010
0000
0010
0001
1000
0001
0000
,
0100
0000
0000
0100
0010
0000
1000
0000
0001
0010
0000
0010
0100
0000
1000
0000
,
0001
0000
0000
0001
0100
0000
0010
0000
1000
0100
0000
0100
1000
0001
1000
0000
,
0010
0000
0010
0100
0000
0100
0001
0000
0001
1000
0000
1000
0100
0000
0000
0000
,
0010
0000
0010
0001
0000
0001
1000
0000
1000
0010
0000
0010
1000
0100
1000
0000
,
2100
0000
0000
0000
3001
0000
1000
0000
0100
0000
1000
0000
0001
0100
0001
0000
,
0102
0000
0000
0000
1003
0000
0001
0000
0100
0000
0100
0000
0010
1000
0000
0001
,
0020
1000
0100
0031
,
1000
0000
0000
0001
0000
0000
0100
0000
0000
0010
0000
0000
1000
0100
1000
0000
,
0010
0000
0000
0100
0000
0000
0001
0000
0000
1000
0000
0001
0100
0000
0010
0000
,
1000
0000
0000
0001
0000
0000
1000
0000
0000
0100
0000
0000
0010
0001
0010
0000
,
0001
0000
0000
0010
0000
0000
1000
0000
0000
0010
0000
0001
0100
0000
0010
0000
,
1000
0000
0000
0100
0000
0000
0001
0000
0000
0100
0000
0000
1000
0010
1000
0000
,
0001
0000
0000
0001
0100
0000
0010
0000
1000
0001
0000
1000
0001
0000
0000
0000
,
1000
0000
0000
1000
0100
0000
0010
0000
0001
0000
0001
0000
1000
0001
0000
0100
;

//---------------dance-double - ----------------
#NOTEDATA:;
#CHARTNAME:;
#STEPSTYPE:dance-double;
#DESCRIPTION:;
#CHARTSTYLE:;
#DIFFICULTY:Challenge;
#METER:8;
#RADARVALUES:0.519662,0.726858,0.078459,0.242509,0.406559,465.000000,11.000000,34.000000,0.000000,0.000000,0.000000,0.000000,0.000000,0.519662,0.726858,0.078459,0.242509,0.406559,465.000000,11.000000,34.000000,0.000000,0.000000,0.000000,0.000000,0.000000;
#CREDIT:Ben Speirs;
#NOTES:
00000000
00000000
00000000
00000000
,
00000000
00000000
00000000
00000000
,
00000000
00000000
00000000
00000000
,
00000000
00000000
00000000
00000000
,
00000001
00000100
00000000
00000001
00000100
00000000
00000001
00000000
,
00001000
00000100
00000000
00001000
00000100
00000000
00001000
00000000
,
00000001
00000010
00000100
00001000
00000010
00010000
00002000
00000000
,
00013000
00000000
00001000
00010000
00001000
00010000
00100000
00000000
,
10000000
10100000
00010000
00110000
,
10000000
11000000
00010000
01010000
,
20010000
00000000
30100000
00000000
10000000
00010000
00100000
00000000
,
10020000
00000000
00130000
00000000
10000000
00010000
00100000
00000000
,
00010000
00000000
00100000
00000000
00001000
00010000
00000100
00001000
,
00000010
00000000
00000100
00000000
00000001
00000100
00000010
00001000
,
00000200
00000000
00000310
00000000
00000010
00000001
00001000
00000010
,
00000200
00000000
00000310
00000000
00000100
00000010
00001000
00000000
,
00001100
00000000
00000000
00000100
00000000
00000000
00001000
00000000
00000000
00000010
00000000
00000000
00000100
00000000
00000000
00000000
,
00000001
00000010
00000100
00001000
00000200
00000000
00010300
00000000
,
00001000
00000000
00000000
00010000
00000000
00000000
00001000
00000000
00000000
00100000
00000000
00000000
00010000
00000000
00000000
00000000
,
20000000
00000000
30100000
10000000
02000000
00000000
03100000
00010000
,
01000000
00000000
00000000
01000000
00000000
00000000
00010000
00000000
00000000
10000000
00000000
00000000
00100000
00000000
00000000
00000000
,
10000000
00000000
00000000
10000000
00000000
00000000
01000000
00000000
00000000
10000000
00000000
00000000
00010000
00000000
00000000
00000000
,
10000000
01000000
00100000
00010000
01000000
00010000
00200000
00000000
,
00301000
00100000
00001000
00010000
00000100
00001000
00000010
00000000
,
00001001
00000000
00000000
00001000
00000000
00000000
00000001
00000000
00000000
00000100
00000000
00000100
00000010
00000000
00000000
00000000
,
00001000
00000000
00000000
00000010
00000000
00000000
00000100
00000000
00000000
00000001
00000000
00000000
00001000
00000100
00001000
00000000
,
00000100
00000000
00000000
00010000
00000000
00000000
00001000
00000000
00000000
00010000
00000000
00010000
00100000
00000000
00000000
00000000
,
10000000
00000000
00000000
00100000
00000000
00000000
01000000
00000000
00000000
00010000
00000000
00000000
10000000
01000000
10000000
00000000
,
00010000
00000000
00000000
00100000
00000000
00000000
00001000
00000000
00000000
00010000
00000000
00000000
00000100
00000000
00000000
00000000
,
00001000
00000000
00000000
00000010
00000000
00000000
00000100
00000000
00000000
00000001
00000000
00000000
00001000
00000001
00001000
00000000
,
00000020
00000000
00000000
00000000
00000130
00000000
00000000
00000000
00000001
00000000
00001000
00000000
00000001
00001000
00000001
00000000
,
00000020
00000000
00000000
00000000
00000031
00000000
00000000
00000000
00001000
00000000
00000100
00000000
00000010
00000001
00000000
00000001
,
00002000
00000000
00003010
00000100
00000002
00000000
00000103
00000000
,
00001001
00000000
00001000
00000100
00000000
00000000
00001000
00000000
00000010
00000000
00000100
00000000
00000001
00000000
00000000
00000000
,
00001000
00000000
00001000
00000100
00000000
00000000
00010000
00000000
00010000
00000000
00000100
00000000
00001000
00000000
00000000
00000000
,
00000010
00000000
00000010
00000100
00000000
00000000
00000001
00000000
00000100
00000000
00001000
00000000
00010000
00001000
00010000
00000000
,
00001000
00000000
00000000
00010000
00000000
00000000
00100000
00000000
00000000
10000000
00000000
10000000
01000000
00000000
00100000
00000000
,
00010000
00000000
00000000
10000000
00000000
00000000
00100000
00000000
00000000
01000000
00000000
01000000
00010000
10000000
00010000
00000000
,
20000000
00000000
00000000
00000000
31000000
00000000
10000000
00000000
00100000
00000000
01000000
00000000
00010000
10000000
00010000
00000000
,
02000000
00000000
00000000
00000000
03010000
00000000
10000000
00000000
00100000
00000000
10000000
00000000
00010000
00100000
00000000
00100000
,
00002000
00000000
00010000
00000000
00203000
00000000
00000000
00000000
00310000
00100000
00001000
00010000
00000200
00000000
00000320
00000000
,
00000031
00000000
00000200
00000000
00000320
00000000
00000000
00000000
00002030
00000000
00003001
00000100
00000020
00000000
00001030
00000100
,
00010000
00000000
00010000
00001000
00010000
00000000
00001000
00010000
00000100
00000000
00001000
00000100
00001000
00000000
00000100
00001000
,
00000010
00000010
00000100
00000100
00001000
00010000
00100000
10000000
02000000
00000000
13000000
00100000
01000000
00000000
00010000
00000000
,
10010000
00000000
00000000
10000000
00000000
00000000
00010000
00000000
00000000
00100000
00000000
00100000
00001000
00000000
00000000
00000000
,
00100000
00000000
00000000
00001000
00000000
00000000
00010000
00000000
00000000
00000100
00000000
00001000
00000010
00000000
00000000
00000100
,
00000001
00000000
00000000
00001000
00000000
00000000
00000100
00000000
00000000
00000010
00000000
00000001
00001000
00000000
00000000
00000000
,
00000010
00000000
00000000
00000100
00000000
00000000
00000001
00000000
00000000
00001000
00000000
00000100
00001000
00000000
00000000
00000000
,
00000010
00000100
00000001
00000010
00000100
00001000
00000010
00000100
,
00001000
00010000
00001000
00010000
00001000
00000100
00000010
00001000
,
00000100
00000100
00010000
00010000
00001000
00010000
00100000
10000000
,
00010000
10000000
00010000
10000000
00010000
10000000
00010000
10000000
00100000
00000000
01000000
00000000
00010000
00000000
00000000
00000000
,
11000000
00000000
01000000
10000000
00000000
10000000
00100000
00000000
00100000
01000000
00000000
01000000
00010000
00000000
00100000
00000000
,
00010000
00000000
00010000
00100000
00000000
00100000
00001000
00000000
00001000
00010000
00000000
00010000
00000100
00000000
00001000
00000000
,
00000010
00000000
00000010
00000100
00000000
00000100
00001000
00000000
00001000
00000100
00000000
00000100
00000001
00000000
00001000
00000000
,
00000100
00000000
00000100
00000010
00000000
00000010
00000001
00000000
00000001
00001000
00000000
00001000
00000010
00000100
00000010
00000000
,
00000100
00000000
00000100
00000001
00000000
00000001
00001000
00000000
00001000
00000100
00000000
00000100
00010000
00000000
00001000
00000000
,
00010000
00000000
00010000
00100000
00000000
00100000
10000000
00000000
10000000
01000000
00000000
01000000
10000000
00010000
10000000
00000000
,
00200000
00000000
00000000
00000000
01300000
00000000
00010000
00000000
10000000
00000000
01000000
00000000
10000000
00010000
10000000
00000000
,
00200000
00000000
00000000
00000000
01300000
00000000
00010000
00000000
00100000
00000000
00100000
00000000
00001000
00100000
00000000
00100000
,
00002000
00000000
00013000
00001000
00000100
00000010
00002000
00000000
,
00003002
00000000
00000013
00001000
00000010
00000001
00000200
00000000
,
00002300
00000000
00003100
00000010
00001000
00000100
00020000
00000000
,
00032000
00000000
00000000
00000000
00103000
00000000
00001000
00000000
00010000
00000000
00000100
00000000
00001000
00000001
00001000
00000000
,
00000010
00000000
00000010
00000100
00000000
00000100
00000001
00000000
00000001
00001000
00000000
00001000
00000100
00000000
00000000
00000000
,
00001000
00000000
00001000
00000100
00000000
00000100
00010000
00000000
00010000
00000010
00000000
00000010
00001000
00000100
00001000
00000000
,
00000020
00000000
00000000
00000000
00000130
00000000
00000001
00000000
00000010
00000000
00000100
00000000
00001000
00000001
00001000
00000000
,
00000010
00000000
00000100
00000000
00000001
00000000
00000010
00000000
00000100
00000000
00001000
00000000
00000100
00010000
00000000
00010000
;

//---------------dance-single - ----------------
#NOTEDATA:;
#CHARTNAME:;
#STEPSTYPE:dance-single;
#DESCRIPTION:;
#CHARTSTYLE:;
#DIFFICULTY:Medium;
#METER:6;
#RADARVALUES:0.338290,0.411507,0.171183,0.114122,0.000000,292.000000,24.000000,16.000000,0.000000,0.000000,0.000000,0.000000,0.000000,0.338290,0.411507,0.171183,0.114122,0.000000,292.000000,24.000000,16.000000,0.000000,0.000000,0.000000,0.000000,0.000000;
#CREDIT:Ben Speirs;
#NOTES:
0000
0000
0000
0000
,
0000
0000
0000
0000
,
0000
0000
0000
0000
,
0000
0000
0000
0000
,
0001
0000
1000
0000
,
0010
0000
0010
0000
,
1000
0100
0010
0001
,
1000
0000
0001
0000
,
0100
0100
0010
0000
,
1000
1000
0010
0000
,
1000
0001
0010
0000
,
0001
0001
0100
0000
,
0001
1000
0010
0010
,
1000
0001
0010
0000
,
0001
0000
1000
0000
,
0010
0000
0010
0000
,
1001
1100
0102
0003
,
0100
0001
1000
0000
0001
0000
1000
0000
,
0010
1010
0012
0003
,
1000
0000
0001
1000
0001
0000
1000
0100
,
1000
0100
1000
0001
,
0100
0100
0001
1000
,
0001
0010
0001
0010
0001
0010
0001
0000
,
0100
0000
0010
1000
0010
1000
0010
0000
,
1001
0000
1000
0000
0010
0000
0100
0100
,
0001
0000
1000
0000
0001
0000
0010
0010
,
0100
0000
1000
0000
0010
0000
1000
1000
,
0001
0000
0010
0000
0001
1000
0001
0000
,
0100
0000
0001
0000
1000
1000
0010
0000
,
0100
0000
0001
0000
1000
1000
0100
0000
,
2000
3100
1000
0010
,
0200
0000
0310
0000
1000
0001
1000
0000
,
0000
0101
0000
1010
,
1002
0000
0013
0000
0001
1000
0100
0000
,
1000
0000
0001
0000
0100
0010
1000
0000
,
0001
0010
0100
0000
1000
0001
0100
0000
,
0010
0000
1000
0000
0010
1000
0100
0000
,
0010
0000
0010
0000
0001
0010
0100
1000
,
0002
0000
0003
0000
0100
0000
0001
1000
,
0002
0000
2003
0000
3010
1000
0100
0000
,
2100
0000
3001
0000
1000
0001
0100
0100
,
0010
0000
1000
0000
0001
1000
0100
0100
,
0010
0010
0001
1000
,
0001
0100
0010
1000
0100
0010
0001
0000
,
1100
1100
0101
0101
,
0010
1000
0010
1000
0100
0000
0010
0000
,
0011
0011
1010
1010
,
0001
0100
0001
0100
0010
0000
1000
0001
,
1000
0100
0010
0001
,
0100
0100
0010
0010
,
1000
0001
1000
0001
1000
0001
1000
0001
,
0100
0010
0100
0010
0100
0010
1000
0000
,
0101
0000
1100
0000
0001
1000
0100
0000
,
0010
0000
0010
0000
0001
0000
1000
0100
,
0100
0000
1000
0000
0010
1000
0001
0000
,
0100
0100
0100
0000
0001
1000
0001
0000
,
0010
0010
0001
1000
,
1100
0000
0001
0000
1000
0000
0010
0010
,
0010
0000
0100
0000
0001
0000
1000
1000
,
1000
0000
0001
0000
1000
0001
0010
0000
,
0000
0011
0000
1010
,
1002
0000
0103
0000
0001
1000
0100
0000
,
2000
0000
3010
0000
1000
0000
0001
0010
,
0002
0000
0103
0000
0001
0000
0100
0100
,
0020
1030
0010
1000
,
0002
0000
0103
0000
0001
0000
1000
0100
,
0020
0000
0031
0000
1000
0000
0010
1000
,
0002
0000
0103
0000
0001
1000
0001
1000
;

//---------------dance-single - ----------------
#NOTEDATA:;
#CHARTNAME:;
#STEPSTYPE:dance-single;
#DESCRIPTION:;
#CHARTSTYLE:Ben Speirs;
#DIFFICULTY:Easy;
#METER:3;
#RADARVALUES:0.204808,0.338264,0.085591,0.128387,0.000000,171.000000,12.000000,18.000000,0.000000,0.000000,0.000000,0.000000,0.000000,0.204808,0.338264,0.085591,0.128387,0.000000,171.000000,12.000000,18.000000,0.000000,0.000000,0.000000,0.000000,0.000000;
#CREDIT:Ben Speirs;
#NOTES:
// measure 0
0000
0000
0000
0000
,  // measure 1
0000
0000
0000
0000
,  // measure 2
0000
0000
0000
0000
,  // measure 3
0000
0000
0000
0000
,  // measure 4
0100
0000
0100
0000
,  // measure 5
0010
0000
0010
0000
,  // measure 6
1000
1000
0001
0001
,  // measure 7
0010
0000
0001
0000
,  // measure 8
2000
0000
3000
1000
,  // measure 9
0002
0000
0003
0001
,  // measure 10
0200
0000
0300
0100
,  // measure 11
0020
0000
0030
0010
,  // measure 12
2000
3000
0002
0003
,  // measure 13
0020
0030
0002
0003
,  // measure 14
0200
0300
0000
0100
,  // measure 15
0200
0300
0000
0000
,  // measure 16
1001
0000
0000
0000
,  // measure 17
1000
0001
0100
0100
,  // measure 18
0010
0000
0000
0000
,  // measure 19
0100
0001
1000
1000
,  // measure 20
0010
0000
1000
0000
,  // measure 21
0001
0000
0010
0000
,  // measure 22
0001
1000
0001
1000
,  // measure 23
0010
0100
0010
0000
,  // measure 24
0110
1001
1000
0000
,  // measure 25
0001
1000
0100
0100
,  // measure 26
0010
0000
0001
0000
,  // measure 27
1000
1000
0001
0000
,  // measure 28
0001
1000
0001
0000
,  // measure 29
0100
0001
0100
0100
,  // measure 30
0020
0030
0000
0010
,  // measure 31
0020
0030
0000
0000
,  // measure 32
1000
0000
0001
0000
,  // measure 33
1000
0001
0100
0100
,  // measure 34
0010
0000
1000
0000
,  // measure 35
0010
1000
0100
0010
,  // measure 36
0001
0000
1000
0000
,  // measure 37
0001
1000
0010
0010
,  // measure 38
0200
0300
0000
0100
,  // measure 39
0200
0300
0000
0000
,  // measure 40
0001
0000
1000
0001
,  // measure 41
0010
0000
0001
1000
,  // measure 42
0010
0010
0100
0100
,  // measure 43
0001
0001
1000
1000
,  // measure 44
1001
0000
0000
0000
,  // measure 45
0001
1000
0010
0010
,  // measure 46
0000
0000
0000
0000
,  // measure 47
1000
0001
0100
0100
,  // measure 48
0001
0000
1000
0000
,  // measure 49
0010
0000
1000
0000
,  // measure 50
0001
0010
0100
1000
,  // measure 51
0010
0100
0001
1000
,  // measure 52
1001
0110
1001
0000
,  // measure 53
1001
0110
1001
0000
,  // measure 54
0010
1000
0100
0100
,  // measure 55
1000
0001
0010
0000
,  // measure 56
0001
1000
0001
0000
,  // measure 57
1000
0100
1000
0001
,  // measure 58
0200
0300
0000
0100
,  // measure 59
0200
0300
0000
0000
,  // measure 60
0001
0000
1000
0000
,  // measure 61
1001
1001
0010
0000
,  // measure 62
1000
0100
1000
0010
,  // measure 63
0100
0001
1000
0001
,  // measure 64
0001
0000
1000
0000
,  // measure 65
0001
1000
0010
0010
,  // measure 66
0200
0300
0000
0100
,  // measure 67
0200
0300
0001
1000
;

//---------------dance-single - ----------------
#NOTEDATA:;
#CHARTNAME:;
#STEPSTYPE:dance-single;
#DESCRIPTION:;
#CHARTSTYLE:;
#DIFFICULTY:Beginner;
#METER:1;
#RADARVALUES:0.105970,0.168508,0.035663,0.000000,0.000000,99.000000,5.000000,0.000000,0.000000,0.000000,0.000000,0.000000,0.000000,0.105970,0.168508,0.035663,0.000000,0.000000,99.000000,5.000000,0.000000,0.000000,0.000000,0.000000,0.000000,0.000000;
#CREDIT:Ben Speirs;
#NOTES:
// measure 0
0000
0000
0000
0000
,  // measure 1
0000
0000
0000
0000
,  // measure 2
0000
0000
0000
0000
,  // measure 3
0000
0000
0000
0000
,  // measure 4
0010
0000
0000
0000
,  // measure 5
0100
0000
0000
0000
,  // measure 6
0001
0000
0000
0000
,  // measure 7
0001
0000
0000
0000
,  // measure 8
1000
1000
0000
0000
,  // measure 9
1000
1000
0000
0000
,  // measure 10
1000
1000
0000
0000
,  // measure 11
1000
0000
1000
0000
,  // measure 12
0010
0010
0000
0000
,  // measure 13
0010
0010
0000
0000
,  // measure 14
0010
0000
0000
0000
,  // measure 15
0010
0000
0000
0000
,  // measure 16
1001
0000
0000
0000
,  // measure 17
0001
0001
0001
0001
,  // measure 18
0000
0000
0000
0000
,  // measure 19
0100
0100
0100
0100
,  // measure 20
0000
0000
0000
0000
,  // measure 21
0010
0000
0000
0000
,  // measure 22
1000
0000
1000
0000
,  // measure 23
1000
0000
0000
0000
,  // measure 24
1001
0000
0000
0001
,  // measure 25
0000
0000
0000
1000
,  // measure 26
0000
0000
0000
0010
,  // measure 27
0000
0000
0000
0100
,  // measure 28
0000
0000
0000
0001
,  // measure 29
0000
0000
0000
1000
,  // measure 30
1000
0000
0000
1000
,  // measure 31
1000
0000
0000
0000
,  // measure 32
0010
0000
0010
0000
,  // measure 33
1001
0000
0000
0000
,  // measure 34
0001
0000
0001
0000
,  // measure 35
0001
0000
0000
0000
,  // measure 36
1000
0000
1000
0000
,  // measure 37
1000
0000
0000
0010
,  // measure 38
0010
0000
0000
0010
,  // measure 39
0010
0000
0000
0000
,  // measure 40
1000
0000
0000
0000
,  // measure 41
0001
0000
0000
0000
,  // measure 42
0100
0000
0100
0000
,  // measure 43
0010
0010
0010
0000
,  // measure 44
1001
0000
0000
0000
,  // measure 45
1000
1000
1000
1000
,  // measure 46
0000
0000
0000
0000
,  // measure 47
0010
0010
0010
0010
,  // measure 48
0000
0000
0000
0000
,  // measure 49
0100
0000
0000
0000
,  // measure 50
0001
0000
0001
0000
,  // measure 51
0100
0000
0100
0000
,  // measure 52
1001
0000
0000
0010
,  // measure 53
0000
0000
0000
1000
,  // measure 54
0000
0000
0000
0001
,  // measure 55
0000
0000
0000
0100
,  // measure 56
0100
0000
0000
0010
,  // measure 57
0000
0000
0000
1000
,  // measure 58
1000
0000
0000
1000
,  // measure 59
1000
0000
0000
0000
,  // measure 60
0001
0000
0000
0000
,  // measure 61
1000
0000
1000
0000
,  // measure 62
1000
0000
0000
0000
,  // measure 63
0010
0000
0010
0000
,  // measure 64
0010
0000
0000
0000
,  // measure 65
0100
0000
0000
0001
,  // measure 66
0001
0000
0000
0001
,  // measure 67
0001
0000
1000
0000
;
