#VERSION:0.82;
#TITLE:The Sound;
#SUBTITLE:;
#ARTIST:The 1975;
#TITLETRANSLIT:;
#SUBTITLETRANSLIT:;
#ARTISTTRANSLIT:;
#GENRE:Tap Tap Tap;
#ORIGIN:;
#CREDIT:;
#BANNER:The Sound.png;
#BACKGROUND:The Sound-bg.png;
#PREVIEWVID:;
#JACKET:jacket.jpg;
#CDIMAGE:;
#DISCIMAGE:;
#LYRICSPATH:;
#CDTITLE:;
#MUSIC:The Sound.ogg;
#OFFSET:0.000000;
#SAMPLESTART:55.954159;
#SAMPLELENGTH:15.374000;
#SELECTABLE:YES;
#BPMS:0.000=120.700;
#STOPS:;
#DELAYS:;
#WARPS:;
#TIMESIGNATURES:0.000=4=4;
#TICKCOUNTS:0.000=4;
#COMBOS:0.000=1;
#SPEEDS:0.000=1.000=0.000=0;
#SCROLLS:0.000=1.000;
#FAKES:;
#LABELS:0.000=Song Start;
#BGCHANGES:1.000=The Sound.avi=1.000=0=0=1=====,
99999=-nosongbg-=1.000=0=0=0 // don't automatically add -songbackground-
;
#KEYSOUNDS:;
#ATTACKS:
;

//---------------dance-single - ----------------
#NOTEDATA:;
#CHARTNAME:;
#STEPSTYPE:dance-single;
#DESCRIPTION:;
#CHARTSTYLE:;
#DIFFICULTY:Hard;
#METER:8;
#RADARVALUES:0.508525,0.521196,0.102835,0.332236,0.174029,395.000000,13.000000,42.000000,0.000000,0.000000,0.000000,0.000000,0.000000,0.508525,0.521196,0.102835,0.332236,0.174029,395.000000,13.000000,42.000000,0.000000,0.000000,0.000000,0.000000,0.000000;
#CREDIT:Ben Speirs;
#NOTES:
0000
0000
0000
0000
,
0000
0000
0000
0000
,
0000
0000
0000
0000
,
0000
0000
0000
0000
,
0000
0000
1100
0000
0001
0100
0001
0000
,
1000
0010
1000
0010
0100
0000
0001
1000
,
0000
0010
0000
0000
0100
0000
0000
0000
0001
0000
1000
0000
0002
0000
0000
0000
,
0013
0000
0000
0000
0001
0000
0000
0000
1000
0000
0010
0100
0010
0000
1000
0000
,
0000
0001
0000
0000
0011
0000
0000
0000
1000
0000
0010
0000
1000
0000
0000
0000
,
0001
0100
0001
0100
0010
0000
1000
0001
,
0000
0100
0000
0000
0010
0000
0000
0000
1000
0000
0001
0000
2000
0000
0000
0000
,
3100
0000
0000
0000
1000
0000
0000
0000
0001
0000
0100
0010
0100
0000
0001
0000
,
1000
0100
0010
0000
0001
0000
0100
0000
,
0100
0000
0010
0000
0100
0001
1000
0100
,
0000
0100
0000
0000
1000
0000
0010
0000
2000
0000
0000
0000
3001
0000
0000
0000
,
1000
0000
0100
0010
0001
0100
0010
1000
,
0001
1000
0020
0000
0130
0001
2000
0000
,
3100
0010
0001
1000
0010
0000
1000
0001
,
0000
1000
0000
0000
0020
0000
0000
0000
0130
0000
0001
0000
2000
0000
0000
0000
,
3100
0000
1000
0000
0001
0000
0001
0000
1000
0000
0010
0100
0010
0000
0000
0000
,
0100
0000
0101
0100
0010
1000
0001
0000
,
1001
0000
1100
0100
0010
0100
1000
0000
,
1001
0000
0001
1000
0010
0100
0001
1000
,
1000
0000
0001
0000
0100
0000
0000
0100
0000
0000
0010
0000
2000
0000
0000
0000
,
3001
0000
0001
0100
0010
0010
0100
0010
,
1000
1000
0010
1000
0100
0100
0020
0000
,
0031
0010
0100
0100
0010
0001
1000
0010
,
0200
0000
0301
1000
0020
0000
1030
0001
,
0000
1000
0000
0000
0110
0000
0100
0000
0010
0000
0100
0000
0002
0000
0000
0000
,
0103
0001
1000
0001
0200
0000
0310
1000
,
0001
0010
0200
0000
1300
0001
1000
0010
,
0000
0010
0000
0000
2000
0000
0000
0000
3001
0000
0010
0100
0010
0000
0001
0000
,
1000
0010
0110
0010
0100
0010
2000
0000
,
3010
1000
0001
1000
0020
0000
0130
0001
,
1000
0100
0020
0000
0031
1000
0001
0100
,
0000
0100
0000
0000
0002
0000
0000
0000
1003
0000
0100
0010
0100
0000
1000
0000
,
0010
0100
0001
0010
1000
0010
0001
0100
,
0010
1000
0100
0010
0001
1000
0010
0100
,
0001
1000
0002
0000
0103
0010
1000
0100
,
0000
0100
0000
0000
0120
0000
0000
0000
0031
0000
0010
0000
0100
0000
1000
0000
,
0010
0010
1000
0100
0001
0100
1000
0010
,
0100
0001
0010
0100
1000
0001
0100
0010
,
1000
0001
2000
0000
3010
0100
0001
0010
,
0000
0010
0000
0000
0210
0000
0000
0000
1300
0000
0100
0000
0010
0000
0001
0000
,
0100
0000
2001
0000
3010
1000
0100
0020
,
0000
0000
0032
0000
0000
0000
1003
0000
0100
0000
1000
0001
1000
0000
0010
0000
,
0100
0000
0001
0000
2000
0000
0000
0000
0010
0000
3020
0000
0000
0000
0100
0030
,
0100
0000
0001
0000
0100
0000
0010
0000
1000
0000
0100
0000
0010
0001
0010
0000
,
0100
1000
0001
2200
0000
0000
0300
3001
,
0000
1000
0000
0000
0010
0000
0100
0000
0010
0000
1000
0000
0100
0000
1000
0001
,
1000
0001
0100
0001
0200
0000
0000
0000
0310
0000
1000
0000
0100
0000
0010
0000
,
0001
1000
0020
0000
0130
0001
1000
0100
,
1000
0000
0001
0000
0100
0000
0100
0000
0020
0000
0000
0000
1030
0100
0010
0001
,
0000
0000
0100
0000
0020
0000
0000
0000
1030
0100
0010
0001
0000
0000
0100
0000
,
0020
0000
0000
0000
1030
0100
0010
0001
0000
0000
0100
0000
0020
0000
0000
0000
,
1030
0100
0010
0001
0000
0000
0100
0000
0020
0000
0000
0000
1030
0100
0010
0001
,
0000
0000
1000
0000
0002
0000
0000
0000
0103
0010
0100
0010
0000
0000
0100
0000
,
0002
0000
0000
0000
1003
0100
1000
0100
0000
0000
1000
0000
0002
0000
0000
0000
,
0013
0100
0010
0100
0000
0000
0010
0000
0002
0000
0000
0000
1003
0010
1000
0010
,
0000
0000
0100
0000
0002
0000
0000
0000
1003
0100
1000
0100
0000
0000
1000
0000
,
0010
0100
0101
0000
0000
0000
0000
0010
,
0000
0010
0000
0000
1000
0000
0000
0000
0000
0000
0000
0000
0000
0000
0100
0000
,
0000
0100
0000
0000
0010
0000
0000
0000
0001
0000
1000
0000
0001
0000
0000
0000
;

//---------------dance-double - ----------------
#NOTEDATA:;
#CHARTNAME:;
#STEPSTYPE:dance-double;
#DESCRIPTION:;
#CHARTSTYLE:;
#DIFFICULTY:Challenge;
#METER:8;
#RADARVALUES:0.483664,0.521196,0.063283,0.284774,0.146342,384.000000,8.000000,36.000000,0.000000,0.000000,0.000000,0.000000,0.000000,0.483664,0.521196,0.063283,0.284774,0.146342,384.000000,8.000000,36.000000,0.000000,0.000000,0.000000,0.000000,0.000000;
#CREDIT:Ben Speirs;
#NOTES:
00000000
00000000
00000000
00000000
,
00000000
00000000
00000000
00000000
,
00000000
00000000
00000000
00000000
,
00000000
00000000
00000000
00000000
,
00000000
00000000
00000101
00000000
00000100
00000010
00000100
00000000
,
00000001
00000000
00001000
00000100
00001000
00000000
00000010
00000100
,
00000000
00000100
00000000
00000000
00000001
00000000
00000000
00000000
00001000
00000000
00000100
00000000
00020000
00000000
00000000
00000000
,
00031000
00000000
00100000
00000000
00001000
00000000
00100000
00010000
,
01000000
00100000
10100000
00000000
00100000
01000000
00100000
00000000
,
10000000
00000000
00010000
00100000
00010000
00000000
01000000
00100000
,
00000000
00100000
00000000
00000000
10000000
00000000
00000000
00000000
00010000
00000000
00100000
00000000
00002000
00000000
00000000
00000000
,
00013000
00000000
00000000
00000000
00000100
00000000
00000000
00000000
00010000
00000000
00001000
00010000
00001000
00000000
00010000
00000000
,
00000100
00001000
00000020
00000000
00000130
00000000
00000001
00000000
,
00001000
00000000
00000100
00000010
00000001
00000000
00001000
00000100
,
00000000
00000100
00000000
00000000
00000010
00000000
00000001
00000000
00000020
00000000
00000000
00000000
00000031
00000000
00000000
00000000
,
00001000
00000000
00000010
00000100
00000001
00000010
00000100
00001000
,
00000000
00001000
00000000
00000000
00000100
00000000
00010000
00000000
00000100
00000000
00000000
00000000
00010000
00000000
00001000
00000000
,
00010000
00000000
00001000
00100000
00001000
00000000
00100000
00010000
,
00000000
01000000
00000000
00000000
00100000
00000000
10000000
00000000
00100000
00000000
10000000
00000000
00010000
00000000
01000000
00000000
,
00010000
01000000
00100000
10000000
02000000
00000000
03100000
00000000
,
00010000
00000000
11000000
01000000
00100000
00010000
10000000
00100000
,
01000000
00000000
00010000
00100000
00010000
00100000
00002000
00000000
,
00013000
00000000
00000100
00010000
00000100
00001000
00000010
00000010
,
00000100
00000000
00000001
00000000
00001000
00000000
00000000
00001000
00000000
00000000
00000001
00000000
00000001
00000000
00000000
00000000
,
00000100
00000000
00000010
00001000
00000100
00000010
00000001
00000001
,
00001000
00001000
00000010
00000100
00000001
00000010
00000200
00000000
,
00001300
00000100
00010000
00010000
00001000
00010000
00000100
00010000
,
00002000
00000000
00103000
00010000
02000000
00000000
03100000
10000000
,
00010000
00000000
11000000
01000000
00100000
00010000
10000000
00000000
,
00100000
01000000
00100000
01000000
00010000
00000000
10000000
01000000
,
00010000
00001000
00000200
00000000
00000301
00001000
00000001
00000010
,
00000000
00000010
00000000
00000000
00000200
00000000
00000000
00000000
00001300
00000000
00000010
00000000
00000100
00000000
00000001
00000000
,
00001000
00000000
00000011
00000010
00000100
00001000
00000001
00000000
,
00000100
00000010
00000100
00000010
00001000
00000000
00000001
00000010
,
00001000
00010000
00200000
00000000
10300000
00010000
10000000
01000000
,
00000000
01000000
00000000
00000000
00200000
00000000
00000000
00000000
00310000
00000000
01000000
00000000
00100000
00000000
10000000
00000000
,
00010000
00000000
10100000
00100000
01000000
00010000
00100000
01000000
,
10000000
10000000
00010000
00010000
00100000
00010000
01000000
00100000
,
10000000
01000000
00200000
00000000
00310000
00100000
00010000
00100000
,
00000000
00001000
00000000
00000000
00020000
00000000
00000000
00000000
00030100
00000000
00001000
00000000
00000010
00000000
00000100
00000000
,
00000001
00000001
00000101
00000100
00000010
00001000
00000100
00000010
,
00000001
00000001
00001000
00001000
00000100
00001000
00000010
00000100
,
00000001
00000010
00000200
00000000
00001300
00000100
00001000
00000100
,
00000000
00010000
00000000
00000000
00002000
00000000
00000000
00000000
00103000
00000000
00010000
00000000
01000000
00000000
00100000
00000000
,
10000000
10000000
00020000
00000000
01030000
00000000
00100000
20000000
,
00000000
00000000
31000000
00000000
00200000
00000000
00000000
00000000
00310000
00000000
10000000
01000000
10000000
00000000
00100000
00000000
,
01000000
00000000
00010000
00000000
00200000
00000000
00000000
00000000
00001000
00300000
00002000
00000000
00000000
00000000
00013000
00000000
,
00010000
00000100
00010000
00000100
00001000
00000010
00000100
00000001
,
00000010
00000100
00001000
00000202
00000000
00000000
00000300
00001003
,
00000000
00001000
00000000
00000000
00000100
00000000
00000000
00000000
00000010
00000000
00000001
00000000
00001000
00000000
00000010
00000100
,
00000010
00000000
00000100
00000001
00000200
00000000
00000000
00000000
00000310
00000000
00001000
00000000
00000100
00000000
00010000
00000000
,
00001000
00100000
00020000
00000000
01030000
00100000
10000000
01000000
,
00100000
00000000
00010000
00000000
01000000
00000000
00000000
00000000
00002000
00000000
00000000
00000000
01003000
00010000
01000000
00010000
,
00000000
00000000
01000000
00000000
00002000
00000000
00000000
00000000
01003000
00010000
01000000
00010000
00000000
00000000
01000000
00000000
,
00002000
00000000
00000000
00000000
01003000
00010000
01000000
00010000
00000000
00000000
01000000
00000000
00002000
00000000
00000000
00000000
,
01003000
00010000
01000000
00010000
00000000
00000000
01000000
00000000
00002000
00000000
00000000
00000000
01003000
00010000
01000000
00010000
,
00000000
00000000
01000000
00000000
00200000
00000000
00000000
00300000
10000000
01000000
10000000
01000000
00000000
00000000
00100000
00000000
,
00020000
00000000
00000000
00000000
01030000
00100000
01000000
00100000
00000000
00000000
01000000
00000000
00002000
00000000
00000000
00000000
,
00103000
00010000
00100000
00010000
00000000
00000000
00100000
00000000
00002000
00000000
00000000
00000000
00013000
00000100
00010000
00000100
,
00000000
00000000
00001000
00000000
00000020
00000000
00000000
00000000
00000130
00000001
00000100
00000001
00000000
00000000
00001000
00000000
,
00000010
00000100
00000001
00000000
00000000
00000000
00000000
00001000
,
00000000
00000100
00000000
00000000
00010000
00000000
00000000
00000000
00000000
00000000
00000000
00000000
00000000
00000000
00001000
00000000
,
00000000
00100000
00000000
00000000
00010000
00000000
00000000
00000000
10000000
00000000
01000000
00000000
00010000
00000000
00000000
00000000
;

//---------------dance-single - ----------------
#NOTEDATA:;
#CHARTNAME:;
#STEPSTYPE:dance-single;
#DESCRIPTION:;
#CHARTSTYLE:;
#DIFFICULTY:Medium;
#METER:6;
#RADARVALUES:0.361618,0.446739,0.261043,0.245222,0.000000,256.000000,33.000000,31.000000,0.000000,0.000000,0.000000,0.000000,0.000000,0.361618,0.446739,0.261043,0.245222,0.000000,256.000000,33.000000,31.000000,0.000000,0.000000,0.000000,0.000000,0.000000;
#CREDIT:Ben Speirs;
#NOTES:
0000
0000
0000
0000
,
0000
0000
0000
0000
,
0000
0000
0000
0000
,
0000
0000
0000
0000
,
0000
1001
0100
0010
,
1000
0000
0100
0010
0100
0000
0010
0000
,
0001
0000
2000
0000
3001
0100
0001
0000
,
0000
1000
0001
0100
,
0100
1001
0010
0100
,
0001
0000
0010
0100
0010
0000
0100
0000
,
1000
0000
0002
0000
1003
0010
1000
0000
,
0000
0001
1000
0010
,
0010
0200
0300
0001
,
1000
0000
0100
0000
0000
0000
1000
0100
,
0010
0001
1000
0000
0001
0000
0000
0000
,
0100
0000
0010
0000
1000
0000
0001
0010
,
0001
0000
1000
0100
1000
0000
0001
0100
,
0001
2000
3002
0103
,
0000
0000
0001
0010
0001
0010
0200
0000
,
1300
0000
0010
0100
0002
0000
1003
0000
,
0000
0000
1100
0000
0101
0000
0010
0001
,
1000
1010
0101
2002
,
3003
0000
0001
0100
0001
0100
0010
1000
,
0010
1000
0100
0000
0100
0000
0100
0000
,
0000
2100
3001
1000
,
0010
0000
0100
0001
0100
0000
0010
0000
,
0000
0102
1003
0001
,
0102
0000
1003
0000
0010
0000
1000
0100
,
0010
1100
0011
0100
,
0010
1000
0010
0000
0100
0000
0001
0000
,
1000
1100
0011
1001
,
0000
0010
0000
1000
,
0001
0010
0011
0000
1100
0000
0010
0000
,
0100
0001
0100
0000
0010
0000
1000
0000
,
0001
0011
1100
1001
,
0000
1000
0001
0100
,
0000
0000
0010
1000
0010
0000
1000
0000
,
0001
0100
0001
0000
1000
0000
0100
0010
,
0100
0020
0000
0000
0031
0000
1000
0000
,
0000
1001
0000
0010
,
0100
0001
0100
0001
0100
0000
0001
0000
,
1000
0010
1000
0000
0001
0000
0010
0100
,
0010
0200
0000
0000
1300
0000
0001
0000
,
0000
1000
0010
0100
,
0000
0000
0102
0000
1003
0000
0000
0010
,
1000
0010
0100
0000
0001
0000
1000
0100
,
1000
0002
2003
3000
,
0010
0000
0100
0000
0001
0000
1000
0100
,
0010
0001
0220
0330
,
0001
0100
0010
0000
1000
0000
0100
0000
,
0010
0100
2000
0000
0000
3002
0000
0000
,
0103
0000
0010
0000
1000
0000
0100
0010
,
0001
0000
0000
0000
2100
0000
3001
0010
,
0001
0000
2100
0000
3001
0010
0001
0000
,
2100
0000
3001
0010
0001
0000
2100
0000
,
3001
0010
0001
0000
2100
0000
3001
0010
,
0001
0000
2001
0000
3010
1000
0010
0000
,
1002
0000
0013
0001
0010
0000
2001
0000
,
3100
1000
0100
0000
1002
0000
0103
0001
,
0100
0000
2001
0000
3010
1000
0010
0000
,
1000
0100
0010
0000
0000
0000
0000
0000
,
0001
1000
0000
0000
,
0010
0000
0100
0000
0001
1000
0001
0000
;

//---------------dance-single - ----------------
#NOTEDATA:;
#CHARTNAME:;
#STEPSTYPE:dance-single;
#DESCRIPTION:;
#CHARTSTYLE:;
#DIFFICULTY:Easy;
#METER:3;
#RADARVALUES:0.184199,0.248189,0.015821,0.102835,0.000000,148.000000,2.000000,13.000000,0.000000,0.000000,0.000000,0.000000,0.000000,0.184199,0.248189,0.015821,0.102835,0.000000,148.000000,2.000000,13.000000,0.000000,0.000000,0.000000,0.000000,0.000000;
#CREDIT:Ben Speirs;
#NOTES:
// measure 0
0000
0000
0000
0000
,  // measure 1
0000
0000
0000
0000
,  // measure 2
0000
0000
0000
0000
,  // measure 3
0000
0000
0000
0000
,  // measure 4
0000
1000
0100
0010
,  // measure 5
0000
0001
0000
1000
,  // measure 6
0010
0100
0100
0100
,  // measure 7
0000
0000
0000
0000
,  // measure 8
0000
0001
0010
0100
,  // measure 9
0000
0010
0000
0001
,  // measure 10
0100
0010
0010
0010
,  // measure 11
0000
0000
0000
1000
,  // measure 12
0000
1001
0000
0100
,  // measure 13
0000
1000
0000
0010
,  // measure 14
1000
0001
0001
0100
,  // measure 15
0000
0001
1000
0001
,  // measure 16
0000
1000
1000
0100
,  // measure 17
0000
0010
0010
0001
,  // measure 18
0000
1000
0010
0100
,  // measure 19
0001
1000
1000
0000
,  // measure 20
0000
0002
0003
0100
,  // measure 21
0100
0020
0030
1000
,  // measure 22
1000
0200
0300
0010
,  // measure 23
0000
0001
1000
0001
,  // measure 24
0000
1000
0100
1000
,  // measure 25
0000
0001
0100
0001
,  // measure 26
0000
2000
3000
0002
,  // measure 27
0003
0100
0010
0100
,  // measure 28
0010
2000
3000
0001
,  // measure 29
0000
1000
0100
1000
,  // measure 30
0001
0020
0000
0030
,  // measure 31
0000
0001
0000
1000
,  // measure 32
0000
0010
0100
0001
,  // measure 33
0100
0010
0000
1000
,  // measure 34
0100
0020
0000
0030
,  // measure 35
0000
0001
0000
1000
,  // measure 36
0000
0010
0100
0010
,  // measure 37
0000
1000
0100
1000
,  // measure 38
0000
0002
0003
1000
,  // measure 39
0000
0010
0000
0000
,  // measure 40
0000
0100
0001
0100
,  // measure 41
0000
0001
0010
0001
,  // measure 42
0000
2000
3000
0100
,  // measure 43
0000
0010
0000
0000
,  // measure 44
0000
2002
3003
0000
,  // measure 45
0010
0100
0000
0001
,  // measure 46
0010
0100
0000
0100
,  // measure 47
1000
0010
0000
1000
,  // measure 48
0001
2000
0000
0000
,  // measure 49
3000
0010
0000
1000
,  // measure 50
0100
0010
0000
0001
,  // measure 51
0000
1000
1000
0010
,  // measure 52
0000
0000
0100
0010
,  // measure 53
0000
0100
0010
0000
,  // measure 54
0100
0010
0000
0100
,  // measure 55
0010
0000
0100
0010
,  // measure 56
0000
1000
0100
0000
,  // measure 57
0010
0001
0000
1000
,  // measure 58
0010
0000
0100
0001
,  // measure 59
0000
1000
0100
0000
,  // measure 60
0010
0010
0000
0000
,  // measure 61
0000
0001
0000
0000
,  // measure 62
0000
1000
0010
0100
;

//---------------dance-single - ----------------
#NOTEDATA:;
#CHARTNAME:;
#STEPSTYPE:dance-single;
#DESCRIPTION:;
#CHARTSTYLE:;
#DIFFICULTY:Beginner;
#METER:2;
#RADARVALUES:0.126566,0.173732,0.023731,0.000000,0.000000,109.000000,3.000000,0.000000,0.000000,0.000000,0.000000,0.000000,0.000000,0.126566,0.173732,0.023731,0.000000,0.000000,109.000000,3.000000,0.000000,0.000000,0.000000,0.000000,0.000000,0.000000;
#CREDIT:Ben Speirs;
#NOTES:
// measure 0
0000
0000
0000
0000
,  // measure 1
0000
0000
0000
0000
,  // measure 2
0000
0000
0000
0000
,  // measure 3
0000
0000
0000
0000
,  // measure 4
0000
0001
0000
1000
,  // measure 5
0000
0010
0000
0010
,  // measure 6
0000
0100
0100
0000
,  // measure 7
0000
0000
0000
0000
,  // measure 8
0000
0001
0000
1000
,  // measure 9
0000
0100
0000
0010
,  // measure 10
0000
0001
0001
0000
,  // measure 11
0000
0000
0000
1000
,  // measure 12
1000
1000
0000
0000
,  // measure 13
0000
0010
0000
0010
,  // measure 14
0000
0100
0100
0000
,  // measure 15
0000
0001
0000
1000
,  // measure 16
0000
0010
0010
0000
,  // measure 17
0000
1000
1000
0000
,  // measure 18
0000
0100
0000
0100
,  // measure 19
0000
0010
0010
0000
,  // measure 20
0000
0001
0000
0001
,  // measure 21
0000
0100
0000
0100
,  // measure 22
0000
0010
0000
0010
,  // measure 23
0000
1000
1000
0000
,  // measure 24
0000
0100
0000
0100
,  // measure 25
0000
1000
0000
1000
,  // measure 26
0000
0001
0000
0001
,  // measure 27
0000
0010
0010
0000
,  // measure 28
0000
1001
0000
0000
,  // measure 29
0000
1000
1000
0000
,  // measure 30
0010
0010
0010
0000
,  // measure 31
0000
0100
0000
0000
,  // measure 32
0000
0001
0000
0000
,  // measure 33
0010
0010
0010
0000
,  // measure 34
0001
0001
0000
0100
,  // measure 35
0000
0000
0000
0000
,  // measure 36
0000
1001
0000
1000
,  // measure 37
0000
0010
0000
1000
,  // measure 38
1000
1000
0000
0100
,  // measure 39
0000
0000
0000
0000
,  // measure 40
0000
0010
0000
0010
,  // measure 41
0000
0001
0000
1000
,  // measure 42
1000
1000
0000
0001
,  // measure 43
0000
0000
0000
0000
,  // measure 44
0000
0110
0000
0000
,  // measure 45
0100
0100
0000
0001
,  // measure 46
0000
1000
0000
0000
,  // measure 47
0000
0010
0000
0000
,  // measure 48
0000
1000
0000
0100
,  // measure 49
0000
0100
0000
0000
,  // measure 50
0000
0010
0000
0010
,  // measure 51
0000
0001
0000
1000
,  // measure 52
0000
0000
0010
0010
,  // measure 53
0000
0010
0010
0000
,  // measure 54
0010
0010
0000
0010
,  // measure 55
0010
0000
0010
0010
,  // measure 56
0000
1000
0000
0100
,  // measure 57
0000
0010
0000
0001
,  // measure 58
0000
0100
0000
0100
,  // measure 59
0000
0010
0010
0000
,  // measure 60
0010
0010
0000
0000
,  // measure 61
0000
1000
0000
0000
,  // measure 62
0000
0100
0000
0100
;
