#TITLE:The Second Coming;
#SUBTITLE:Theme of Seth Rollins;
#ARTIST:CF0$;
#TITLETRANSLIT:;
#SUBTITLETRANSLIT:;
#ARTISTTRANSLIT:;
#GENRE:Authoritative Rock;
#CREDIT:;
#BANNER:The Second Coming.png;
#BACKGROUND:The Second Coming-bg.png;
#LYRICSPATH:;
#CDTITLE:;
#MUSIC:The Second Coming.ogg;
#OFFSET:0.010000;
#SAMPLESTART:58.044064;
#SAMPLELENGTH:13.714000;
#SELECTABLE:YES;
#BPMS:0.000000=190.000000
,32.000000=23.750000
,33.000000=190.000000
,97.000000=23.750000
,98.000000=190.000000
,162.000000=23.750000
,163.000000=190.000000
,227.000000=23.750000
,228.000000=190.000000
;
#STOPS:
;
#BGCHANGES:5.000=The Second Coming (Theme of Seth Rollins).avi=1.000=0=0=1=====,
99999=-nosongbg-=1.000=0=0=0 // don't automatically add -songbackground-
;
#KEYSOUNDS:;
#ATTACKS:;

//---------------dance-single - ----------------
#NOTES:
     dance-single:
     :
     Hard:
     9:
     0.610293,0.738455,0.174369,0.034874,0.226680,466.000000,20.000000,4.000000,0.000000,0.000000,0.000000,0.610293,0.738455,0.174369,0.034874,0.226680,466.000000,20.000000,4.000000,0.000000,0.000000,0.000000:
0000
0000
0000
0000
,
0000
0000
0000
0000
,
0000
0000
0000
0000
,
0000
0000
0000
0000
,
0000
0000
0000
0000
,
0000
0000
0000
0000
,
0000
0000
0000
0000
,
0000
0000
0000
0000
,
0000
0000
1001
0000
0001
0100
0010
0010
,
1000
0100
0010
0000
0100
1000
0010
0010
,
0100
0001
1000
0100
1000
0010
0100
0001
,
0010
0100
0010
0001
1000
0010
0100
0001
,
1000
0000
1001
0000
1000
0010
0100
0100
,
0001
0010
0100
0000
0010
0001
0100
0100
,
0010
1000
0001
0010
0001
0100
0010
1000
,
0100
0010
0100
1000
0001
0100
0010
1000
,
0002
0000
0103
0000
1100
1000
0001
0000
,
0101
0001
1000
0000
1010
1000
0001
0000
,
0011
0001
1000
0010
0100
0001
0010
0100
,
0010
0001
1000
0010
0100
0001
1000
0010
,
0200
0000
0301
0000
0011
0001
1000
0000
,
1010
1000
0001
0000
0101
0001
1000
0000
,
1100
1000
0001
0100
0010
1000
0100
0010
,
0100
1000
0001
0100
0010
1000
0001
0100
,
0010
0000
1000
0000
0000
0000
0000
0000
0001
0010
0001
0000
0000
0000
0000
0000
,
1000
0010
1000
0000
0000
0000
0000
0000
0000
0000
0000
0000
0001
1000
0001
0000
,
0000
0000
0000
0000
0100
0001
0100
0000
0000
0000
0000
0000
0010
1000
0010
0000
,
0000
0000
0000
0000
1000
0001
1000
0000
0000
0000
0000
0000
0000
0000
0000
0000
,
0100
0010
0100
0000
0000
0000
0000
0000
1000
0100
1000
0000
0000
0000
0000
0000
,
0001
1000
0001
0000
0000
0000
0000
0000
0000
0000
0000
0000
0010
0100
0010
0000
,
0000
0000
0000
0000
0001
0010
0001
0000
0000
0000
0000
0000
1000
0010
1000
0000
,
0000
0000
0000
0000
0001
1000
0001
0000
0000
0000
0000
0000
0000
0000
0000
0000
,
0100
0001
0100
0000
0010
0000
1000
0000
0100
0000
0010
0000
0100
0000
0001
0000
,
0100
0010
0100
1000
0100
0010
0100
0001
,
0100
0010
0100
1000
0100
0010
0100
0001
,
0100
0010
0100
1000
0100
0010
0100
0001
,
0100
1000
0010
0100
0001
0010
1000
0010
,
0100
0010
0001
0010
0100
0010
1000
0010
,
0100
0010
0001
0010
0100
0010
1000
0010
,
0100
0010
0001
0010
0100
1000
0010
0100
,
0001
1000
0001
0100
0000
0000
1001
0000
,
1000
0000
0010
0000
0100
0010
0100
0000
0001
0000
0010
0000
0100
0000
0000
0000
,
0010
0000
0001
0000
0100
0010
0100
0000
0010
0000
1000
0000
0001
0000
0010
0000
,
0001
0100
0010
1000
0100
0010
0100
1000
,
0001
0100
0010
1000
0001
0000
1001
0000
,
0001
0000
0100
0000
0010
0100
0010
0000
1000
0000
0100
0000
0010
0000
0000
0000
,
0100
0000
1000
0000
0010
0100
0010
0000
0100
0000
0001
0000
1000
0000
0100
0000
,
1000
0010
0100
0001
0010
0100
0010
0001
,
1000
0010
0100
0001
2000
0000
3010
0000
,
0011
0001
1000
0000
1010
1000
0001
0000
,
0101
0001
1000
0000
1100
1000
0001
0100
,
0010
1000
0100
0010
0100
1000
0001
0100
,
0010
0000
1000
0000
0001
1000
0001
0000
0010
0000
0001
0000
1000
0000
0000
0000
,
1100
1000
0001
0000
0101
0001
1000
0000
,
1010
0000
1000
0000
0001
0000
0000
0000
0011
0000
0001
0000
1000
0100
1000
0000
,
0010
0000
0100
0000
0001
1000
0001
0000
0100
0000
0010
0000
1000
0100
1000
0000
,
0010
0000
0100
0000
0001
0010
0001
0000
1000
0000
0010
0100
0000
0000
0000
0000
,
0001
0100
0010
0000
0000
0000
0000
0000
1000
0100
0010
0000
0000
0000
0000
0000
,
0000
0000
0000
0000
0001
1000
0010
0000
0000
0000
0000
0000
0100
0010
1000
0000
,
0000
0000
0000
0000
0001
1000
0100
0000
0000
0000
0000
0000
0010
0001
1000
0000
,
0000
0000
0000
0000
0000
0000
0000
0000
0100
0010
0100
0000
0000
0000
0000
0000
,
1000
0010
0100
0000
0000
0000
0000
0000
0001
0010
0100
0000
0000
0000
0000
0000
,
0000
0000
0000
0000
1000
0001
0100
0000
0000
0000
0000
0000
0010
0100
0001
0000
,
0000
0000
0000
0000
1000
0001
0010
0000
0000
0000
0000
0000
0100
1000
0001
0000
,
0000
0000
0000
0000
0000
0000
0000
0000
0010
0100
0010
0000
0000
0000
0000
0000
,
1000
0100
1000
0000
0010
0000
0100
0000
0001
1000
0001
0000
0100
0000
0010
0000
,
1000
0000
0100
0000
0010
0001
0010
0000
0100
0000
1000
0000
0010
1000
0010
0000
,
0100
0000
0001
0000
0010
0100
0010
0000
0001
0000
1000
0000
0100
1000
0100
0000
,
1000
0000
0010
0000
0100
0000
0001
0000
1000
0100
1000
0000
0010
0000
0100
0000
,
0001
1000
0001
0000
0010
0000
0100
0000
1000
0001
1000
0000
0010
0000
0100
0000
,
0001
0000
0010
0000
0100
0010
0100
0000
0010
0000
0001
0000
1000
0010
1000
0000
,
0001
0000
0100
0000
0010
0100
0010
0000
0100
0000
0001
0000
0010
0100
0010
0000
,
0001
0000
1000
0000
0010
0000
0100
0000
0001
1000
0001
0000
0100
0000
0010
0000
,
2000
0000
0000
0000
,
0000
0000
0000
0000
,
0000
0000
0000
0000
,
0000
0000
0000
0000
,
3000
0000
0000
0000
;

//---------------dance-single - ----------------
#NOTES:
     dance-single:
     :
     Challenge:
     12:
     0.856901,1.000000,0.156933,0.017437,0.845692,668.000000,18.000000,2.000000,0.000000,0.000000,0.000000,0.856901,1.000000,0.156933,0.017437,0.845692,668.000000,18.000000,2.000000,0.000000,0.000000,0.000000:
0000
0000
0000
0000
,
0000
0000
0000
0000
,
0000
0000
0000
0000
,
0000
0000
0000
0000
,
1000
0100
1000
0100
0000
0000
0010
0000
0000
0001
0000
0000
0100
0010
0100
0010
0000
0000
1000
0000
0000
0001
0000
0000
,
0010
0000
0000
0100
0000
0000
1000
0010
1000
0010
0000
0000
0100
0000
0000
0001
0000
0000
0010
0100
0010
0100
0000
0000
,
0010
0000
0000
0001
0000
0000
1000
0010
1000
0010
0000
0000
0100
0000
0000
0001
0000
0000
1000
0100
1000
0100
0000
0000
,
0010
0000
0000
0000
0000
0000
0001
0000
0000
0000
0000
0000
0100
0000
0000
0000
0000
0000
0010
0000
0000
0000
0000
0000
1000
0000
0001
0000
1000
0000
0001
0000
0000
0000
0000
0000
0100
0000
0000
0001
0000
0000
0100
0000
0000
0010
0000
0000
,
1000
0000
0000
0000
0001
0100
0001
0000
1000
0000
0100
0000
0010
0001
0010
0000
,
0100
0000
1000
0000
0010
0100
0010
0000
1000
0000
0100
0000
0010
0001
0010
0000
,
0100
0000
1000
0000
0010
0000
1000
0001
1000
0000
0010
0000
0100
0001
0100
0000
,
0010
0000
1000
0000
0100
0000
0010
0001
0010
0000
0100
0000
1000
0001
1000
0000
,
0010
0000
0100
0000
0001
0100
0001
0000
1000
0000
0100
0000
0010
0001
0010
0000
,
0100
0000
0010
0000
0001
1000
0001
0000
0100
0000
0010
0000
1000
0100
1000
0000
,
0010
0000
0100
0000
0001
0000
1000
0100
1000
0000
0010
0000
0100
0001
0100
0000
,
0010
0000
1000
0000
0100
0000
0010
0001
0010
0000
0100
0000
1000
0001
1000
0000
,
0010
0100
0010
0100
0001
0000
1000
0000
1001
0000
1000
0000
0100
0000
0010
0000
,
0110
0010
0001
1000
1001
1000
0010
0100
,
0110
0000
0100
0000
0010
0000
1000
0100
1000
0000
0010
0000
1000
0001
1000
0000
,
0010
0000
0100
0000
0001
0000
1000
0100
1000
0000
0010
0000
0100
0001
0100
0000
,
0010
1000
1000
0001
1001
0001
0010
0100
,
0110
0100
1000
0001
1001
0001
0100
0010
,
0110
0000
0010
0000
0100
0000
0001
0010
0001
0000
0100
0000
0001
1000
0001
0000
,
0100
0000
0010
0000
1000
0000
0001
0010
0001
0000
0100
0000
0010
1000
0010
0000
,
0100
0000
0000
0001
0000
0000
1000
0000
0000
0001
0000
0000
0000
0000
0000
0000
0000
0000
0000
0000
0000
0000
0000
0000
1000
0000
0100
0000
0010
0000
0001
0000
0000
0000
0000
0000
0000
0000
0000
0000
0000
0000
0000
0000
0000
0000
0000
0000
,
1000
0100
0010
0001
0000
0000
0000
0000
0000
0000
0000
0000
0000
0000
0000
0000
0000
0000
0100
0010
1000
0001
0000
0000
,
0000
0000
0000
0000
0000
0000
0100
0010
1000
0001
0000
0000
0000
0000
0000
0000
0000
0000
0100
0010
1000
0001
0000
0000
,
0000
0000
0000
0000
0000
0000
0100
0010
1000
0001
0000
0000
0000
0000
0000
0000
0000
0000
0000
0000
0000
0000
0000
0000
,
0001
0010
0100
1000
0000
0000
0000
0000
0000
0000
0000
0000
0001
0100
0010
1000
0000
0000
0000
0000
0000
0000
0000
0000
,
0001
0100
0010
1000
0000
0000
0000
0000
0000
0000
0000
0000
0000
0000
0000
0000
0000
0000
0010
1000
0001
0100
0000
0000
,
0000
0000
0000
0000
0000
0000
0010
1000
0001
0100
0000
0000
0000
0000
0000
0000
0000
0000
0010
1000
0001
0100
0000
0000
,
0000
0000
0000
0000
0000
0000
0010
1000
0001
0100
0000
0000
0000
0000
0000
0000
0000
0000
0000
0000
0000
0000
0000
0000
,
1000
0100
0010
0001
0000
0000
0000
0000
0000
0000
0000
0000
0001
0010
0001
0010
0000
0000
0100
0000
0000
1000
0000
0000
,
0010
0100
0010
0100
0000
0000
0001
0000
0000
1000
0000
0000
0100
0000
0000
0010
0000
0000
0001
0100
0001
0100
0000
0000
,
0010
0000
0000
1000
0000
0000
0100
0010
0100
0010
0000
0000
0100
0000
0000
1000
0000
0000
0001
0100
0001
0100
0000
0000
,
0010
0000
0000
1000
0000
0000
0001
0010
0001
0010
0000
0000
0100
0000
0000
1000
0000
0000
0010
0000
0000
0100
0000
0000
,
0001
1000
0001
1000
0000
0000
0010
0000
0000
0010
0000
0000
1000
0100
1000
0100
0000
0000
0010
0000
0000
0001
0000
0000
,
0100
0010
0100
0010
0000
0000
1000
0000
0000
0001
0000
0000
0010
0000
0000
0100
0000
0000
1000
0010
1000
0010
0000
0000
,
0100
0000
0000
0001
0000
0000
0010
0100
0010
0100
0000
0000
0010
0000
0000
0001
0000
0000
1000
0010
1000
0010
0000
0000
,
0100
0000
0000
0001
0000
0000
1000
0100
1000
0100
0000
0000
0010
0000
0000
0001
0000
0000
0100
0000
0000
0010
0000
0000
,
1000
0000
0001
0000
1000
0000
0001
0000
0000
0000
0000
0000
0100
0000
0000
0000
0000
0000
0110
0000
0000
0000
0000
0000
0000
0000
0000
0000
0000
0000
0000
0000
0000
0000
0000
0000
1000
0000
0000
0010
0000
0000
1000
0000
0000
0000
0000
0000
,
0001
0000
0010
0000
0100
1000
0100
0000
0010
0000
0001
0000
0100
0010
0100
0000
,
0001
0000
0010
0000
0100
1000
0100
0000
0010
0000
0001
0000
0100
0000
0001
1000
,
0001
0000
0100
0000
0010
1000
0010
0000
0100
0000
0001
0000
0010
0000
0100
1000
,
0100
0000
0010
0000
0001
1000
0001
0000
0100
0000
0010
0000
1000
0010
1000
0000
,
0001
0000
0010
0000
0100
1000
0100
0000
0010
0000
0100
0000
1000
0001
1000
0000
,
0010
0000
0100
0000
0001
0010
0001
0000
0100
0000
0010
0000
1000
0000
0001
0010
,
0001
0000
0100
0000
0010
1000
0010
0000
0100
0000
0001
0000
0010
0000
0100
1000
,
0100
0000
0010
0000
0001
1000
0001
0000
0100
0010
0100
0010
1000
0000
0001
0000
,
1001
0001
0010
0100
0110
0100
1000
0001
,
1001
0000
0001
0000
0100
0000
0010
0000
0110
0000
0010
0000
0100
0000
0001
0010
,
0001
0000
0100
0000
0001
1000
0001
0000
0100
0000
0010
0000
1000
0000
0001
0010
,
0001
0000
0100
0000
0010
1000
0010
0000
0100
0000
0001
0000
0001
0000
1000
0000
,
1001
1000
0100
0010
0110
0010
0001
1000
,
1001
0000
1000
0000
0010
0000
0100
0000
0110
0000
0100
0000
0001
1000
0001
1000
,
0010
0100
0010
0100
0001
1000
0001
1000
0010
0100
0010
0100
0001
0010
0100
1000
,
0001
0010
0100
1000
0001
0100
0010
1000
0001
0100
0010
1000
0000
0000
0000
0000
,
0001
0010
0100
1000
0000
0000
0000
0000
0000
0000
0000
0000
0001
0010
0100
1000
0000
0000
0000
0000
0000
0000
0000
0000
,
0000
0000
0000
0000
0000
0000
0010
0100
0001
1000
0000
0000
0000
0000
0000
0000
0000
0000
0010
0100
0001
1000
0000
0000
,
0000
0000
0000
0000
0000
0000
0010
0100
0001
1000
0000
0000
0000
0000
0000
0000
0000
0000
0010
0100
0001
1000
0000
0000
,
0000
0000
0000
0000
0000
0000
0000
0000
0000
0000
0000
0000
1000
0100
0010
0001
0000
0000
0000
0000
0000
0000
0000
0000
,
1000
0010
0100
0001
0000
0000
0000
0000
0000
0000
0000
0000
1000
0010
0100
0001
0000
0000
0000
0000
0000
0000
0000
0000
,
0000
0000
0000
0000
0000
0000
0100
0001
1000
0010
0000
0000
0000
0000
0000
0000
0000
0000
0100
0001
1000
0010
0000
0000
,
0000
0000
0000
0000
0000
0000
0100
0001
1000
0010
0000
0000
0000
0000
0000
0000
0000
0000
0100
0001
1000
0010
0000
0000
,
0000
0000
0000
0000
0000
0000
0000
0000
0000
0000
0000
0000
0001
0010
0100
1000
0000
0000
0000
0000
0000
0000
0000
0000
,
0001
0100
0010
1000
0000
0000
0100
0000
0000
1000
0000
0000
0010
0100
0010
1000
0000
0000
0001
0000
0000
0100
0000
0000
,
0001
0000
0000
0010
0000
0000
0100
1000
0001
0100
0000
0000
0010
0000
0000
1000
0000
0000
0100
0010
0001
1000
0000
0000
,
0010
0000
0000
0100
0000
0000
0001
0010
0100
1000
0000
0000
0001
0000
0000
1000
0000
0000
0010
0100
0010
1000
0000
0000
,
0100
0000
0000
0010
0000
0000
0001
0000
0000
0100
0000
0000
0001
0010
0001
1000
0000
0000
0010
0000
0000
0100
0000
0000
,
0010
1000
0100
0010
0000
0000
0001
0000
0000
1000
0000
0000
0001
0010
0100
1000
0000
0000
0010
0000
0000
0100
0000
0000
,
0010
0000
0000
1000
0000
0000
0100
0010
0001
1000
0000
0000
0010
0000
0000
0100
0000
0000
0001
0010
0100
1000
0000
0000
,
0001
0000
0000
0100
0000
0000
0010
1000
0100
0010
0000
0000
0001
0000
0000
1000
0000
0000
0100
1000
0010
0100
0000
0000
,
0001
0000
0000
1000
0000
0000
0001
0000
0000
0010
0000
0000
0100
1000
0001
0100
0000
0000
0010
0000
0000
0100
0000
0000
,
2002
0000
0000
0000
,
0000
0000
0000
0000
,
0000
0000
0000
0000
,
0000
0000
0000
0000
,
3003
0000
0000
0000
;

//---------------dance-single - ----------------
#NOTES:
     dance-single:
     :
     Medium:
     7:
     0.422223,0.570624,0.584138,0.017437,0.000000,270.000000,67.000000,2.000000,0.000000,0.000000,0.000000,0.422223,0.570624,0.584138,0.017437,0.000000,270.000000,67.000000,2.000000,0.000000,0.000000,0.000000:
0000
0000
0000
0000
,
0000
0000
0000
0000
,
0000
0000
0000
0000
,
0000
0000
0000
0000
,
0000
0000
0000
0000
,
0000
0000
0000
0000
,
0000
0000
0000
0000
,
0000
0000
0000
0000
,
0000
0000
1001
0000
0100
0000
0010
1000
,
0100
0000
1100
0000
0010
0000
0001
1000
,
0010
0000
0100
0001
0100
0000
0010
0000
,
1000
0000
0100
1000
0100
0000
0010
0000
,
0001
0000
0011
0000
1000
0000
0001
1000
,
0010
0000
1010
0000
1000
0000
0001
1000
,
0010
0000
0100
0000
0001
0000
1000
0100
,
1000
0000
0010
0000
1000
0000
0001
1000
,
0001
0000
0101
1000
,
1100
0001
0011
1000
,
1010
0000
0001
0010
0100
1000
0001
0000
,
1000
0000
0010
1000
0100
0010
0001
0000
,
1000
0010
1010
1000
,
1100
0001
0101
0010
,
0011
0000
0001
0010
0100
1000
0001
0000
,
1000
0000
0010
1000
0100
0010
0001
0000
,
1000
0010
0000
0000
0101
0000
0000
0000
,
1100
0000
0000
1001
,
0000
0110
0000
0011
,
0000
1010
0000
0000
,
1001
0000
0110
0000
,
1100
0000
0000
1001
,
0000
0101
0000
1001
,
0000
1010
0000
0000
,
1001
0000
0000
0000
0010
1000
0100
0000
,
0010
0001
0100
0000
0000
0000
0001
1000
,
0100
0000
1000
0001
0100
0000
0010
1000
,
0100
0000
0010
0001
1000
0000
0000
0000
,
0001
0100
0010
0000
1000
0100
0010
0000
,
0001
1000
0010
0000
0000
0000
0100
0010
,
1000
0000
0100
0010
0001
0000
1000
0001
,
0100
0000
0010
1000
0100
0000
0000
0000
,
1000
0100
0010
0001
1000
0000
0101
0000
,
1000
0000
0001
1000
0100
0000
1100
0000
,
0010
0000
1000
0100
0010
0000
0001
1000
,
0001
1000
0010
0000
0100
0000
0001
1000
,
0001
1000
0100
0000
0010
0000
0011
0000
,
0100
0000
1000
0010
0100
0000
0110
0000
,
0100
0000
0001
1000
0010
0000
1000
0100
,
1000
0100
0010
0000
0001
0000
1000
0100
,
1000
0100
0010
0000
0001
0000
0000
0000
,
1100
0010
0101
0010
,
1100
0000
0010
0000
0101
0000
1000
0010
,
0100
0001
0010
0100
1000
0000
0010
0100
,
0001
0010
0100
0010
0001
0000
1000
0000
,
1010
0100
0011
0100
,
1010
0000
0100
0000
0011
0000
0010
0100
,
0010
0001
0100
0010
1000
0100
0010
0001
,
1000
0010
0100
0001
1000
0100
0000
0000
,
1100
0000
0101
0000
,
0000
1001
0000
0110
,
0000
0011
0000
1010
,
0000
0000
1001
0000
,
0101
0000
1100
0000
,
0000
1001
0000
0110
,
0000
0011
0000
1100
,
0000
0000
1001
0000
,
1010
1000
0000
0000
0101
0001
0000
0000
,
0000
0000
1001
1000
0000
0000
0110
0010
,
0000
0000
0011
0010
0000
0000
1001
0001
,
0000
0000
0000
0000
1100
1000
0000
0000
,
0110
0010
0000
0000
1001
1000
0000
0000
,
0000
0000
0110
0100
0000
0000
0011
0010
,
0000
0000
1001
1000
0000
0000
1010
0010
,
0000
0000
0000
0000
1001
0001
0000
0000
,
0220
0000
0000
0000
,
0000
0000
0000
0000
,
0000
0000
0000
0000
,
0000
0000
0000
0000
,
0330
0000
0000
0000
;

//---------------dance-single - ----------------
#NOTES:
     dance-single:
     :
     Easy:
     5:
     0.246608,0.369227,0.183088,0.017437,0.000000,175.000000,21.000000,2.000000,0.000000,0.000000,0.000000,0.246608,0.369227,0.183088,0.017437,0.000000,175.000000,21.000000,2.000000,0.000000,0.000000,0.000000:
0000
0000
0000
0000
,
0000
0000
0000
0000
,
0000
0000
0000
0000
,
0000
0000
0000
0000
,
0000
0000
0000
0000
,
0000
0000
0000
0000
,
0000
0000
0000
0000
,
0000
0000
0000
0000
,
0000
1000
0001
0100
,
0100
0010
1000
0100
,
0100
0000
1000
0100
,
0000
0000
0001
0100
,
0000
0010
0100
0001
,
0001
0010
0001
1000
,
1000
0000
0001
0010
,
0000
0000
1000
0010
,
0000
0000
1001
0000
,
0101
0000
1001
0000
,
1100
0000
0010
0001
,
1000
0010
0100
0001
,
1000
0000
1010
0000
,
1001
0000
0011
0000
,
1001
0000
0010
1000
,
0100
0010
0001
1000
,
0010
0000
1000
0000
,
0001
0000
0000
0100
,
0000
0100
0000
0100
,
0000
0010
0000
0000
,
1000
0000
0001
0000
,
0010
0000
0000
0001
,
0000
0001
0000
0001
,
0000
1000
0000
0000
,
0100
0000
1000
0010
,
0100
0001
0000
1000
,
0100
0010
0001
1000
,
0000
0010
0100
0000
,
0001
1000
0001
0100
,
0010
1000
0000
0100
,
1000
0010
0100
0001
,
0000
1000
0100
0000
,
0010
0001
0000
1001
,
0000
0100
0010
1000
,
0000
0100
0000
0010
,
0001
1000
0010
0100
,
0001
1000
0000
1001
,
0000
0100
0010
0001
,
0000
1000
0000
0001
,
1000
0010
0100
0001
,
0010
0100
0000
0000
,
1001
0000
1010
0000
,
1001
0000
0011
0000
,
0010
0001
0100
0010
,
1000
0001
0100
0000
,
1001
0000
1100
0000
,
1001
0000
0101
0000
,
1000
0100
0010
0001
,
1000
0010
0100
0100
,
0010
0000
1000
0000
,
0000
0001
0000
0010
,
0000
0100
0000
1000
,
0000
0000
1001
0000
,
0010
0000
1000
0000
,
0000
0001
0000
0010
,
0000
0100
0000
1000
,
0000
0000
1001
0000
,
0010
1000
0100
0000
,
0010
0001
0100
0000
,
0001
0100
0010
0000
,
1000
0001
0100
0000
,
0010
1000
0100
0010
,
0001
1000
0010
1000
,
0001
0100
0010
1000
,
0100
0000
0010
0010
,
2002
0000
0000
0000
,
0000
0000
0000
0000
,
0000
0000
0000
0000
,
0000
0000
0000
0000
,
3003
0000
0000
0000
;

//---------------dance-single - ----------------
#NOTES:
     dance-single:
     :
     Beginner:
     2:
     0.151951,0.234963,0.052311,0.017437,0.000000,114.000000,6.000000,2.000000,0.000000,0.000000,0.000000,0.151951,0.234963,0.052311,0.017437,0.000000,114.000000,6.000000,2.000000,0.000000,0.000000,0.000000:
0000
0000
0000
0000
,
0000
0000
0000
0000
,
0000
0000
0000
0000
,
0000
0000
0000
0000
,
0000
0000
0000
0000
,
0000
0000
0000
0000
,
0000
0000
0000
0000
,
0000
0000
0000
0000
,
0000
1001
0000
0000
,
0000
0100
0000
0000
,
0000
0010
0000
0010
,
0000
1000
0000
1000
,
0000
0001
0000
0000
,
0000
0010
0000
0000
,
0000
0001
0000
0001
,
0000
1000
0000
0010
,
0000
0000
1000
0000
,
1000
0000
0001
0000
,
0001
0000
0000
0100
,
0100
0000
0000
0100
,
0100
0000
0100
0000
,
0100
0000
0010
0000
,
0010
0000
0000
1000
,
1000
0000
0000
0001
,
0001
0000
1000
0000
,
1000
0000
0000
0001
,
0000
0001
0000
0001
,
0000
0001
0000
0000
,
0100
0000
0010
0000
,
0010
0000
0000
1000
,
0000
1000
0000
1000
,
0000
1000
0000
0000
,
0100
0000
0010
0000
,
0010
0000
0000
0001
,
0000
0001
0000
0001
,
0000
0001
0000
0000
,
1000
0000
0010
0000
,
0010
0000
0000
0100
,
0000
0100
0000
0100
,
0000
0100
0000
0000
,
0001
0000
0000
1001
,
0000
0000
0000
1000
,
0000
0000
0000
0010
,
0000
1000
0000
0100
,
0000
0100
0000
1001
,
0000
0000
0000
0100
,
0000
0000
0000
0010
,
0000
0100
0000
0001
,
0000
0001
0000
0000
,
1000
0000
1000
0000
,
0001
0000
0001
0000
,
0000
0100
0100
0000
,
0000
0100
0100
0100
,
0000
0010
0000
1000
,
0000
0001
0000
1000
,
0000
0001
0000
0100
,
0000
0010
0010
0000
,
1001
0000
1000
0000
,
0000
0010
0000
0010
,
0000
0010
0000
0010
,
0000
0000
0100
0000
,
0001
0000
0001
0000
,
0000
1000
0000
1000
,
0000
1000
0000
1000
,
0000
0000
0010
0000
,
1001
0000
0001
0000
,
0000
0100
0000
0100
,
0000
0100
0000
0100
,
0000
0000
0010
0000
,
1000
0000
1000
0000
,
0000
0001
0000
0001
,
0000
0001
0000
0001
,
0000
0000
0100
0000
,
2002
0000
0000
0000
,
0000
0000
0000
0000
,
0000
0000
0000
0000
,
0000
0000
0000
0000
,
3003
0000
0000
0000
;

//---------------dance-double - ----------------
#NOTES:
     dance-double:
     :
     Challenge:
     9:
     0.616521,0.686580,0.104622,0.043592,0.357457,478.000000,12.000000,5.000000,0.000000,0.000000,0.000000,0.616521,0.686580,0.104622,0.043592,0.357457,478.000000,12.000000,5.000000,0.000000,0.000000,0.000000:
// measure 0
00000000
00000000
00000000
00000000
,  // measure 1
00000000
00000000
00000000
00000000
,  // measure 2
00000000
00000000
00000000
00000000
,  // measure 3
00000000
00000000
00000000
00000000
,  // measure 4
10000000
01000000
10000000
00000000
00100000
00000000
01000000
00000000
00010000
10000000
00010000
00000000
01000000
00000000
00100000
00000000
,  // measure 5
10000000
00000000
01000000
00000000
00100000
00010000
00100000
00000000
00010000
00000000
00100000
00000000
00001000
00010000
00001000
00000000
,  // measure 6
00010000
00000000
00000100
00000000
00001000
00000010
00001000
00000000
00000000
00000001
00000010
00000000
00000100
00001000
00000100
00000000
,  // measure 7
00001000
00000000
00000010
00000000
00000100
00000000
00000001
00000000
00001000
00000001
00001000
00000000
00000001
00000000
00001000
00000000
,  // measure 8
00000020
00000000
00000130
00000000
00000001
00000100
00000010
00001000
,  // measure 9
00000100
00000010
00000001
00000000
00000010
00000001
00001000
00000010
,  // measure 10
00000100
00000000
00000001
00000000
00000000
00000000
00001000
00000100
00001000
00000000
00000100
00000000
00010000
00000000
00001000
00000000
,  // measure 11
00100000
00010000
00000000
00000000
00000000
01000000
00100000
00000000
01000000
00000000
00010000
00100000
00000000
01000000
00000000
00000000
,  // measure 12
10000000
10000000
00100000
10000000
01000000
00100000
00010000
10000000
,  // measure 13
00100000
01000000
00010000
00100000
00001000
00010000
00000100
00001000
,  // measure 14
00000010
00000000
00000100
00000000
00000000
00000000
00000001
00001000
00000001
00000000
00001000
00000000
00000010
00000000
00000100
00000000
,  // measure 15
00000001
00000000
00001000
00000000
00000000
00000000
00000001
00001000
00000001
00000000
00001000
00000000
00000100
00000000
00000010
00000000
,  // measure 16
00000001
00001000
00000010
00000000
00001010
00000000
00000001
00000000
,  // measure 17
00000101
00001000
00001001
00000001
,  // measure 18
00001001
00000000
00000001
00000010
00001000
00010000
00100000
10000000
,  // measure 19
00010000
00010000
10000000
00100000
00010000
00001000
00000010
00000001
,  // measure 20
00001000
00001000
00000100
00000000
00001100
00000000
00010000
00000000
,  // measure 21
00011000
00100000
00110000
10000000
,  // measure 22
10100000
00000000
00010000
01000000
01000000
00100000
10000000
10000000
,  // measure 23
01000000
00100000
00010000
10000000
10000000
00100000
01000000
01000000
,  // measure 24
00010000
00000000
00100000
00000000
00002000
00000000
00000000
00000000
00013000
00000100
00000000
00000000
00000000
00000000
00000000
00000000
,  // measure 25
00010000
00001000
00000000
00000000
00000000
00000000
00000000
00000000
00000000
00000000
00000000
00000000
00100000
00010000
00000000
00000000
,  // measure 26
00000000
00000000
00000000
10000000
00000000
00100000
00000000
00000000
00000000
00000000
00000000
00000000
10000000
01000000
00000000
00000000
,  // measure 27
00000000
00000000
00000000
00000000
10000000
00010000
00000000
00000000
00000000
00000000
00000000
00000000
00000000
00000000
00000000
00000000
,  // measure 28
00010000
01000000
00000000
00000000
00000000
00000000
00000000
00000000
00001000
01000000
00000000
00000000
00000000
00000000
00000000
00000000
,  // measure 29
00000100
00010000
00000000
00000000
00000000
00000000
00000000
00000000
00000000
00000000
00000000
00000000
00000010
00001000
00000000
00000000
,  // measure 30
00000000
00000000
00000000
00000000
00000001
00000010
00000000
00000000
00000000
00000000
00000000
00000000
00000001
00000100
00000000
00000000
,  // measure 31
00000000
00000000
00000000
00000000
00000010
00001000
00000000
00000000
00000000
00000000
00000000
00000000
00000000
00000000
00000000
00000000
,  // measure 32
00000001
00000010
00000000
00000000
00000000
00000000
00000000
00000000
00000001
00001000
00000001
00000000
00001000
00000000
00000100
00000000
,  // measure 33
00010000
00000100
00010000
00000000
00001000
00000000
00100000
00000000
00010000
00000000
01000000
00000000
00100000
10000000
00100000
00000000
,  // measure 34
01000000
00000000
00010000
00000000
10000000
01000000
10000000
00000000
00100000
00000000
01000000
00000000
00010000
10000000
00010000
00000000
,  // measure 35
01000000
00000000
00100000
00000000
10000000
01000000
10000000
00000000
00100000
00000000
01000000
00000000
00010000
00000000
00100000
00000000
,  // measure 36
00001000
00010000
00001000
00000000
00010000
00000000
00000100
00000000
00001000
00000010
00001000
00000000
00000001
00000000
00000010
00000000
,  // measure 37
00000100
00000010
00000100
00000000
00000010
00000000
00000001
00000000
00001000
00000000
00000010
00000000
00000100
00000001
00000100
00000000
,  // measure 38
00000010
00000000
00001000
00000000
00000100
00001000
00000100
00000000
00001000
00000000
00000100
00000000
00010000
00001000
00010000
00000000
,  // measure 39
00001000
00000000
00100000
00000000
00010000
01000000
00010000
00000000
10000000
00000000
01000000
00000000
00100000
00000000
00010000
00000000
,  // measure 40
10000000
00100000
10000000
00000000
01000000
00000000
00100000
00000000
00020000
00000000
00000000
00000000
01030000
00000000
00000000
00000000
,  // measure 41
00100000
01000000
00010000
00100000
00001000
00010000
00000100
00000000
,  // measure 42
00001000
00000010
00000100
00000001
00000010
00000100
00001000
00000010
,  // measure 43
00000010
00000000
00000100
00000000
00000001
00000000
00000001
00000000
00000010
00000000
00000100
00000000
00000010
00000001
00000000
00000000
,  // measure 44
00000001
00000100
00000010
00000010
00001000
00000100
00010000
00000000
,  // measure 45
00000100
00010000
00001000
00100000
00010000
01000000
00100000
00000000
,  // measure 46
10000000
00100000
01000000
00010000
00100000
00001000
00010000
00001000
,  // measure 47
00001000
00100000
00010000
00010000
01000000
00100000
10000000
01000000
,  // measure 48
01000000
00000000
10000000
00000000
00100000
00000000
01000000
00000000
00010000
10000000
00010000
10000000
00100000
00000000
00000000
00000000
,  // measure 49
11000000
00000000
00100000
00000000
01010000
00000000
10000000
01000000
,  // measure 50
00010000
00000000
00001000
00000100
00000001
00000000
00000010
00000000
,  // measure 51
00000011
00000000
00001000
00000000
00001010
00000000
00000001
00000010
,  // measure 52
00001000
00000000
00010000
00100000
10000000
00000000
00010000
10000000
,  // measure 53
00100000
00100000
00100000
01000000
00010000
00100000
00001000
00010000
,  // measure 54
00000010
00000000
00000010
00000000
00000010
00000000
00001000
00000000
00000100
00000000
00000010
00000000
00000001
00001000
00000000
00000000
,  // measure 55
00000010
00000000
00000000
00000000
00000001
00001000
00000000
00000000
00000010
00000000
00000000
00000000
00000001
00001000
00000000
00000000
,  // measure 56
00000001
00001000
00000000
00000000
00000010
00000100
00000000
00000000
00000010
00000100
00000000
00000000
00000002
00000000
00000000
00000000
,  // measure 57
00001003
00000100
00000000
00000000
00000000
00000000
00000000
00000000
00010000
00001000
00000000
00000000
00000000
00000000
00000000
00000000
,  // measure 58
00000000
00000000
00000000
00000000
00100000
00010000
00000000
00000000
00000000
00000000
00000000
00000000
10000000
00100000
00000000
00000000
,  // measure 59
00000000
00000000
00000000
00000000
10000000
01000000
00000000
00000000
00000000
00000000
00000000
00000000
10000000
00010000
00000000
00000000
,  // measure 60
00000000
00000000
00000000
00000000
00000000
00000000
00000000
00000000
00010000
01000000
00000000
00000000
00000000
00000000
00000000
00000000
,  // measure 61
00001000
01000000
00000000
00000000
00000000
00000000
00000000
00000000
00000100
00010000
00000000
00000000
00000000
00000000
00000000
00000000
,  // measure 62
00000000
00000000
00000000
00000000
00000010
00001000
00000000
00000000
00000000
00000000
00000000
00000000
00000001
00000010
00000000
00000000
,  // measure 63
00000000
00000000
00000000
00000000
00000001
00000100
00000000
00000000
00000000
00000000
00000000
00000000
00000010
00001000
00000000
00000000
,  // measure 64
00000000
00000000
00000000
00000000
00000000
00000000
00000000
00000000
00000001
00000010
00000000
00000000
00000000
00000000
00000000
00000000
,  // measure 65
00000001
00001000
00000001
00000000
00001000
00000000
00000010
00000000
00000100
00000010
00000100
00000000
00000001
00000000
00000010
00000000
,  // measure 66
00000100
00000000
00001000
00000000
00000010
00001000
00000010
00000000
00001000
00000000
00000100
00000000
00010000
00001000
00010000
00000000
,  // measure 67
00001000
00000000
00100000
00000000
00010000
00100000
00010000
00000000
10000000
00000000
00100000
00000000
01000000
00100000
01000000
00000000
,  // measure 68
00100000
10000000
00000000
00000000
01000000
00000000
00100000
00000000
00010000
00100000
00010000
00000000
10000000
00000000
00100000
00000000
,  // measure 69
01000000
00100000
01000000
00000000
00010000
00000000
00100000
00000000
00001000
00100000
00001000
00000000
00100000
00000000
00001000
00000000
,  // measure 70
00010000
00000000
00000100
00000000
00001000
00000010
00001000
00000000
00000100
00000000
00000010
00000000
00000001
00001000
00000001
00000000
,  // measure 71
00001000
00000000
00000010
00000000
00000100
00000001
00000100
00000000
00000010
00000000
00001000
00000000
00000100
00000010
00000100
00000000
,  // measure 72
00000010
00000000
00000001
00000000
00000100
00000000
00000010
00000000
00001000
00000010
00001000
00000000
00000100
00000000
00010000
00000000
,  // measure 73
00002000
00000000
00000000
00000000
,  // measure 74
00000000
00000000
00000000
00000000
,  // measure 75
00003000
00000000
00000000
00000000
;
