#VERSION:0.82;
#TITLE:The Rising Sun;
#SUBTITLE:Theme of Shinsuke Nakamura;
#ARTIST:CF0$;
#TITLETRANSLIT:;
#SUBTITLETRANSLIT:;
#ARTISTTRANSLIT:;
#GENRE:Strong Style!;
#ORIGIN:;
#CREDIT:;
#BANNER:The Rising Sun.png;
#BACKGROUND:The Rising Sun-bg.png;
#PREVIEWVID:;
#JACKET:jacket.png;
#CDIMAGE:;
#DISCIMAGE:;
#LYRICSPATH:;
#CDTITLE:;
#MUSIC:The Rising Sun.ogg;
#OFFSET:-0.423000;
#SAMPLESTART:21.431080;
#SAMPLELENGTH:13.714000;
#SELECTABLE:YES;
#BPMS:0.000=160.000;
#STOPS:;
#DELAYS:;
#WARPS:;
#TIMESIGNATURES:0.000=4=4;
#TICKCOUNTS:0.000=4;
#COMBOS:0.000=1;
#SPEEDS:0.000=1.000=0.000=0;
#SCROLLS:0.000=1.000;
#FAKES:;
#LABELS:0.000=Song Start;
#BGCHANGES:7.667=The Rising Sun (Theme of Shinsuke Nakamura).avi=1.000=0=0=1=====,
99999=-nosongbg-=1.000=0=0=0 // don't automatically add -songbackground-
;
#KEYSOUNDS:;
#ATTACKS:
;

//---------------dance-single - ----------------
#NOTEDATA:;
#CHARTNAME:;
#STEPSTYPE:dance-single;
#DESCRIPTION:;
#CHARTSTYLE:;
#DIFFICULTY:Hard;
#METER:8;
#RADARVALUES:0.635964,0.703133,0.290964,0.581928,0.058193,492.000000,40.000000,80.000000,0.000000,0.000000,0.000000,0.000000,0.000000,0.635964,0.703133,0.290964,0.581928,0.058193,492.000000,40.000000,80.000000,0.000000,0.000000,0.000000,0.000000,0.000000;
#CREDIT:Ben Speirs;
#NOTES:
0000
0000
0000
0000
,
0000
0000
0000
0000
,
0000
0000
0000
0000
,
0000
0000
0000
0000
,
1010
0010
0100
0001
1000
0000
0001
0010
,
0100
1000
0001
0000
0100
0010
0100
0000
,
0001
0010
0100
1000
0001
0000
1000
0010
,
1000
0001
0100
0000
0010
1000
0001
0000
,
0011
0000
0100
0000
1010
0010
0100
0000
,
0101
0000
0010
0000
1001
1000
0100
0000
,
0011
0010
0100
1000
0010
0010
0100
0001
,
1000
0100
0001
0100
0010
0001
1000
0010
,
0000
0000
0000
0000
,
0200
0000
0000
0300
,
0101
0000
0010
1000
0200
0000
0310
0001
,
2000
0000
3010
1000
0002
0000
0013
0100
,
2000
0001
0100
0010
,
3002
0000
0100
0000
0010
0000
1003
0100
,
0010
0001
0200
0000
1000
0000
0010
0000
,
0302
0000
0013
0000
0100
0000
1000
0100
,
0010
0001
0100
0020
1000
0000
0001
0000
,
0230
0001
0320
1030
,
1010
0000
0100
0001
0020
0000
0130
1000
,
0002
0000
0103
0001
2000
0000
3100
0010
,
0002
1000
0010
0100
,
2003
0000
0010
0000
0100
0000
3001
0010
,
0100
1000
0020
0000
0001
0000
0100
0000
,
2030
0000
3100
0000
0010
0000
0001
0010
,
0100
1000
0010
0200
0001
0000
1000
0000
,
0320
1000
0230
0301
,
2001
3100
1002
0103
,
2001
3010
1010
0101
,
1200
0310
0102
0013
,
2010
3002
0023
0230
,
1300
0100
0020
0000
0031
1000
0020
0000
,
0130
0001
2000
0000
3100
0010
0001
0100
,
0010
1000
0002
0000
0013
0100
2000
0000
,
3001
0100
0020
0000
2030
0000
3002
0000
,
1003
0100
0010
0001
0100
0100
0010
1000
,
0001
0010
0100
1000
0010
0100
0001
0000
,
1000
0100
1000
0001
0100
0001
1000
0010
,
0200
0000
0001
0000
0010
0000
1000
1300
,
0000
0000
0000
0000
,
0202
0000
0000
0303
,
2000
0000
3010
0100
0010
0001
0010
0100
,
0002
0000
0013
0100
0010
1000
0010
0100
,
2000
0000
3001
0000
0200
0000
0310
1000
,
0002
0000
0023
0000
0130
0000
1000
0100
,
0010
0001
0100
0000
0102
0000
1000
0000
,
0010
0000
1003
0000
1001
0000
0001
0010
,
0100
1000
0010
0010
0200
0000
0301
0000
,
1010
0101
2001
3100
,
0002
0000
0103
0010
0100
1000
0100
0010
,
2000
0000
3100
0010
0100
0001
0100
0010
,
0002
0000
1003
0000
0020
0000
0130
0001
,
2000
0000
3200
0000
0310
0000
0001
0010
,
0100
1000
0010
0000
2010
0000
0001
0000
,
0100
0000
3001
0000
1001
0000
1000
0100
,
0010
0001
0100
0100
0020
0000
1030
0000
,
0101
1010
1002
0013
,
0001
0000
0100
0000
0010
0000
1000
0000
0001
0100
0001
0000
0010
0000
0100
0000
,
1000
0100
1000
0000
0010
0000
0100
0000
0001
1000
0001
0000
0100
0000
0010
0000
,
2000
0000
0100
0000
0001
0000
3010
1000
,
0002
0000
0000
0000
0010
0000
0000
0000
1000
0000
0000
0000
0100
0003
0010
0000
,
0100
0001
2000
0000
3200
0000
0310
0001
,
0010
0100
1000
0010
0200
0000
0301
0100
,
0010
1000
0100
0010
0002
0000
1003
1000
,
0010
0000
0100
0010
0100
0000
0010
0000
1000
0100
0000
0000
0010
0001
0000
0000
,
1000
0000
0100
0000
1000
0000
0010
0000
0100
0001
0100
0000
0010
0000
1000
0000
,
0001
0010
0001
0000
1000
0000
0010
0000
0100
0001
0100
0000
0010
0000
1000
0000
,
0002
0000
0010
0000
1000
0000
0103
0010
,
2000
0000
0100
0000
0001
0000
3010
1000
,
0100
0010
0001
0000
2100
0000
3001
1000
,
0010
0100
0001
0000
1010
0000
1001
0001
,
0010
0100
1000
0001
0100
0010
1000
0000
,
0001
0000
0100
0001
0100
0000
0001
0000
1000
0100
0000
0000
1000
0001
0000
0000
,
0201
0000
0310
1000
2010
0000
3001
0010
,
0012
0000
1003
0100
1100
0000
1001
0000
,
0012
0000
1003
0010
2010
0000
3001
0100
,
0020
2030
3002
0023
,
0031
0100
1000
0100
0010
1000
0100
0010
,
0001
1000
0010
0100
0001
0010
1000
0010
,
0100
1000
0010
0100
0001
1000
0100
0010
,
0001
1000
0010
0100
0001
0100
1000
0100
,
0020
1000
2030
0100
3200
0000
0310
0001
,
1000
0010
0100
0001
1000
0100
0010
0001
,
0100
0010
0100
0000
0001
0000
1000
0000
0010
0100
0010
0100
0001
0000
0000
0000
,
1100
0000
0000
0000
0101
0000
0000
0000
0010
1000
0010
0000
0100
0000
1001
0000
;

//---------------dance-double - ----------------
#NOTEDATA:;
#CHARTNAME:;
#STEPSTYPE:dance-double;
#DESCRIPTION:;
#CHARTSTYLE:;
#DIFFICULTY:Challenge;
#METER:8;
#RADARVALUES:0.629729,0.703133,0.290964,0.589202,0.032733,485.000000,40.000000,81.000000,0.000000,0.000000,0.000000,0.000000,0.000000,0.629729,0.703133,0.290964,0.589202,0.032733,485.000000,40.000000,81.000000,0.000000,0.000000,0.000000,0.000000,0.000000;
#CREDIT:Ben Speirs;
#NOTES:
00000000
00000000
00000000
00000000
,
00000000
00000000
00000000
00000000
,
00000000
00000000
00000000
00000000
,
00000000
00000000
00000000
00000000
,
20000000
00000000
00000000
30020000
00000000
00000000
02030000
00000000
,
00000000
03002000
00000000
00000000
10003000
01000000
00010000
00000000
,
00002000
00000000
00000000
00023000
00000000
00000000
00030200
00000000
,
00000000
00002300
00000000
00000000
00003010
00000100
00000001
00000000
,
00002010
00003001
00000012
00001003
,
00002100
00003001
00000102
00001003
,
00001001
00010100
00011000
01010000
,
01000000
00100000
10000000
01000000
00100000
00010000
00100000
00001000
,
00000000
00000000
00000000
00000000
,
00022000
00000000
00000000
00033000
,
00002100
00003010
00000102
00001003
,
00002010
00003001
00000012
00001003
,
00002001
00000100
00003010
00001010
,
00001002
00000000
00000100
00000000
00000010
00000000
00001003
00000100
,
00000010
00000001
00000200
00000000
00000320
00000000
00001030
00000100
,
00001000
00000010
00000200
00000000
00000302
00000000
00000013
00000100
,
00000010
00000001
00001000
00001000
00000200
00000000
00020300
00000000
,
00031000
00010000
00001000
00100000
00020000
00000000
01030000
00000000
,
00120000
01030000
20100000
30010000
,
01020000
10030000
21000000
30010000
,
10020000
00100000
01030000
01010000
,
20010000
00000000
00100000
00000000
01000000
00000000
30010000
00100000
,
01000000
10000000
00200000
00000000
02300000
00000000
03010000
00100000
,
00010000
01000000
00200000
00000000
20300000
00000000
31000000
00100000
,
01000000
10000000
00010000
00010000
00200000
00000000
00302000
00000000
,
00013000
00001000
00010000
00000100
00002000
00000000
00003010
00000000
,
00000200
00000001
00000302
00000010
,
00000023
00000130
00001100
00000110
,
00000012
00001000
00002003
00000010
,
00003020
00000230
00000302
00002003
,
00003100
00010000
00000100
00010000
00001000
00010000
00001000
00010000
,
00001000
00100000
00001000
00100000
00010000
01000000
00100000
10000000
,
01000000
00100000
01000000
00100000
00010000
00100000
00010000
00100000
,
00001000
00100000
00001000
00100000
00001000
00010000
00001000
00010000
,
00000100
00000100
00001000
00000010
00000100
00000001
00000010
00000100
,
00001000
00001000
00000100
00010000
00001000
00010000
00000100
00001000
,
00000010
00000010
00000100
00000100
00001000
00001000
00010000
00010000
,
00100000
10000000
01000000
00100000
00010000
01000000
00001000
00100000
,
00000000
00000000
00000000
00000000
,
00022000
00000000
00000000
00033000
,
00110000
00100000
00010000
00100000
01000000
01000000
10000000
00100000
,
01000000
01000000
00010000
10000000
01000000
01000000
00100000
00010000
,
20000000
01000000
30010000
10010000
,
00020000
00000000
01000000
00000000
10030000
00000000
00010000
00100000
,
01000000
10000000
00200000
00000000
02300000
00000000
03010000
01000000
,
00100000
10000000
02000000
00000000
03200000
00000000
00310000
00100000
,
00010000
00100000
00001000
00010000
00000100
00010000
00000010
00000000
,
00002010
00003001
00000102
00001003
,
00001100
00000100
00001000
00000100
00000010
00000010
00000001
00000100
,
00000010
00000010
00001000
00000001
00000010
00000010
00000100
00001000
,
00000002
00000010
00001003
00001001
,
00002000
00000000
00000010
00000000
00003001
00000000
00001000
00000100
,
00000010
00000001
00000200
00000000
00000320
00000000
00001030
00000010
,
00000100
00000001
00000020
00000000
00000230
00000000
00001300
00000100
,
00001000
00000100
00010000
00001000
00100000
00001000
01000000
00000000
,
01020000
10030000
20100000
30010000
,
01010000
00000000
01000000
00000000
00100000
00000000
10000000
00000000
01000000
00100000
01000000
00000000
00100000
00000000
00010000
00000000
,
10000000
00100000
10000000
00000000
01000000
00000000
00100000
00000000
00010000
10000000
00010000
00000000
10000000
00000000
00100000
00000000
,
02000000
00001000
00010000
03100000
,
01002000
00000000
00100000
00000000
00010000
00000000
00103000
00010000
,
00100000
00001000
00020000
00000000
00030100
00000000
00010000
00001000
,
00010000
00000100
00001000
00000010
00000100
00000000
00000001
00000010
,
00000100
00001000
00000010
00001000
00000100
00010000
00001000
00010000
,
00000200
00000000
00000320
00000000
00000031
00001000
00000010
00000000
,
00001010
00000000
00000010
00000000
00000100
00000000
00000001
00000000
00000010
00000100
00000010
00000000
00000100
00000000
00001000
00000000
,
00000001
00000100
00000001
00000000
00000010
00000000
00000100
00000000
00001000
00000001
00001000
00000000
00000001
00000000
00000100
00000000
,
00000020
00010000
00001000
00000130
,
00020010
00000000
00000100
00000000
00001000
00000000
00030100
00001000
,
00000100
00010000
00002000
00000000
00103000
00000000
00001000
00010000
,
00001000
00100000
00010000
01000000
00100000
00000000
10000000
01000000
,
00100000
00010000
01000000
00010000
00100000
00001000
00010000
00001000
,
00100000
00000000
00000000
00010000
10000000
00000000
00010000
00000000
01000000
00100000
00000000
00000000
01000000
00100000
00000000
00000000
,
20100000
01000000
00010000
00100000
,
00010000
01000000
00100000
00100000
,
30020000
01000000
10000000
01000000
,
20030000
32000000
03020000
00032000
,
00003100
00000001
00000100
00000001
00001000
00000100
00000010
00000001
,
00001000
00000100
00001000
00000100
00000010
00000001
00001000
00000010
,
00010000
00000100
00010000
00001000
00010000
00000100
00000010
00000001
,
00000100
00001000
00010000
01000000
10000000
00100000
01000000
00010000
,
00100000
00100000
00001000
00010000
00100000
00100000
10000000
01000000
,
00100000
00010000
01000000
00001000
00010000
00001000
00100000
00010000
,
10000000
00100000
01000000
01000000
00010000
00010000
00100000
00100000
,
00001000
00010000
00000100
00000010
00000001
00000100
00001000
00010000
;

//---------------dance-single - ----------------
#NOTEDATA:;
#CHARTNAME:;
#STEPSTYPE:dance-single;
#DESCRIPTION:;
#CHARTSTYLE:;
#DIFFICULTY:Challenge;
#METER:13;
#RADARVALUES:1.000000,1.000000,0.123660,0.240045,1.000000,1069.000000,17.000000,33.000000,0.000000,0.000000,0.000000,0.000000,0.000000,1.000000,1.000000,0.123660,0.240045,1.000000,1069.000000,17.000000,33.000000,0.000000,0.000000,0.000000,0.000000,0.000000;
#CREDIT:Ben Speirs;
#NOTES:
0000
0000
0000
0000
,
0000
0000
0000
0000
,
0000
0000
0000
0000
,
0000
0000
0000
0000
,
0001
0100
0001
0000
1000
0000
1010
0000
1000
0000
0001
0000
0010
0100
0010
0000
,
0001
1000
0010
0100
0001
0010
0100
1000
,
0001
0100
0001
0000
1000
0000
1010
0000
1000
0000
0001
0000
0010
0100
0010
0000
,
0001
1000
0010
0010
0100
0100
0001
0001
,
1100
1000
0001
0100
0110
0010
1000
0100
,
1100
0100
0010
0001
0011
0001
1000
0010
,
1000
0000
0000
0100
0000
0000
1000
0000
0000
0100
0000
0000
0010
0000
0000
0001
0000
0000
0010
0000
0000
0001
0000
0000
1000
0000
0010
0000
1000
0000
0010
0000
1000
0000
0010
0000
0100
0000
0000
0000
0000
0000
0001
0000
0000
0000
0000
0000
,
1001
0000
0000
0100
0000
0000
1001
0000
0000
1000
0000
0000
0010
0100
0010
0100
0000
0000
0101
0000
0000
1010
0000
0000
,
0000
0000
0000
0000
,
2002
0000
0000
0003
,
3010
0100
0010
0100
0010
0100
0010
0100
0001
1000
0001
1000
0001
1000
0001
1000
,
0100
0010
0100
0010
0100
0010
0100
0010
0001
1000
0001
1000
0001
1000
0001
1000
,
0010
1000
0010
1000
0010
1000
0010
1000
0010
1000
0010
1000
0001
0100
0001
0100
,
0010
1000
0010
1000
0010
1000
0010
1000
0010
1000
0010
1000
0001
0010
0100
1000
,
0010
0100
0001
1000
0010
0100
0010
0100
0010
0100
0010
0100
0010
0100
0010
0100
,
0010
0100
0010
0100
0010
0100
0010
0100
0010
0100
0010
0100
0001
0010
0100
1000
,
0010
0100
0001
1000
0100
0010
0001
1000
0001
1000
0001
1000
0001
1000
0001
1000
,
0010
0100
0010
0100
0010
0100
0010
0100
0001
0100
0001
0100
0001
0100
0001
0100
,
0010
1000
0010
1000
0010
1000
0010
1000
0001
0010
0001
0010
0001
0010
0001
0010
,
0100
1000
0100
1000
0100
1000
0100
1000
0001
0100
0001
0100
0001
0100
0001
0100
,
0010
1000
0010
1000
0010
1000
0010
1000
0010
1000
0010
1000
0100
1000
0100
1000
,
0001
1000
0001
1000
0001
1000
0001
1000
0001
1000
0001
1000
0001
0100
0010
1000
,
0100
0010
0001
1000
0010
0100
0010
0100
0010
0100
0010
0100
0010
0100
0010
0100
,
0010
0100
0010
0100
0010
0100
0010
0100
0010
0100
0010
0100
0001
0010
0100
1000
,
0010
0100
0001
1000
0010
0100
0001
0010
0001
0010
0001
0010
0001
0010
0001
0010
,
0100
1000
0100
1000
0100
1000
0100
1000
0001
0100
0001
0100
0001
0100
0001
0100
,
0020
2030
3200
0320
,
0032
2003
3020
0230
,
0302
2003
3200
0320
,
0032
2003
3020
0230
,
0301
1000
0001
0100
0010
1000
0010
0100
,
0001
0010
0001
1000
0100
0010
0100
1000
,
0001
0100
0001
1000
0010
0100
0010
1000
,
0100
0010
0001
1000
0010
0100
0001
1000
,
0010
0100
0010
0100
0001
1000
0100
0010
0001
1000
0010
0100
0001
1000
0100
0010
,
0001
1000
0001
1000
0010
0100
0001
1000
0100
0010
0001
1000
0010
0100
0001
1000
,
0010
0100
0010
1000
0100
0010
0001
0100
0010
1000
0001
0010
0001
1000
0100
1000
0010
0100
0001
1000
0100
0010
0001
1000
,
0002
0000
0100
0000
0010
0000
1003
1100
,
0000
0000
0000
0000
,
2002
0000
0000
3000
,
0103
0010
0100
0010
0100
0010
0100
0010
1000
0001
1000
0001
1000
0001
1000
0001
,
0010
0100
0010
0100
0010
0100
0010
0100
1000
0001
1000
0001
1000
0001
1000
0001
,
0100
0001
0100
0001
0100
0001
0100
0001
0100
0001
0100
0001
1000
0010
1000
0010
,
0100
0001
0100
0001
0100
0001
0100
0001
0100
0001
0100
0001
1000
0100
0010
0001
,
0100
0010
1000
0001
0100
0010
0100
0010
0100
0010
0100
0010
0100
0010
0100
0010
,
0100
0010
0100
0010
0100
0010
0100
0010
0100
0010
0100
0010
1000
0100
0010
0001
,
0100
0010
1000
0001
0010
0100
1000
0001
1000
0001
1000
0001
1000
0001
1000
0001
,
0100
0010
0100
0010
0100
0010
0100
0010
1000
0010
1000
0010
1000
0010
1000
0010
,
0100
0001
0100
0001
0100
0001
0100
0001
1000
0100
1000
0100
1000
0100
1000
0100
,
0010
0001
0010
0001
0010
0001
0010
0001
1000
0010
1000
0010
1000
0010
1000
0010
,
0100
0001
0100
0001
0100
0001
0100
0001
0100
0001
0100
0001
0010
0001
0010
0001
,
1000
0001
1000
0001
1000
0001
1000
0001
1000
0001
1000
0001
1000
0010
0100
0001
,
0010
0100
1000
0001
0100
0010
0100
0010
0100
0010
0100
0010
0100
0010
0100
0010
,
0100
0010
0100
0010
0100
0010
0100
0010
0100
0010
0100
0010
1000
0100
0010
0001
,
0100
0010
1000
0001
0100
0010
1000
0100
1000
0100
1000
0100
1000
0100
1000
0100
,
0010
0001
0010
0001
0010
0001
0010
0001
1000
0010
1000
0010
1000
0010
1000
0010
,
0100
0001
0100
0001
1000
0100
0010
0001
1000
0100
1000
0100
0010
0001
0100
0010
,
1000
0001
1000
0001
0100
0010
1000
0001
0010
0100
0010
0100
1000
0010
0100
0001
,
1000
0100
1000
0100
1000
0100
1000
0100
0010
0001
0100
0010
1000
0001
0100
0010
,
1000
0001
1000
0001
1000
0001
1000
0001
0100
0010
1000
0100
0010
0001
0100
0001
,
1000
0100
0010
0001
0100
0010
1000
0001
0100
0010
0100
0010
0100
0010
0100
0010
,
1000
0100
0010
0001
0100
0010
1000
0001
0010
0001
1000
0100
0010
0001
0100
0010
,
1000
0100
0010
0001
0100
0010
1000
0001
0010
0100
1000
0010
0100
0001
1000
0001
,
0100
0000
0010
0000
0100
0000
0010
0000
0100
0000
0010
0000
0100
0000
0010
0000
1000
0000
0010
0000
1000
0000
0010
0000
1000
0001
1000
0000
0001
0000
0100
0000
,
0010
1000
0010
1000
0001
0010
0100
1000
0001
0010
0001
0010
0100
1000
0010
0100
,
0001
1000
0001
1000
0010
0100
0001
1000
0100
0010
0100
0010
0001
0100
0010
1000
,
0001
0010
0001
0010
0001
0010
0001
0010
0100
1000
0010
0100
0001
1000
0010
0100
,
0001
1000
0001
1000
0001
1000
0001
1000
0010
0100
0001
0010
0100
1000
0010
1000
,
0001
0010
0100
1000
0010
0100
0001
1000
0010
0100
0010
0100
0010
0100
0010
0100
,
0001
0010
0100
1000
0010
0100
0001
1000
0100
1000
0001
0010
0100
1000
0010
0100
,
0001
0010
0100
1000
0010
0100
0001
1000
0100
0010
0001
0100
0010
1000
0001
1000
,
0010
0000
0100
0000
0010
0000
0100
0000
0010
0000
0100
0000
0010
0000
0100
0000
0001
0000
0100
0000
0001
0000
0100
0000
0001
1000
0001
1000
0001
0000
0100
0000
,
0020
1000
2030
0100
,
3200
0010
0320
0032
,
2003
0000
0010
0000
0002
3000
0100
0000
,
2003
3200
0320
0032
,
1003
0100
0010
0001
0100
0010
1000
0001
,
0010
0100
0010
0001
1000
0010
0100
0001
,
1000
0100
0010
0001
0100
0010
0100
0001
,
0010
0100
1000
0010
1000
0001
0010
0100
,
1000
0010
0100
0001
1000
0010
0100
0001
1000
0100
0010
0001
1000
0100
0010
0001
,
0100
0010
0100
0001
0010
0100
1000
0010
0100
0010
1000
0001
0200
0000
0000
0000
0000
0000
0310
0000
0000
0010
0000
0000
,
1000
0000
0000
0100
0000
0000
1000
0000
0000
0100
0000
0000
0010
0000
0000
0001
0000
0000
0010
0000
0000
0001
0000
0000
1000
0000
0010
0000
0100
0000
0001
0000
1000
0000
0100
0000
0010
0000
0001
0000
0100
0000
0010
0000
1000
0000
0001
0000
,
0100
0000
0000
0101
0000
0000
0010
0000
0000
1010
0000
0000
1000
0100
0010
0001
0000
0000
0011
0000
0000
1001
0000
0000
;

//---------------dance-single - ----------------
#NOTEDATA:;
#CHARTNAME:;
#STEPSTYPE:dance-single;
#DESCRIPTION:;
#CHARTSTYLE:;
#DIFFICULTY:Medium;
#METER:6;
#RADARVALUES:0.426055,0.575291,0.160030,0.705588,0.000000,291.000000,22.000000,97.000000,0.000000,0.000000,0.000000,0.000000,0.000000,0.426055,0.575291,0.160030,0.705588,0.000000,291.000000,22.000000,97.000000,0.000000,0.000000,0.000000,0.000000,0.000000;
#CREDIT:Ben Speirs;
#NOTES:
0000
0000
0000
0000
,
0000
0000
0000
0000
,
0000
0000
0000
0000
,
0000
0000
0000
0000
,
2000
0000
0000
3020
0000
0000
0230
0000
,
0000
0000
0000
0300
,
0002
0000
0000
0023
0000
0000
0230
0000
,
0000
1300
0100
0010
,
0022
0033
2020
3030
,
0202
0303
2200
3300
,
1001
1100
1001
0101
,
1000
0100
0010
0001
0100
0010
1000
0001
,
0000
0000
0000
0000
,
0200
0000
0000
0300
,
0102
0000
2003
0000
,
3200
0000
0320
0000
,
0032
0000
1003
0010
,
0200
0000
0000
0000
0301
0000
1000
0100
,
0010
0001
0200
0000
0000
0000
0000
0000
,
0310
0000
0100
0000
0001
0000
1000
0100
,
0010
0001
1000
2000
0000
0000
0000
0000
,
3200
0000
0320
0030
,
1002
0000
0203
0000
,
0320
0000
2030
0000
,
3002
0000
0103
0010
,
2000
0000
0000
0000
3001
0000
1000
0100
,
0010
0001
0200
0000
0000
0000
0000
0000
,
0310
0000
0100
0000
0001
0000
1000
0100
,
0010
0001
1000
2000
0000
0000
0000
0000
,
3002
0000
0203
0300
,
2010
0000
3002
0000
,
0023
0000
0032
2003
,
3200
0000
0320
0000
,
0032
2003
3020
0230
,
0301
1000
1100
0010
,
1000
0001
0101
1000
,
0001
0010
0100
0000
1000
0000
0001
0000
,
0100
0100
0010
0000
,
1010
1000
0001
0001
,
0101
0100
0010
0010
,
1000
0100
1000
0000
0001
0010
0001
0000
,
1000
0100
0010
0001
1000
0010
0100
0100
,
0000
0000
0000
0000
,
2002
0000
0000
3003
,
0201
0000
0320
0000
,
2030
0000
3002
0000
,
0023
0000
0031
1000
,
0200
0000
0000
0000
0310
0000
0001
1000
,
0001
1000
0020
0000
0000
0000
0000
0000
,
0130
0000
0001
0000
1000
0000
0100
0010
,
0100
0010
0001
0002
0000
0000
0000
0000
,
0203
0320
2030
3000
,
1020
0000
0230
0000
,
0302
0000
2003
0000
,
3200
0000
1300
0001
,
0020
0000
0000
0000
0130
0000
1000
0001
,
1000
0001
0200
0000
0000
0000
0000
0000
,
0310
0000
1000
0000
0001
0000
0010
0100
,
0010
0100
1000
2000
0000
0000
0000
0000
,
3020
0230
0302
0003
,
2000
0000
3100
0000
0010
0001
0010
0000
,
0002
0000
0103
0000
0010
1000
0010
0000
,
0200
0000
0301
1000
,
0200
0000
0000
0000
0310
0000
0001
1000
,
0010
0100
0002
0000
1003
0000
0100
0000
,
0010
0000
0001
0000
0100
0000
0001
0010
,
0100
1000
0010
0200
0000
0000
0301
0000
,
2000
0000
3200
0300
,
1002
0000
0013
0000
0100
1000
0100
0000
,
2000
0000
3010
0000
0100
0001
0100
0000
,
0020
0000
1030
0001
,
0020
0000
0000
0000
0130
0000
1000
0001
,
0100
0010
2000
0000
3001
0000
0010
0000
,
0100
0000
1000
0000
0010
0000
1000
0100
,
0010
0001
0100
0020
0000
0000
1030
0000
,
0002
0000
0023
0030
,
1002
0000
0100
0000
,
1000
0000
0010
0010
,
2003
0000
0100
0000
,
3002
0023
0230
2300
,
3002
0000
0103
0010
,
2000
0000
3100
0010
,
0001
1000
0001
0000
0200
0000
0000
0000
,
0310
1000
0002
0003
,
1100
0000
1000
0000
0001
0010
0001
0000
,
1000
0010
0200
0300
,
0001
0100
0001
1000
0100
1000
0001
0000
,
1000
0100
0010
0000
0001
0000
1000
1001
;

//---------------dance-single - ----------------
#NOTEDATA:;
#CHARTNAME:;
#STEPSTYPE:dance-single;
#DESCRIPTION:;
#CHARTSTYLE:;
#DIFFICULTY:Easy;
#METER:4;
#RADARVALUES:0.272259,0.382981,0.065467,0.429172,0.000000,194.000000,9.000000,59.000000,0.000000,0.000000,0.000000,0.000000,0.000000,0.272259,0.382981,0.065467,0.429172,0.000000,194.000000,9.000000,59.000000,0.000000,0.000000,0.000000,0.000000,0.000000;
#CREDIT:Ben Speirs;
#NOTES:
// measure 0
0000
0000
0000
0000
,  // measure 1
0000
0000
0000
0000
,  // measure 2
0000
0000
0000
0000
,  // measure 3
0000
0000
0000
0000
,  // measure 4
1001
0000
0000
0000
,  // measure 5
0000
0000
0000
0000
,  // measure 6
0100
0000
0000
0000
,  // measure 7
0000
0000
0000
0000
,  // measure 8
1001
0000
1000
0000
,  // measure 9
0001
0000
0001
0000
,  // measure 10
0100
0100
0010
0010
,  // measure 11
1000
0100
0010
0001
,  // measure 12
0000
0000
0000
0000
,  // measure 13
2002
0000
0000
3003
,  // measure 14
0020
0030
2000
3000
,  // measure 15
0002
0003
0200
0300
,  // measure 16
0020
0000
0030
1000
,  // measure 17
2000
0000
3000
0100
,  // measure 18
0100
0010
0002
0000
,  // measure 19
0000
0003
0100
0100
,  // measure 20
0010
1000
2000
3000
,  // measure 21
0002
0003
2000
3000
,  // measure 22
0220
0330
0002
0003
,  // measure 23
2000
3000
0020
0030
,  // measure 24
0200
0000
0300
0001
,  // measure 25
0002
0000
0003
0010
,  // measure 26
0010
0100
2000
0000
,  // measure 27
0000
3000
0010
0010
,  // measure 28
0100
0001
0002
0003
,  // measure 29
2000
3000
0002
0003
,  // measure 30
0100
0000
0100
0000
,  // measure 31
0100
0000
0010
0010
,  // measure 32
1000
0000
1000
0000
,  // measure 33
0100
0100
0010
0010
,  // measure 34
0001
0000
1000
0000
,  // measure 35
0010
0000
0100
0001
,  // measure 36
1000
0000
0100
0000
,  // measure 37
0010
0001
1000
0010
,  // measure 38
0200
0300
0200
0300
,  // measure 39
0002
0003
0002
0003
,  // measure 40
1000
0100
0010
0001
,  // measure 41
1000
0001
0100
0010
,  // measure 42
0000
0000
0000
0000
,  // measure 43
2002
0000
0000
3003
,  // measure 44
0200
0300
0020
0030
,  // measure 45
0002
0003
2000
3000
,  // measure 46
0020
0000
0030
0100
,  // measure 47
0200
0000
0300
0001
,  // measure 48
0010
0100
2000
0000
,  // measure 49
0000
3000
0001
0000
,  // measure 50
1000
0010
0100
0000
,  // measure 51
0002
0003
2000
3000
,  // measure 52
2002
3003
0020
0030
,  // measure 53
2000
3000
0002
0003
,  // measure 54
0020
0000
0030
0001
,  // measure 55
0002
0000
0003
0100
,  // measure 56
0001
0010
0200
0000
,  // measure 57
0000
0300
1000
0000
,  // measure 58
0001
1000
0020
0030
,  // measure 59
0200
0300
0200
0300
,  // measure 60
1001
0000
1000
0100
,  // measure 61
1000
0000
0001
0010
,  // measure 62
0001
0000
0100
0000
,  // measure 63
0010
0000
0010
0000
,  // measure 64
1000
0001
1000
0000
,  // measure 65
0010
0000
0100
0000
,  // measure 66
0001
0010
0001
0000
,  // measure 67
2000
3000
0002
0003
,  // measure 68
1001
0000
0010
1000
,  // measure 69
0002
0003
2000
3000
,  // measure 70
0200
0300
0010
0001
,  // measure 71
2000
3000
0000
0010
,  // measure 72
0100
0010
0200
0300
,  // measure 73
0001
0000
1000
0000
,  // measure 74
0001
0010
0200
0300
,  // measure 75
2000
3000
0002
0003
,  // measure 76
1001
0000
1000
0000
,  // measure 77
0001
0000
0001
0000
,  // measure 78
0100
0000
0100
0000
,  // measure 79
0010
0010
1000
1000
,  // measure 80
0001
0000
1000
0000
,  // measure 81
0100
0010
0001
0000
,  // measure 82
1000
0000
0001
0000
,  // measure 83
0100
0010
1000
0000
,  // measure 84
0001
0001
0100
0000
,  // measure 85
0010
0010
1000
0000
,  // measure 86
0001
0010
0100
1000
,  // measure 87
0010
0100
0010
1000
;

//---------------dance-single - ----------------
#NOTEDATA:;
#CHARTNAME:;
#STEPSTYPE:dance-single;
#DESCRIPTION:;
#CHARTSTYLE:;
#DIFFICULTY:Beginner;
#METER:2;
#RADARVALUES:0.167304,0.191491,0.014548,0.000000,0.000000,159.000000,2.000000,0.000000,0.000000,0.000000,0.000000,0.000000,0.000000,0.167304,0.191491,0.014548,0.000000,0.000000,159.000000,2.000000,0.000000,0.000000,0.000000,0.000000,0.000000,0.000000;
#CREDIT:Ben Speirs;
#NOTES:
// measure 0
0000
0000
0000
0000
,  // measure 1
0000
0000
0000
0000
,  // measure 2
0000
0000
0000
0000
,  // measure 3
0000
0000
0000
0000
,  // measure 4
1001
0000
0000
0000
,  // measure 5
0000
0000
0000
0000
,  // measure 6
0010
0000
0000
0000
,  // measure 7
0000
0000
0000
0000
,  // measure 8
1000
0000
1000
0000
,  // measure 9
0001
0000
0001
0000
,  // measure 10
0100
0000
0100
0000
,  // measure 11
0010
0010
0010
0010
,  // measure 12
0000
0000
0000
0000
,  // measure 13
0000
0000
0000
0000
,  // measure 14
1000
0000
1000
0000
,  // measure 15
0100
0000
0100
0000
,  // measure 16
0010
0000
0000
0001
,  // measure 17
0001
0000
0000
0100
,  // measure 18
0100
0100
0000
0000
,  // measure 19
0010
0000
0000
1000
,  // measure 20
1000
1000
0000
0000
,  // measure 21
0100
0000
0010
0000
,  // measure 22
0001
0000
0001
0000
,  // measure 23
0100
0000
0100
0000
,  // measure 24
0010
0000
0000
1000
,  // measure 25
1000
0000
0000
0001
,  // measure 26
0001
0001
0000
0000
,  // measure 27
0100
0000
0000
0010
,  // measure 28
0010
0010
0000
0000
,  // measure 29
1000
0000
0001
0000
,  // measure 30
0100
0000
0100
0000
,  // measure 31
0100
0000
0100
0000
,  // measure 32
0010
0000
0010
0000
,  // measure 33
1000
0000
0001
0000
,  // measure 34
1000
0000
0100
0000
,  // measure 35
0010
0000
0010
0000
,  // measure 36
0001
0000
1000
0000
,  // measure 37
0010
0010
0010
0000
,  // measure 38
0100
0000
0100
0000
,  // measure 39
0001
0000
0001
0000
,  // measure 40
1000
0000
0001
0000
,  // measure 41
0100
0100
0100
0100
,  // measure 42
0000
0000
0000
0000
,  // measure 43
0000
0000
0000
0000
,  // measure 44
0001
0000
0001
0000
,  // measure 45
1000
0000
1000
0000
,  // measure 46
0010
0000
0000
0100
,  // measure 47
0100
0000
0000
0001
,  // measure 48
0001
0001
0000
0000
,  // measure 49
0010
0000
0000
0100
,  // measure 50
0100
0100
0000
0000
,  // measure 51
1000
0000
0001
0000
,  // measure 52
0100
0000
0100
0000
,  // measure 53
0010
0000
0010
0000
,  // measure 54
1000
0000
0000
0001
,  // measure 55
0001
0000
0000
1000
,  // measure 56
1000
1000
0000
0000
,  // measure 57
0010
0000
0000
0100
,  // measure 58
0100
0100
0000
0000
,  // measure 59
0001
0000
1000
0000
,  // measure 60
0010
0000
0010
0000
,  // measure 61
0010
0000
0010
0000
,  // measure 62
0100
0000
0000
0001
,  // measure 63
0001
0000
0000
1000
,  // measure 64
1000
1000
1000
0000
,  // measure 65
0010
0000
0000
0100
,  // measure 66
0100
0100
0000
0000
,  // measure 67
0001
0000
1000
0000
,  // measure 68
0100
0000
0100
0000
,  // measure 69
0100
0000
0100
0000
,  // measure 70
0100
0000
0000
0010
,  // measure 71
0010
0000
0000
0001
,  // measure 72
0001
0001
0001
0000
,  // measure 73
0100
0000
0000
0010
,  // measure 74
0010
0010
0000
0000
,  // measure 75
1000
0000
0001
0000
,  // measure 76
1001
0000
0000
0000
,  // measure 77
0100
0000
0000
0000
,  // measure 78
0010
0000
0000
0000
,  // measure 79
1000
0000
0000
0000
,  // measure 80
0001
0000
0001
0000
,  // measure 81
1000
0000
1000
0000
,  // measure 82
0010
0000
0010
0000
,  // measure 83
0100
0000
0100
0000
,  // measure 84
0001
0001
0000
0000
,  // measure 85
1000
1000
0000
0000
,  // measure 86
0010
0000
0100
0000
,  // measure 87
0001
0001
0001
0001
;
