#TITLE:The Look;
#SUBTITLE:;
#ARTIST:Roxette;
#TITLETRANSLIT:;
#SUBTITLETRANSLIT:;
#ARTISTTRANSLIT:;
#GENRE:SHE'S GOT IT;
#CREDIT:;
#BANNER:The Look.png;
#BACKGROUND:The Look-bg.png;
#LYRICSPATH:;
#CDTITLE:;
#MUSIC:The Look.ogg;
#OFFSET:0.000000;
#SAMPLESTART:98.514000;
#SAMPLELENGTH:13.714000;
#SELECTABLE:YES;
#BPMS:0.000000=95.000000
;
#STOPS:
;
#BGCHANGES:3.500=The Look.avi=1.000=0=0=1=====,
99999=-nosongbg-=1.000=0=0=0 // don't automatically add -songbackground-
;
#KEYSOUNDS:;
#ATTACKS:;

//---------------dance-single - ----------------
#NOTES:
     dance-single:
     :
     Hard:
     7:
     0.363671,0.332899,0.119197,0.076626,0.093654,276.000000,14.000000,9.000000,0.000000,0.000000,0.000000,0.363671,0.332899,0.119197,0.076626,0.093654,276.000000,14.000000,9.000000,0.000000,0.000000,0.000000:
0000
0000
0000
0000
,
0000
0000
0000
0000
0001
0100
0010
1000
,
0100
0010
0001
0000
1100
0000
0011
0000
,
1100
0000
0000
0000
0011
0000
0000
0000
1000
0000
0000
0001
0000
0000
0100
0000
,
0000
0000
0010
0000
0010
0000
0000
0000
0100
0000
0000
0001
0000
0000
1000
0000
,
0000
0100
0100
0000
1000
0100
1000
0000
,
0001
0100
0001
0001
1000
0010
1000
0000
,
0001
0010
0001
0001
1000
0010
0100
0001
,
0000
0000
0010
0000
0010
0000
0010
0100
0000
0000
0000
0000
0110
0000
0000
0000
,
0000
0000
1001
0000
0100
0001
1000
0000
,
0100
1000
0001
0001
0100
0010
1000
0000
,
0010
1000
0001
0001
0010
0001
1000
0010
,
0000
0000
0100
0000
0100
0000
0010
0100
0010
0000
0000
1000
0000
0000
0100
0000
,
0010
0000
0001
0000
1000
0000
0000
0000
1001
0000
1000
0000
0100
0000
0100
0010
,
0000
0000
0001
0000
1000
0000
1000
0010
0000
0000
0100
0000
0001
0000
0001
1000
,
0000
0100
0100
0000
1000
0100
0010
0001
,
1000
0010
0100
0001
1000
1000
0100
0000
,
1000
0001
0100
0010
1000
0100
0010
0001
,
1000
0010
1000
0001
0010
0010
0100
0000
,
0010
0001
1000
0010
0100
0100
0010
1000
,
1100
0000
0000
0000
0000
0000
0000
0000
0001
0000
0000
1000
0000
0000
0010
0000
,
0010
0000
0000
0000
0100
0000
0000
0000
0010
0000
0000
1000
0000
0000
0100
0000
,
0100
0000
0000
0000
0010
0000
0000
0000
0001
0000
0000
1000
0000
0000
0010
0000
,
0000
0100
0000
0000
0001
0000
0010
0000
0200
0000
0000
0000
1000
0000
0000
0000
,
0010
0000
0000
0000
1300
0000
0000
0000
0100
0000
0000
1000
0000
0000
0010
0000
,
0000
0100
0000
0000
0001
0000
1000
0000
0020
0000
0000
0000
0001
0000
0000
0000
,
0100
0000
0000
0000
1030
0000
0000
0000
0010
0000
0000
1000
0000
0000
0100
0000
,
0010
0000
0010
0000
0001
0000
0000
0000
1000
0000
0000
0001
0000
0000
0100
0000
,
0010
0000
0010
0000
1000
0000
0000
0000
0001
0000
0000
0010
0000
0000
0100
0000
,
0000
1000
0000
0000
0010
0000
0100
0000
0002
0000
0000
0000
0100
0000
0000
0000
,
0010
0000
1003
0000
1000
0100
1100
0000
,
0001
0100
0101
0000
2000
0000
3010
0000
,
0002
0000
0013
0000
0001
0100
0101
0000
,
1000
0100
1100
0000
0002
0000
0013
0000
,
2000
3010
0200
0301
,
2000
0000
3100
0000
0010
0001
1000
0000
,
0010
1000
0001
0001
0010
0100
1000
0000
,
0010
1000
0100
0100
0010
0001
1000
1000
,
0000
0000
0010
0000
1000
0000
0001
0000
0100
0000
0000
0100
0000
0000
0010
0000
,
1000
0000
0100
0000
0010
0000
0000
0000
1001
0000
0001
0000
0010
0000
0010
0100
,
0000
0000
1000
0000
0001
0000
0001
0100
0000
0000
0010
0000
1000
0000
1000
0001
,
0000
0010
0010
0000
0001
0010
0100
1000
,
0001
0100
0010
1000
0001
0001
0010
0000
,
0001
1000
0010
0100
0001
0010
0100
1000
,
0001
0100
0001
1000
0100
0100
0010
0000
,
0100
1000
0001
0100
0010
0010
0100
0001
,
0011
0000
0000
0000
;

//---------------dance-single - ----------------
#NOTES:
     dance-single:
     :
     Challenge:
     9:
     0.608146,0.567887,0.306506,0.102169,0.608754,452.000000,36.000000,12.000000,0.000000,0.000000,0.000000,0.608146,0.567887,0.306506,0.102169,0.608754,452.000000,36.000000,12.000000,0.000000,0.000000,0.000000:
// measure 0
0000
0000
0000
0000
,  // measure 1
0000
0000
0000
0000
0001
0100
0101
0001
,  // measure 2
1000
0100
1100
1000
0020
0130
0002
1003
,  // measure 3
0200
0000
0310
0000
2002
0000
3003
0000
0010
0000
0010
0100
0000
0100
0001
0000
,  // measure 4
0001
0000
1000
0000
0100
0010
0001
0000
1000
0000
0010
0100
0000
0100
0001
0000
,  // measure 5
1000
0100
0010
0000
0001
0000
0000
0000
0100
0001
0100
0001
0010
0000
0000
0000
,  // measure 6
0001
0010
0001
0010
0100
0100
0010
0100
1000
0010
1000
0010
0100
0000
0000
0000
,  // measure 7
0010
0100
0010
0100
0001
0001
0000
0000
0100
0001
0100
0001
1000
0000
0100
0000
,  // measure 8
0000
0000
1100
0000
0110
0000
0001
0100
0010
0000
0000
0000
1010
0000
1000
0000
,  // measure 9
0001
0000
0100
0000
1001
0000
0000
0000
0010
1000
0010
1000
0100
0000
0000
0000
,  // measure 10
1000
0100
1000
0100
0010
0010
0100
0010
0001
0100
0001
0100
0010
0000
0000
0000
,  // measure 11
0100
0010
0100
0010
1000
1000
0000
0000
0010
1000
0010
1000
0001
0000
0010
0000
,  // measure 12
0000
0000
0011
0000
0110
0000
1000
0010
0100
0000
0100
0001
0000
0001
1000
0000
,  // measure 13
0100
0010
0001
0000
1000
0000
0010
0100
0001
0000
1100
0000
0101
0000
1000
0100
,  // measure 14
0010
0000
0011
0000
1010
0000
0001
0010
0100
0000
1100
0000
1001
0000
0100
0001
,  // measure 15
1000
0000
1001
0000
0110
0000
1000
0000
0100
0010
0001
0010
0100
0010
0001
0000
,  // measure 16
1000
0100
0010
0100
1000
0100
0010
0000
0001
1000
0001
0000
0100
0000
0000
0000
,  // measure 17
0010
0000
1000
0000
1001
0000
0000
0000
1000
0100
0010
0100
1000
0100
0010
0000
,  // measure 18
0001
1000
0010
1000
0001
1000
0010
0000
0100
0000
0001
0000
0101
0000
0000
0000
,  // measure 19
1000
0000
0100
0000
1100
0000
0000
0000
0001
1000
0100
0010
0001
1000
0010
0000
,  // measure 20
0101
0000
0000
0000
0000
0000
0000
0000
1000
0000
1000
0001
0000
0001
0100
0000
,  // measure 21
0010
0000
0100
0000
0001
0010
0100
0000
1000
0000
1000
0100
0000
0100
0010
0000
,  // measure 22
0001
1000
0010
0000
0200
0000
0000
0000
0301
1000
0001
0010
0100
0010
0001
1000
,  // measure 23
0001
0100
0010
0100
0001
1000
0001
0010
0200
0000
0000
0000
1300
0000
0010
0000
,  // measure 24
0100
0000
0001
0000
1000
0000
0000
0000
0010
0100
0010
1000
0001
1000
0100
0010
,  // measure 25
0100
1000
0001
1000
0010
0100
0010
1000
0200
0000
0000
0000
0310
0000
0001
0000
,  // measure 26
1000
0000
0010
0000
0100
0000
0000
0000
0001
0000
1000
0100
0000
0010
0001
0000
,  // measure 27
1000
0000
0010
0000
0100
0000
0001
0000
1000
0000
0100
0010
0000
0001
1000
0000
,  // measure 28
0010
0000
0100
0000
0001
0000
0000
0000
1000
0010
1000
0001
0010
0001
1000
0100
,  // measure 29
1000
0001
0100
0001
1000
0100
0010
0001
2000
0000
0000
0000
3010
0000
0100
0000
,  // measure 30
0001
0000
0010
0000
0100
0000
0000
0000
1000
0100
1000
0100
1000
0100
1000
0000
,  // measure 31
0001
0100
0001
0100
0001
0100
0001
0000
1000
0000
0010
0000
0100
0000
0001
0000
,  // measure 32
0010
0000
0100
0000
1000
0000
0000
0000
0001
0010
0001
0010
0001
0010
0001
0000
,  // measure 33
1000
0100
1000
0100
1000
0100
1000
0000
0002
0000
0000
0000
0103
0000
0000
0000
,  // measure 34
2000
0000
0000
0000
3100
0000
0000
0000
0002
0000
0000
0000
0013
0010
0100
0010
,  // measure 35
0001
1000
0010
0100
0001
1000
0010
0000
1000
0100
1000
0100
0010
0000
0000
0000
,  // measure 36
0001
1000
0001
1000
0010
0000
0010
0100
0001
0100
0001
0100
0010
0000
0000
0000
,  // measure 37
1000
0010
1000
0010
0100
0000
0001
1000
0001
1000
0100
1000
0001
0000
0010
0000
,  // measure 38
0000
0000
0011
0000
1100
0000
0001
1000
0100
0000
0100
0010
0000
0010
0001
0000
,  // measure 39
1000
0000
0010
0000
1000
0001
0100
0000
0010
0000
1010
0000
1001
0000
0100
0001
,  // measure 40
1000
0000
1100
0000
0110
0000
0010
0001
1000
0000
1001
0000
1010
0000
0100
0010
,  // measure 41
1000
0000
1100
0000
1001
0000
0100
0000
0010
1000
0100
1000
0010
1000
0100
0000
,  // measure 42
0001
0100
0010
0100
0001
0100
0010
0000
0001
0000
1000
0000
1001
0000
0000
0000
,  // measure 43
0010
0000
0100
0000
0110
0000
0000
0000
0001
0010
0100
0010
0001
0010
0100
0000
,  // measure 44
1000
0100
0010
0100
1000
0100
0010
0000
0100
0000
1000
0000
1100
0000
0000
0000
,  // measure 45
0001
0000
0100
0000
0101
0000
0000
0000
0010
0100
0100
0001
0100
0100
0010
1000
,  // measure 46
1100
0000
0000
0000
;

//---------------dance-single - ----------------
#NOTES:
     dance-single:
     :
     Medium:
     5:
     0.300424,0.313317,0.102169,0.383132,0.000000,190.000000,12.000000,45.000000,0.000000,0.000000,0.000000,0.300424,0.313317,0.102169,0.383132,0.000000,190.000000,12.000000,45.000000,0.000000,0.000000,0.000000:
0000
0000
0000
0000
,
0000
0000
0001
1000
,
0010
0010
1010
0101
,
1010
0101
1000
0001
,
0010
0100
1000
0000
0001
0000
1000
0010
,
0100
0000
0001
0000
1000
0100
1000
0000
,
0002
0000
0103
0000
0010
0100
0010
0000
,
2000
0000
3100
0000
0010
0001
0010
0000
,
0000
0001
1000
0001
1000
0000
0010
0000
,
0100
0002
2003
3100
,
1000
0001
1000
0000
0020
0000
0130
0000
,
0001
0100
0001
0000
2000
0000
3100
0000
,
0000
1000
0001
1000
0001
0000
0100
0000
,
0010
1000
0200
0310
,
0001
1000
0010
0000
0200
0000
0310
0000
,
0100
0001
1000
0000
0200
0000
2300
0000
,
3002
0203
0320
0030
,
0100
0010
0100
0000
0002
0000
0023
0000
,
0230
2300
3002
0003
,
1000
0100
1000
0000
0002
0000
2003
0000
,
3010
0000
1000
0001
,
0100
0100
0010
0100
,
0001
0010
0100
0000
2000
0000
3200
0000
,
0320
0032
2003
0000
,
3001
1001
0002
0203
,
0320
2030
3002
0000
,
1003
0000
1001
0000
0100
1000
0100
1000
,
0001
0000
0001
0000
0100
0001
0100
0001
,
1000
1000
0020
2030
,
3200
0320
0032
0000
,
1003
1001
0200
0300
,
2000
3000
0001
0100
,
0010
1000
0002
0003
,
0020
0030
2002
0000
,
0000
3003
0010
1000
,
0001
0000
0000
0000
1000
0100
1000
0000
,
0100
0000
0100
0000
1000
0001
1000
0000
,
0010
0000
0010
0000
0100
0001
0100
0000
,
0000
0001
1000
0001
1000
0000
0100
0000
,
0100
0000
2100
0001
,
3010
1100
0102
1000
,
0013
0000
0101
0000
1000
0100
1000
0000
,
0001
0100
0001
0000
0020
0000
0030
0000
,
0001
0000
1000
0000
0001
0100
0001
0000
,
1000
0100
1000
0000
0020
0000
0030
0000
,
1000
0000
0001
0000
1000
0100
0010
0001
,
1000
0000
0000
0000
;

//---------------dance-single - ----------------
#NOTES:
     dance-single:
     :
     Easy:
     3:
     0.159334,0.215405,0.034056,0.076626,0.000000,118.000000,4.000000,9.000000,0.000000,0.000000,0.000000,0.159334,0.215405,0.034056,0.076626,0.000000,118.000000,4.000000,9.000000,0.000000,0.000000,0.000000:
0000
0000
0000
0000
,
0000
0000
1000
0000
,
0001
0000
0100
0100
,
0100
0100
0010
0000
,
1000
0000
0001
0000
,
0010
0000
0001
0100
,
0001
0001
1000
0100
,
1000
1000
0001
1000
,
0000
0010
0010
0000
,
0100
0000
0001
0100
,
0001
0001
1000
0100
,
1000
1000
0001
1000
,
0000
0010
0010
0000
,
0100
0000
1001
0000
,
1000
0000
0001
0000
,
0100
0000
0010
0010
,
0010
0010
1000
0000
,
0001
0000
0010
0010
,
0010
0010
0001
0000
,
1000
0000
0100
0100
,
0100
0000
1000
0000
,
0001
0000
0100
0000
,
0010
0000
1000
0100
,
0010
0001
1000
0000
,
0001
0000
0001
0100
,
0010
1000
0001
0000
,
1000
0000
0200
0300
,
0010
0000
0020
0030
,
0001
0000
0001
0010
,
0100
1000
0001
0000
,
1000
0000
0020
0030
,
2000
3000
0002
0000
,
1003
0000
0002
0003
,
0020
0030
2002
0000
,
0000
0000
0000
0000
,
0000
3003
0010
0010
,
0000
1000
0100
0100
,
0000
0010
0001
0001
,
0000
1000
1000
0000
,
0001
0000
1001
0000
,
0100
0000
1001
0000
,
0010
0000
1000
0100
,
0010
0001
1000
0000
,
0001
0000
1000
0100
,
0010
0001
1000
0000
,
0001
0000
0100
0010
,
0100
0000
0000
0000
;

//---------------dance-single - ----------------
#NOTES:
     dance-single:
     :
     Beginner:
     1:
     0.104601,0.117494,0.017028,0.000000,0.000000,84.000000,2.000000,0.000000,0.000000,0.000000,0.000000,0.104601,0.117494,0.017028,0.000000,0.000000,84.000000,2.000000,0.000000,0.000000,0.000000,0.000000:
0000
0000
0000
0000
,
0000
0000
1000
0000
,
0001
0000
0100
0100
,
0100
0000
0010
0000
,
1000
0000
0001
0000
,
1000
0000
0100
0000
,
0100
0000
0010
0000
,
0010
0000
0001
0000
,
0000
0001
0001
0000
,
1000
0000
0100
0000
,
0100
0000
1000
0000
,
1000
0000
0010
0000
,
0000
0100
0100
0000
,
0001
0000
0000
1000
,
1000
0000
0000
0001
,
0001
0000
0100
0000
,
0100
0000
0010
0000
,
0000
0000
1000
0000
,
1000
0000
0001
0000
,
0000
0000
0010
0010
,
0010
0000
1001
0000
,
0000
0000
0100
0000
,
0000
0000
0001
0001
,
0001
0000
0001
0000
,
0000
0000
1000
1000
,
1000
0000
1000
0000
,
0000
0000
0010
0000
,
1000
0000
0100
0000
,
0010
0000
0001
0001
,
0001
0000
0001
0000
,
0000
0000
1000
0000
,
0001
0000
0100
0000
,
0000
0000
0001
0000
,
1000
0000
0100
0000
,
0000
0000
0000
0000
,
0000
0000
1001
0000
,
0100
0000
0001
0000
,
1000
0000
0100
0100
,
0000
0010
0010
0000
,
0001
0000
0000
1000
,
1000
0000
0000
0001
,
0001
0000
0100
0000
,
0100
0000
0010
0000
,
0000
0000
1000
0000
,
1000
0000
0100
0000
,
0000
0000
0010
0010
,
0010
0000
0000
0000
;

//---------------dance-double - ----------------
#NOTES:
     dance-double:
     :
     Challenge:
     8:
     0.476786,0.469975,0.110683,0.051084,0.400160,373.000000,13.000000,6.000000,0.000000,0.000000,0.000000,0.476786,0.469975,0.110683,0.051084,0.400160,373.000000,13.000000,6.000000,0.000000,0.000000,0.000000:
00000000
00000000
00000000
00000000
,
00000000
00000000
00000000
00000000
,
00000000
00000000
10000000
01000000
,
00100000
00000000
00000000
00000000
10010000
00000000
00000000
00000000
00010000
00000000
00000000
10000000
00000000
00000000
00100000
00000000
,
10000000
00000000
01000000
00000000
00100000
00010000
00100000
00000000
00010000
00000000
00000000
01000000
00000000
00000000
00010000
00000000
,
00100000
00010000
00100000
00000000
00002000
00000000
00000000
00000000
00013000
00001000
00010000
00001000
00010000
00000000
00000000
00000000
,
00000100
00001000
00000100
00001000
00000100
00000000
00001000
00000000
00000010
00000100
00000010
00000000
00000100
00000000
00000000
00000000
,
00000001
00000100
00000001
00000100
00000001
00000100
00000000
00000000
00000010
00001000
00000010
00001000
00000010
00000000
00001000
00000000
,
00000001
00000000
00000010
00000000
00000100
00000000
00001000
00000100
00010000
00000000
00000000
00001000
00000000
00000000
00100000
00000000
,
00010000
00000000
01000000
00000000
00200000
00000000
00000000
00000000
10300000
01000000
10000000
01000000
10000000
00000000
00000000
00000000
,
00010000
01000000
00010000
00000000
10000000
00100000
10000000
00000000
00010000
00100000
00010000
00100000
00010000
00000000
00000000
00000000
,
10000000
01000000
10000000
01000000
10000000
01000000
00000000
00000000
10000000
00010000
10000000
00010000
10000000
00000000
00100000
00000000
,
01000000
00000000
00010000
00000000
00100000
00000000
00010000
00100000
00001000
00000000
00000000
00010000
00000000
00000000
00000100
00000000
,
00001000
00000000
00000010
00000000
00000100
00000000
00000010
00000100
00000001
00000000
00000100
00000000
00000100
00000000
00000010
00001000
,
00000100
00000000
00010000
00000000
00010000
00000000
00000100
00001000
00000010
00000000
00001000
00000000
00001000
00000000
00000001
00001000
,
00000100
00000010
00000001
00000100
00000001
00000100
00000110
00000010
,
00001000
00000100
00001100
00000100
00010000
00010000
00011000
00000000
,
00001000
00100000
00010000
01000000
00100000
00100000
01100000
01000000
,
00010000
00010000
00110000
00100000
01000000
01000000
11000000
00000000
,
10000000
00000000
00100000
00000000
01000000
00000000
00010000
00000000
10000000
00000000
01000000
00100000
00000000
00100000
00010000
00000000
,
10010000
00000000
00000000
00000000
00000000
00000000
00000000
00000000
10000000
00000000
00000000
00010000
00000000
00000000
01000000
00000000
,
00100000
00000000
10000000
00000000
01000000
00100000
01000000
00000000
10000000
00100000
00000000
00100000
01000000
00000000
00010000
00000000
,
10000000
01000000
10000000
00000000
00010000
00000000
00000000
00000000
10000000
00000000
01000000
00010000
00000000
00010000
00001000
00000000
,
00001000
00000100
00000000
00000100
00000001
00000000
00001000
00000000
00000020
00000000
00000000
00000000
00000130
00000000
00000010
00000000
,
00001000
00000000
00000100
00000000
00000110
00000000
00000000
00000000
00000001
00000000
00000010
00001000
00000000
00001000
00010000
00000000
,
00010000
00100000
00000000
00100000
10000000
00000000
01000000
00000000
00100000
00000000
00010000
00000000
01000000
00000000
01000000
00000000
,
00100000
00000000
10000000
00000000
00010000
00000000
00000000
00000000
10000000
00000000
00000000
10000000
00000000
00000000
01000000
10000000
,
01000000
00000000
10000000
00000000
00010000
00000000
10000000
00000000
00010000
00000000
00000000
00010000
00000000
00000000
01000000
00010000
,
01000000
00000000
00010000
00000000
10000000
00000000
00000000
00000000
00100000
00000000
00000000
10000000
00000000
00000000
00010000
00000000
,
00000000
00100000
00000000
00000000
00001000
00000000
00010000
00000000
00000020
00000000
00000000
00000000
00000100
00000000
00000000
00000000
,
00001000
00000000
00001000
00000000
00001030
00000000
00000000
00000000
00000001
00000100
00000001
00000100
00000001
00000100
00000001
00000100
,
00000010
00001000
00000010
00001000
00000010
00001000
00000010
00001000
00000200
00000000
00000000
00000000
00010000
00000000
00000000
00000000
,
00001000
00000000
00000000
00000000
00010300
00000000
00000000
00000000
00010000
00000100
00010000
00000100
00010000
00000100
00010000
00000100
,
00100000
00001000
00100000
00001000
00100000
00001000
00100000
00001000
00020000
00000000
00000000
00000000
00000000
00000000
00000000
00000000
,
00000000
00000000
00000000
00000000
00030000
00000000
00000000
00000000
00001000
00010000
00001000
00010000
00001000
00000000
00000000
00000000
,
00010000
00001000
00010000
00001000
00010000
00000000
00000000
00000000
00001000
00100000
00001000
00100000
00001000
00000000
00000000
00000000
,
00100000
00010000
00100000
00010000
00100000
00000000
00010000
01000000
00010000
01000000
00100000
00000000
00100000
00000000
00000000
00000000
,
10000000
01000000
10000000
01000000
10000000
00000000
00010000
10000000
00010000
10000000
00010000
10000000
00100000
00000000
00100000
00000000
,
00000000
00000000
10000000
00000000
00010000
00000000
00100000
01000000
00100000
00000000
00000000
00000000
00010000
00000000
00000000
00000000
,
00100000
00000000
00010000
00000000
00100000
00000000
00001000
00010000
00001000
00000000
00010000
00000000
00000100
00000000
00001000
00000010
,
00001000
00000000
00000001
00000000
00000010
00000000
00000001
00000100
00000001
00000000
00000100
00000000
00000010
00000000
00001000
00000100
,
00001000
00000010
00000100
00000001
00000101
00000100
00000010
00001000
,
00001100
00000100
00010000
00001000
00100000
00100000
00010000
00000000
,
00100000
00010000
01000000
00100000
10100000
10000000
01000000
00100000
,
01100000
00100000
00010000
01000000
00001000
00001000
00010000
00000000
,
00001000
00000000
00010000
00000000
00000100
00000000
00001000
00000000
00000010
00000100
00000010
00000100
00000000
00000100
00000001
00000010
,
00000100
00000000
00000000
00000000
;
