#VERSION:0.82;
#TITLE:Summertime Sadness;
#SUBTITLE:(Cedric Gervais Mix);
#ARTIST:Lana Del Rey vs Cedric Gervais;
#TITLETRANSLIT:;
#SUBTITLETRANSLIT:;
#ARTISTTRANSLIT:;
#GENRE:Dance;
#ORIGIN:;
#CREDIT:;
#BANNER:Summertime Sadness (Cedric Gervais Mix).png;
#BACKGROUND:Summertime Sadness (Cedric Gervais Mix)-bg.png;
#PREVIEWVID:;
#JACKET:jacket.png;
#CDIMAGE:;
#DISCIMAGE:;
#LYRICSPATH:;
#CDTITLE:;
#MUSIC:Summertime Sadness (Cedric Gervais Mix).ogg;
#OFFSET:-0.287000;
#SAMPLESTART:99.307144;
#SAMPLELENGTH:14.034007;
#SELECTABLE:YES;
#DISPLAYBPM:126.000000;
#BPMS:0.000=126.010,
172.000=126.890,
175.000=125.990;
#STOPS:;
#DELAYS:;
#WARPS:;
#TIMESIGNATURES:0.000=4=4;
#TICKCOUNTS:0.000=4;
#COMBOS:0.000=1;
#SPEEDS:0.000=1.000=0.000=0;
#SCROLLS:0.000=1.000;
#FAKES:;
#LABELS:0.000=Song Start;
#BGCHANGES:4.250=Summertime Sadness (Cedric Gervais Mix).avi=1.000=0=0=1=====,
99999=-nosongbg-=1.000=0=0=0 // don't automatically add -songbackground-
;
#KEYSOUNDS:;
#ATTACKS:
;

//---------------dance-single - ----------------
#NOTEDATA:;
#CHARTNAME:;
#STEPSTYPE:dance-single;
#DESCRIPTION:;
#CHARTSTYLE:;
#DIFFICULTY:Hard;
#METER:9;
#RADARVALUES:0.548818,0.612847,0.114337,0.251542,0.148638,456.000000,15.000000,33.000000,0.000000,0.000000,0.000000,0.000000,0.000000,0.548818,0.612847,0.114337,0.251542,0.148638,456.000000,15.000000,33.000000,0.000000,0.000000,0.000000,0.000000,0.000000;
#CREDIT:Ben Speirs;
#DISPLAYBPM:126.000000;
#NOTES:
0000
0000
0000
0000
,
0000
0000
0000
0000
,
0000
0000
0000
0000
,
0000
0000
0000
0000
,
1000
0000
0100
0000
1000
0000
0010
1000
,
0002
0000
0003
0000
0100
0010
0100
0010
,
1000
0000
0100
0000
0010
0000
0001
1000
,
0002
0000
0003
0000
1000
0010
0100
0001
,
1000
0000
0100
0000
1000
0000
0001
0010
,
0002
0000
0003
0000
1000
0001
1000
0001
,
0200
0000
0310
1000
0100
0000
0100
0010
,
0002
0003
0100
0010
,
2000
0000
3100
0010
0002
0000
0103
0010
,
1000
1000
0001
0001
1000
0010
0100
0001
,
2000
0000
3100
0010
0002
0000
0103
0010
,
1000
0100
0010
0001
2000
0000
3010
1000
,
0200
0000
0310
0001
0200
0000
0310
1000
,
0100
1000
0001
0010
0001
1000
0010
0100
,
0002
0000
2003
0000
3020
0000
1030
0100
,
0020
0030
0001
1000
,
1100
0100
1000
0010
0100
0000
0010
1000
,
0002
0000
1003
0000
0010
1000
0001
0000
,
0101
0100
0001
1000
0010
0000
0100
0001
,
2000
0000
3001
0000
0100
0001
1000
0000
,
1001
0001
0100
0001
1000
0100
0010
0001
,
2000
0000
3010
0000
1000
0100
0010
0000
,
1001
1000
0010
1000
0001
0010
0100
1000
,
0002
0000
0103
0000
0001
0010
0100
0000
,
0011
0010
0001
0010
0100
0010
0002
0000
,
0013
0001
0200
0000
0301
0010
0100
0000
,
1100
0100
1000
0100
0010
0100
2000
0000
,
3100
1000
0020
0000
1030
0100
0010
0000
,
0011
0001
1000
0001
0100
0100
0010
1000
,
0001
0001
0010
0001
1000
1000
0010
0100
,
0001
0100
0001
0000
1000
0100
1000
0000
0001
0010
0001
0000
1000
0010
1000
0000
,
0002
0000
0000
0103
,
0001
1000
0001
1000
0010
0100
0001
1000
,
0100
0010
0100
0010
0001
0100
0101
0000
,
1000
0100
1000
0100
0010
0001
1000
0001
,
0100
0010
0100
0010
1000
0001
0101
0000
,
1000
0100
0010
0001
0100
1000
0100
0001
,
0010
0100
1000
0010
0001
0010
1000
0100
,
0010
0001
0100
0001
1000
0100
1000
0001
,
0100
0000
0000
1001
,
1000
0100
0010
0100
0001
0100
0010
0100
,
1000
0100
0010
0001
0100
0010
1010
0000
,
1000
0010
0100
0010
0001
0010
0100
0010
,
1000
0100
0010
0001
1000
0001
1001
0000
,
0001
0100
1000
0100
0001
0010
0100
1000
,
0001
0100
1000
0100
0001
0010
0100
1000
,
0010
0100
0010
0000
1000
0000
0001
0000
0010
0100
0010
0000
0001
0000
1000
0000
,
0010
0000
0000
1000
0100
0000
0100
0000
0010
0000
0001
0000
1001
0000
0000
0000
,
0001
0000
0100
0001
0100
0000
0001
0100
0001
0000
0100
0000
0020
0000
0000
0000
,
1030
0100
1000
0100
0020
0000
0000
0000
0130
1000
0100
1000
0020
0000
0000
0000
,
1030
0000
0010
1000
0010
0000
1000
0010
1000
0000
0010
0000
0200
0000
0000
0000
,
0301
0010
0001
0010
0200
0000
0000
0000
0310
0001
0010
0001
0200
0000
0000
0000
,
0301
0000
0010
0000
0100
0000
1000
0001
1000
0000
0100
0000
0010
0000
0001
1000
,
0001
0000
0010
0000
0100
0000
1000
0001
1000
0000
0010
0000
0100
0000
0000
0000
,
0102
0000
1003
0100
1000
0001
0010
0001
,
2000
0000
3001
0100
0010
1000
1010
0000
,
0001
0000
0100
0001
0100
0000
0001
1000
0001
0000
0100
0001
0100
0000
0001
0000
,
0010
0000
0100
0000
1000
0000
0001
0000
0100
0010
0100
0010
1000
0000
0001
0000
,
1000
0000
0010
1000
0010
0000
1000
0001
1000
0000
0010
1000
0010
0000
1000
0000
,
0100
0000
0010
0000
0001
0000
1000
0000
0010
0100
0010
0100
0001
0000
1000
0000
,
0010
0010
0100
0010
0100
0100
0010
1000
,
0001
0001
1000
0001
1000
1000
0001
1000
,
0010
1000
0010
1000
0010
1000
0010
0000
1000
0001
1000
0001
1000
0001
1000
0001
,
0100
0000
0000
0000
;

//---------------dance-single - ----------------
#NOTEDATA:;
#CHARTNAME:;
#STEPSTYPE:dance-single;
#DESCRIPTION:;
#CHARTSTYLE:;
#DIFFICULTY:Challenge;
#METER:10;
#RADARVALUES:0.723046,0.842665,0.091470,0.213429,0.674589,624.000000,12.000000,28.000000,0.000000,0.000000,0.000000,0.000000,0.000000,0.723046,0.842665,0.091470,0.213429,0.674589,624.000000,12.000000,28.000000,0.000000,0.000000,0.000000,0.000000,0.000000;
#CREDIT:Ben Speirs;
#DISPLAYBPM:126.000000;
#NOTES:
0000
0000
0000
0000
,
0000
0000
0000
0000
,
0000
0000
0000
0000
,
0000
0000
0000
0000
,
0002
0000
0203
0000
0320
0000
1030
0100
,
0020
0000
0031
0000
1000
0100
1000
0100
,
0020
0000
0031
0100
0010
1000
0010
1000
,
0002
0000
0013
0000
0001
1000
0010
1000
,
0200
0000
0320
0000
0032
0000
1003
0100
,
2000
0000
3002
0000
0103
0010
0100
0010
,
2000
0000
3002
0000
0013
0100
0010
0100
,
2000
0000
3002
0000
0103
0001
1000
0000
,
1200
0000
0310
0001
0200
0000
0310
1000
,
0001
0001
1000
1000
0010
1000
0100
0010
,
0002
0000
0103
0001
2000
0000
3010
1000
,
0001
0010
0100
1000
0020
0000
0130
0000
,
1002
0000
0103
0010
2000
0000
3100
1000
,
0010
0010
0100
0100
0010
1000
0100
0010
,
0002
0000
2003
0000
3020
0000
1030
0001
,
0200
0000
0310
0000
1000
0010
0100
0000
,
0101
0100
0010
1000
0010
0100
0001
0010
,
0100
0100
1000
0100
0010
0001
1000
0001
,
0100
0100
0010
1000
0001
0010
0001
1000
,
0100
0100
1000
0010
0100
0001
1000
0000
,
1001
0001
0010
0001
1000
0010
0100
0001
,
1000
1000
0100
1000
0010
0100
0010
1000
,
0001
0001
0010
0001
1000
1000
0010
1000
,
0001
0100
0010
1000
0100
0010
0001
0000
,
1100
0000
0100
0000
0010
0000
0001
0000
1000
0001
1000
0000
0010
0000
0100
0000
,
0001
1000
0001
0000
0010
0000
0001
0000
1000
0001
1000
0000
0010
0000
0000
0000
,
1010
0000
1000
0000
0001
0000
0100
0000
0001
1000
0001
0000
0100
0000
0001
0000
,
1000
0001
1000
0000
0100
0000
1000
0000
0001
1000
0001
0000
0010
0000
0000
0000
,
0011
0000
0001
0000
1000
0000
0010
0000
0100
0000
0100
0000
0001
0000
1000
0100
,
1000
0000
0001
0000
0100
0000
0010
0000
1000
0000
0001
0000
0010
0000
0001
0100
,
0010
1000
0010
1000
0010
1000
0010
1000
0001
0010
0001
0010
0001
0010
0100
1000
,
0001
0000
0000
0100
,
1001
0000
1000
0100
1000
0000
0100
1000
0100
0000
1000
0100
1000
0000
0100
1000
,
0001
0000
0100
0001
0100
0000
0001
0100
0001
0000
0100
0001
1000
0000
0000
0000
,
0001
0000
0010
0001
0010
0000
0001
0010
0001
0000
0010
0001
0010
0000
0001
1000
,
0010
0000
1000
0010
1000
0000
0010
1000
0010
0000
1000
0001
0010
0000
0001
0000
,
1000
0100
1000
0100
1000
0100
1000
0100
0010
0000
0001
0000
1000
0000
0010
0000
,
0100
0001
0100
0001
0100
0001
0100
0001
1000
0000
0100
0000
1100
0000
0000
0000
,
0001
0010
0001
0010
0001
0010
0001
0010
0100
0000
1000
0000
0001
0000
0100
0000
,
0020
0000
0130
0110
,
0001
0100
0001
0100
0001
0100
0001
0100
0010
1000
0010
1000
0100
0000
0010
0000
,
0001
1000
0001
1000
0001
1000
0001
1000
0010
0100
0010
0100
0001
0000
0000
0000
,
1000
0100
1000
0100
1000
0100
1000
0100
0010
0001
0010
0001
1000
0000
0010
0000
,
0100
0001
0100
0001
0100
0001
0100
0001
1000
0010
1000
0010
0100
0000
0000
0000
,
0001
1000
0001
1000
0001
1000
0001
1000
0010
0100
0001
1000
0010
0100
0001
1000
,
0010
0100
0010
0100
0010
0100
0010
0100
0001
1000
0010
0100
0001
1000
0010
0100
,
0001
0010
0001
0010
0100
1000
0100
1000
0001
0100
0001
0100
0010
1000
0010
1000
,
0001
0000
0100
0010
1000
0000
0001
0000
0010
0000
0010
0000
1001
0000
0000
0000
,
1000
0100
0010
0100
1000
0100
0010
0100
1000
0000
0010
0000
0100
0010
0100
0000
,
0001
0000
1000
0000
0100
1000
0001
0000
1000
0100
0010
0001
1000
0000
0000
0000
,
0001
0010
0100
0010
0001
0010
0100
0010
0001
0000
0100
0000
0010
0100
0010
0000
,
1000
0000
0001
0000
0010
0001
1000
0000
0001
0010
0100
1000
0001
0000
0100
0000
,
0010
1000
0010
0100
0010
1000
0010
0100
0010
0000
1000
0000
0001
0010
0100
0000
,
1000
0000
0001
0000
0100
0010
0100
0000
0001
0010
0100
1000
0001
0000
1000
0000
,
0100
0010
0100
0010
0001
1000
0010
0100
0001
1000
0001
1000
0010
0100
0001
1000
,
0200
0000
0310
0110
,
0001
0010
0100
1000
0001
0010
0100
1000
0001
0100
0010
1000
0001
0100
0010
1000
,
0001
0010
0001
0010
0100
1000
0010
0100
0001
1000
0001
1000
0010
0100
0001
1000
,
0100
0010
0001
1000
0100
0010
0001
1000
0010
0100
0001
1000
0010
0100
0001
1000
,
0010
0100
0010
0100
0001
1000
0100
0010
0001
1000
0001
1000
0010
0000
0100
0000
,
0001
1000
0010
0100
0001
1000
0100
0010
0001
1000
0010
0100
0001
1000
0100
0010
,
0001
1000
0001
1000
0010
0100
0010
0100
0001
1000
0001
1000
0100
0010
0100
0010
,
0001
0010
0100
1000
0001
0100
0010
1000
0100
0010
0001
0100
0010
1000
0100
0010
,
0001
0000
0000
0000
;

//---------------dance-single - ----------------
#NOTEDATA:;
#CHARTNAME:;
#STEPSTYPE:dance-single;
#DESCRIPTION:;
#CHARTSTYLE:;
#DIFFICULTY:Medium;
#METER:6;
#RADARVALUES:0.335389,0.357494,0.114337,0.213429,0.000000,265.000000,15.000000,28.000000,0.000000,0.000000,0.000000,0.000000,0.000000,0.335389,0.357494,0.114337,0.213429,0.000000,265.000000,15.000000,28.000000,0.000000,0.000000,0.000000,0.000000,0.000000;
#CREDIT:Ben Speirs;
#DISPLAYBPM:126.000000;
#NOTES:
0000
0000
0000
0000
,
0000
0000
0000
0000
,
0000
0000
0000
0000
,
0000
0000
0000
0000
,
0001
0100
0010
0010
,
2000
3000
0002
0003
,
1000
0100
0010
0010
,
0002
0003
2000
3000
,
0010
0010
1000
0100
,
0020
0030
0002
0003
,
0100
0001
1000
1000
,
0200
0300
0010
0001
,
2000
0000
3000
0001
0002
0000
0003
0100
,
0100
0010
1000
0001
,
0020
0000
0030
0100
0200
0000
0300
1000
,
1000
0001
0100
0000
,
0002
0000
0003
1000
2000
0000
3000
0010
,
0010
0100
0001
1000
,
0100
0100
0010
0010
,
0002
0003
2000
3000
,
0001
0100
0001
0000
0100
0000
0100
0000
,
0020
0030
2000
3000
,
0100
1000
0100
0000
1000
0000
1000
0000
,
0002
0003
0020
0030
,
0001
1000
0001
0000
1000
0000
1000
0000
,
0020
0030
0100
0000
,
0001
0100
0001
0000
1000
0000
1000
0000
,
0200
0300
0010
0000
,
0001
0000
0010
0000
0001
0100
0001
0000
,
1000
0100
1000
0000
0001
0000
0001
0000
,
0100
0000
0001
0000
1000
0010
1000
0000
,
0001
0010
0001
0000
0100
0000
0100
0000
,
0001
0000
1000
0000
0010
1000
0010
0000
,
1000
0100
1000
0000
0001
0000
0001
0000
,
0010
0001
0100
0010
,
1000
0000
0000
0000
,
1001
1100
1001
0100
,
0001
0000
1000
0000
0010
1000
0001
0000
,
0101
1100
0001
1001
,
1100
0000
0001
0000
0010
0001
0100
0000
,
0001
1000
0001
1000
0001
0000
0100
0000
,
0010
1000
0010
0000
1000
0000
0000
0000
,
1100
0110
0001
0101
,
1001
0000
0000
0010
,
1000
0100
0001
0000
1000
0000
1100
0000
,
0001
0000
1000
0000
0010
1000
0001
0000
,
1000
0010
0001
0000
0100
0000
0101
0000
,
1000
0000
0001
0000
0010
0001
0100
0000
,
0001
1000
0001
1000
0001
0000
0100
0000
,
0010
1000
0010
1000
0010
0000
1000
0000
,
0002
0000
1003
0000
0010
1000
0001
0000
,
2000
3000
0000
1001
,
1000
0000
0001
0000
0100
0010
0100
0000
,
0001
0100
0001
0000
1000
0100
1000
0000
,
0001
0000
0010
0000
0001
1000
0001
0000
,
1000
0100
1000
0000
0001
0100
0001
0000
,
1000
0000
0001
0000
1000
0010
1000
0000
,
0001
0010
0001
0000
0100
0001
0100
0000
,
0020
0000
0030
0000
1000
0010
0100
0001
,
1000
0000
0000
0000
,
1001
0000
0001
0000
0100
0100
0001
0000
,
1000
1000
0100
0000
2000
0000
3001
0000
,
1000
0000
0001
0000
0100
0100
0010
0000
,
1000
1000
0010
0000
0200
0000
0301
0000
,
1000
0000
0001
0000
0010
0010
0001
0000
,
1000
1000
0010
0000
0200
0000
0301
0000
,
2000
0000
3000
0000
0001
0010
0100
1000
,
0001
0000
0000
0000
;

//---------------dance-single - ----------------
#NOTEDATA:;
#CHARTNAME:;
#STEPSTYPE:dance-single;
#DESCRIPTION:;
#CHARTSTYLE:;
#DIFFICULTY:Easy;
#METER:3;
#RADARVALUES:0.166606,0.178747,0.022867,0.030490,0.000000,146.000000,3.000000,4.000000,0.000000,0.000000,0.000000,0.000000,0.000000,0.166606,0.178747,0.022867,0.030490,0.000000,146.000000,3.000000,4.000000,0.000000,0.000000,0.000000,0.000000,0.000000;
#CREDIT:Ben Speirs;
#DISPLAYBPM:126.000000;
#NOTES:
0000
0000
0000
0000
,
0000
0000
0000
0000
,
0000
0000
0000
0000
,
0000
0000
0000
0000
,
0001
0000
1000
0000
,
0020
0030
0000
0000
,
1000
0000
0001
0000
,
0200
0300
0000
0000
,
0001
0000
0001
0000
,
2000
3000
0000
0000
,
1000
0000
1000
0000
,
0002
0003
0000
0000
,
1000
0000
1000
0000
,
0100
0100
0010
0000
,
0001
0000
0001
0000
,
0100
0100
0010
0000
,
1000
0000
1000
0000
,
0001
0000
0001
0000
,
0100
0100
0010
0010
,
1000
0000
0000
0000
,
0001
0001
0100
0000
,
0001
0000
1000
0000
,
0100
0100
0100
0000
,
1000
0000
0000
0000
,
1000
1000
0010
0000
,
1000
0000
0001
0000
,
0010
0010
0010
0000
,
0001
0000
0000
0000
,
1001
0000
1000
1000
,
0000
0000
0001
0001
,
0000
0000
0100
0100
,
0000
0000
0010
0010
,
0010
0000
1000
0000
,
0100
0000
0010
0000
,
0001
0001
1000
1000
,
0010
0000
0000
0000
,
1001
0000
0001
0100
,
0001
0000
1000
0000
,
0010
0000
1000
0100
,
1000
0000
0001
0000
,
1000
0000
0100
0010
,
0001
0000
0100
0000
,
0001
0000
0100
0010
,
1000
0000
0000
0000
,
1001
0000
1000
0010
,
1000
0000
0001
0000
,
1000
0000
0001
0100
,
0001
0000
1000
0000
,
0001
0000
1000
0010
,
0100
0000
0001
0000
,
1000
0000
0001
0100
,
0010
0000
0000
0000
,
1000
0000
0100
0100
,
0010
0000
0001
0001
,
0100
0000
0010
0010
,
1000
0000
0001
0000
,
1000
0000
0100
0100
,
0010
0000
0001
0001
,
0100
0000
0010
0000
,
1000
0000
0000
0000
,
0001
0000
1000
0000
,
0010
0010
0100
0100
,
0001
0000
1000
0000
,
0100
0100
0010
0010
,
0001
0000
1000
0000
,
0010
0010
0100
0100
,
0001
0000
1000
0000
,
0010
0000
0000
0000
;

//---------------dance-single - ----------------
#NOTEDATA:;
#CHARTNAME:;
#STEPSTYPE:dance-single;
#DESCRIPTION:;
#CHARTSTYLE:;
#DIFFICULTY:Beginner;
#METER:2;
#RADARVALUES:0.115426,0.153212,0.022867,0.000000,0.000000,103.000000,3.000000,0.000000,0.000000,0.000000,0.000000,0.000000,0.000000,0.115426,0.153212,0.022867,0.000000,0.000000,103.000000,3.000000,0.000000,0.000000,0.000000,0.000000,0.000000,0.000000;
#CREDIT:Ben Speirs;
#DISPLAYBPM:126.000000;
#NOTES:
0000
0000
0000
0000
,
0000
0000
0000
0000
,
0000
0000
0000
0000
,
0000
0000
0000
0000
,
1000
0000
0000
0000
,
0001
0000
0000
0000
,
0100
0000
0000
0000
,
0100
0000
0000
0000
,
0001
0000
0000
0000
,
1000
0000
0000
0000
,
0010
0000
0000
0000
,
0010
0000
0000
0000
,
1000
0000
1000
0000
,
0100
0000
0000
0000
,
0010
0000
0010
0000
,
0001
0000
0000
0000
,
0001
0000
0001
0000
,
0100
0000
0000
0000
,
0010
0000
0010
0000
,
1000
0000
0000
0000
,
0001
0001
0000
0000
,
1000
0000
0000
0000
,
0001
0001
0000
0000
,
1000
0000
0000
0000
,
1000
1000
0000
0000
,
0001
0000
0000
0000
,
1000
1000
0000
0000
,
0001
0000
0000
0000
,
0100
0100
0100
0000
,
0100
0000
0000
0000
,
0001
0001
0001
0000
,
0001
0000
0000
0000
,
1000
0000
1000
0000
,
0001
0000
0001
0000
,
0100
0000
0100
0000
,
0100
0000
0000
0000
,
1001
0000
0000
0000
,
1000
1000
1000
0000
,
0010
0000
0000
0000
,
0100
0100
0100
0000
,
0001
0000
0000
0000
,
1000
0000
0000
0000
,
0010
0000
0010
0000
,
0010
0000
0000
0000
,
1001
0000
0000
0000
,
0001
0001
0001
0000
,
0100
0000
0000
0000
,
0010
0010
0010
0000
,
1000
0000
0000
0000
,
0001
0000
0000
0000
,
0100
0000
0100
0000
,
0001
0000
0000
0000
,
1000
0000
0100
0100
,
0000
0000
1000
1000
,
0000
0000
0010
0010
,
0000
0000
1000
1000
,
0000
0000
0001
0001
,
0000
0000
0010
0010
,
0010
0000
0000
0000
,
0001
0000
0000
0000
,
1001
0000
0000
0000
,
0001
0001
0001
0000
,
1000
0000
0000
0000
,
1000
1000
1000
0000
,
0010
0000
0000
0000
,
0010
0010
0010
0000
,
0100
0000
0100
0000
,
0100
0000
0000
0000
;

//---------------dance-double - ----------------
#NOTEDATA:;
#CHARTNAME:;
#STEPSTYPE:dance-double;
#DESCRIPTION:;
#CHARTSTYLE:;
#DIFFICULTY:Challenge;
#METER:9;
#RADARVALUES:0.534662,0.689453,0.053357,0.251542,0.186751,451.000000,7.000000,33.000000,0.000000,0.000000,0.000000,0.000000,0.000000,0.534662,0.689453,0.053357,0.251542,0.186751,451.000000,7.000000,33.000000,0.000000,0.000000,0.000000,0.000000,0.000000;
#CREDIT:Ben Speirs;
#DISPLAYBPM:126.000000;
#NOTES:
// measure 0
00000000
00000000
00000000
00000000
,  // measure 1
00000000
00000000
00000000
00000000
,  // measure 2
00000000
00000000
00000000
00000000
,  // measure 3
00000000
00000000
00000000
00000000
,  // measure 4
20000000
00000000
30100000
00000000
01000000
00000000
00010000
10000000
,  // measure 5
00200000
00000000
00300000
00000000
10000000
01000000
10000000
01000000
,  // measure 6
00200000
00000000
00310000
00000000
01000000
00000000
00010000
00100000
,  // measure 7
00002000
00000000
00003000
00000000
00010000
00001000
00010000
00000000
,  // measure 8
00000200
00000000
00001300
00000000
00000020
00000000
00000130
00000001
,  // measure 9
00002000
00000000
00003000
00000000
00000001
00000100
00000001
00000100
,  // measure 10
00000020
00000000
00001030
00000000
00000100
00001000
00000100
00001000
,  // measure 11
00000002
00000003
00001000
00000000
,  // measure 12
00000020
00000000
00000030
00010000
00020000
00000000
00030000
00001000
,  // measure 13
00001000
00010000
00001000
00100000
00010000
01000000
00100000
10000000
,  // measure 14
00020000
00000000
00030000
10000000
20000000
00000000
30000000
00010000
,  // measure 15
00100000
01000000
10000000
00010000
10000000
00000000
00100000
00100000
,  // measure 16
02000000
00000000
03000000
00001000
00002000
00000000
00003000
00010000
,  // measure 17
00010000
00001000
00010000
00000100
00001000
00000010
00000100
00000001
,  // measure 18
00002000
00000000
00003002
00000000
00000203
00000000
00000310
00001000
,  // measure 19
00000200
00000300
00000010
00000010
,  // measure 20
00000001
00000010
00000001
00000010
00000200
00000000
00001300
00000100
,  // measure 21
00002000
00000000
00003001
00000000
00000100
00000010
00001000
00000000
,  // measure 22
00000100
00010000
00000100
00010000
00002000
00000000
00013000
00001000
,  // measure 23
00200000
00000000
00310000
00000000
01000000
00010000
10000000
00000000
,  // measure 24
00100000
10000000
00100000
10000000
00020000
00000000
00130000
00010000
,  // measure 25
02000000
00000000
03100000
00000000
01000000
00010000
10000000
00000000
,  // measure 26
00100000
10000000
00100000
10000000
00020000
00000000
00130000
00010000
,  // measure 27
20000000
31000000
00100000
00010000
,  // measure 28
10000000
00010000
10000000
00010000
01000000
00001000
00200000
00000000
,  // measure 29
00310000
01000000
00200000
00000000
01300000
00010000
20000000
00000000
,  // measure 30
31000000
00010000
00001000
00010000
00001000
00000100
00000002
00000000
,  // measure 31
00001003
00000100
00000020
00000000
00000031
00000000
00001001
00000000
,  // measure 32
00000001
00000100
00001000
00000100
00000001
00000010
00000100
00001000
,  // measure 33
00000010
00000100
00001000
00000100
00000010
00001000
00000100
00010000
,  // measure 34
00001000
00010000
00001000
00000000
00100000
00010000
00100000
00000000
00010000
01000000
00010000
00000000
10000000
01000000
10000000
00000000
,  // measure 35
00010000
00000000
00000000
01000000
,  // measure 36
10010000
10000000
01000000
10000000
00100000
01000000
00010000
10000000
,  // measure 37
01000000
00000000
00100000
00000000
00010000
00000000
01000000
00000000
00010000
10000000
00010000
00000000
01000000
00000000
00000000
00000000
,  // measure 38
00010000
01000000
00010000
00100000
00001000
00100000
00001000
00010000
,  // measure 39
00000100
00001000
00000010
00000100
00000001
00001000
00000010
00000100
,  // measure 40
00000001
00000010
00000001
00001000
00000001
00000100
00000001
00001000
,  // measure 41
00000010
00000000
00000100
00000000
00000001
00000000
00000100
00000000
00000010
00001000
00000010
00000000
00001000
00000000
00000000
00000000
,  // measure 42
00000001
00000010
00000100
00001000
00000010
00000100
00001000
00010000
,  // measure 43
00001000
00000000
00000000
00011000
,  // measure 44
00100000
00000000
00010000
00100000
00010000
00000000
01000000
00000000
00010000
00000000
10000000
00000000
00100000
00000000
01000000
00000000
,  // measure 45
00010000
00000000
10000000
01000000
10000000
00000000
00100000
00000000
01000000
00000000
00010000
00000000
10010000
00000000
00000000
00000000
,  // measure 46
10000000
00000000
00100000
01000000
00100000
00000000
01000000
00000000
00010000
00000000
00100000
00000000
00010000
00000000
00100000
00000000
,  // measure 47
00001000
00000000
00010000
00001000
00010000
00000000
00000100
00000000
00001000
00000000
00000010
00000000
00000100
00000000
00000001
00000000
,  // measure 48
00001000
00000000
00000001
00000000
00000100
00000000
00000010
00000000
00001000
00000100
00001000
00000000
00000010
00000000
00000100
00000000
,  // measure 49
00000001
00000100
00000001
00000000
00001000
00000100
00001000
00000000
00000001
00000010
00000001
00000010
00000100
00000000
00000000
00000000
,  // measure 50
00001000
00000100
00010000
00000100
00010000
00001000
00100000
00001000
,  // measure 51
00010000
00000000
00000000
00011000
,  // measure 52
00000100
00000000
00001000
00000100
00001000
00000000
00000100
00000000
00000010
00000001
00000010
00000000
00000001
00000000
00001000
00000000
,  // measure 53
00000010
00000100
00000010
00000000
00001000
00000000
00000001
00000000
00000010
00000100
00000010
00000000
00000001
00000000
00001000
00000000
,  // measure 54
00000010
00000000
00001000
00000100
00001000
00000000
00000100
00000000
00010000
00001000
00010000
00000000
00000100
00000000
00010000
00000000
,  // measure 55
00001000
00010000
00001000
00000000
00100000
00000000
00001000
00000000
01000000
00010000
01000000
00000000
00010000
00000000
10000000
00000000
,  // measure 56
00100000
01000000
00100000
01000000
00100000
00000000
10000000
00000000
01000000
00100000
01000000
00100000
01000000
00000000
10000000
00000000
,  // measure 57
00100000
01000000
00100000
01000000
00100000
00000000
10000000
00000000
01000000
00000000
00100000
00000000
00020000
00000000
00000000
00000000
,  // measure 58
10030000
00100000
01000000
00100000
10000000
01000000
00100000
00010000
,  // measure 59
01000000
00000000
00000000
10010000
,  // measure 60
00010000
00000000
01000000
00000000
00100000
00000000
10000000
00000000
01000000
00100000
01000000
00100000
00010000
00000000
10000000
00000000
,  // measure 61
00100000
10000000
00100000
00000000
10000000
00000000
01000000
00000000
00100000
00010000
00100000
00000000
00010000
00000000
10000000
00000000
,  // measure 62
00100000
00000000
01000000
00000000
00010000
00000000
00100000
00000000
00001000
00100000
00001000
00100000
00001000
00000000
00010000
00000000
,  // measure 63
00000100
00010000
00000100
00000000
00001000
00000000
00000010
00000000
00000100
00000010
00000100
00000000
00000001
00000000
00000000
00000000
,  // measure 64
00000101
00000000
00000100
00000000
00000010
00000000
00001000
00000000
00000100
00000010
00000100
00000000
00000010
00000000
00000001
00000000
,  // measure 65
00001000
00000100
00001000
00000000
00000001
00001000
00000001
00000000
00000100
00000001
00000100
00000001
00000100
00000000
00000000
00000000
,  // measure 66
00000010
00001000
00000010
00001000
00000010
00001000
00000010
00000000
00010000
00000100
00010000
00000100
00010000
00000100
00001000
00000100
,  // measure 67
00010000
00000000
00000000
00000000
;
