#TITLE:Still Into You;
#SUBTITLE:;
#ARTIST:Paramore;
#TITLETRANSLIT:;
#SUBTITLETRANSLIT:;
#ARTISTTRANSLIT:;
#GENRE:Smitten Hayley;
#CREDIT:;
#BANNER:Still Into You.png;
#BACKGROUND:Still Into You-bg.png;
#LYRICSPATH:;
#CDTITLE:;
#MUSIC:Still Into You.ogg;
#OFFSET:-0.013000;
#SAMPLESTART:33.643448;
#SAMPLELENGTH:14.954000;
#SELECTABLE:YES;
#BPMS:0.000000=136.149994
;
#STOPS:
;
#BGCHANGES:3.500=Still Into You.avi=1.000=0=0=1=====,
99999=-nosongbg-=1.000=0=0=0 // don't automatically add -songbackground-
;
#KEYSOUNDS:;
#ATTACKS:;

//---------------dance-single - ----------------
#NOTES:
     dance-single:
     :
     Hard:
     7:
     0.503140,0.504584,0.397050,0.573517,0.000000,347.000000,54.000000,78.000000,0.000000,0.000000,0.000000,0.503140,0.504584,0.397050,0.573517,0.000000,347.000000,54.000000,78.000000,0.000000,0.000000,0.000000:
0000
0000
0000
0000
,
0000
0000
0000
0000
,
0000
0000
0000
0000
,
1010
0000
0000
1000
0100
0010
0001
0000
,
1100
0000
0102
0000
1003
0020
0000
0130
,
0002
0000
1003
0200
0000
0310
0002
0000
,
1003
0000
0000
0001
0100
0010
1000
0000
,
0101
0000
0000
1000
0100
0010
0001
0000
,
1100
0000
0001
1000
0010
0000
1000
0001
,
0010
0000
0001
1000
0100
0000
0000
0000
,
1001
0000
0000
1000
0010
0100
0001
0000
,
1000
0000
0001
0000
0100
0001
1000
0000
,
1010
0000
0001
0020
0000
0130
2000
0000
,
3001
0200
0000
0310
2000
0000
3000
0000
,
0101
0000
0000
1000
0100
0010
0001
0000
,
1100
0000
0000
0001
0010
0100
1000
0000
,
0102
0100
0100
0103
,
2100
0100
0100
3100
,
2000
3002
0203
0320
,
1030
0100
1000
0001
0010
0001
1000
0000
,
0001
0100
0002
0000
1000
0000
0010
0000
,
2003
0100
0001
0010
,
3002
0000
0103
0010
2000
0000
3100
0010
,
0001
1000
0010
0100
0010
1000
0001
0000
,
1000
2100
0001
0100
,
3002
0010
1000
0100
,
2003
0000
3010
0100
0002
0000
0013
0100
,
1000
0000
0001
0100
0010
1000
0001
0000
,
1100
0101
1100
0101
,
1010
0011
1010
0011
,
1001
0110
1001
0110
,
0001
0100
0010
1000
0200
0000
0320
0000
,
0032
1000
1000
1003
,
0200
0000
0310
0000
2000
0000
3100
0010
,
0002
0000
0003
1000
0100
0000
1100
0000
,
0002
0000
0003
1000
0100
0000
1100
0000
,
0002
0000
0203
0000
0320
0000
1030
0100
,
0020
0032
2003
3010
,
2000
0000
3000
0001
0100
0000
0101
0000
,
2000
0000
3000
0001
0100
0000
0101
0000
,
2000
0000
3002
0000
0023
0000
0130
1000
,
0020
0230
0302
1003
,
0001
0101
1001
1010
,
0100
0000
1100
0000
1000
0100
0010
0000
,
0002
0023
0230
2300
,
3020
0100
0130
0000
,
0101
1010
1100
0011
,
1000
0000
1001
0000
0001
0010
0100
0000
,
2000
3200
0320
0032
,
1000
1000
1003
0000
,
2002
0000
0000
3003
,
0020
0000
0000
0030
,
2000
0000
0000
3000
,
0002
0000
0000
0003
,
0200
0010
0010
0310
,
0020
1000
1000
1030
,
1000
0010
1000
0010
1000
0001
1000
0001
,
0100
0001
1000
0100
0010
0001
1000
0000
,
0001
0100
0102
0000
0010
0000
1000
0000
,
0203
0000
0310
1000
0002
0000
0013
0001
,
2000
0000
3100
0010
0002
0000
0103
0010
,
2000
0000
3001
0000
1000
0100
0010
0000
,
0100
1000
2100
0000
0010
0000
0001
0000
,
3020
0000
0130
0001
2000
0000
3100
0010
,
0002
0000
1003
0001
0200
0000
0310
1000
,
0002
0000
0103
0000
0010
1000
0001
0000
,
1100
0011
1010
0101
,
1001
0000
0110
0000
1000
0100
0010
0001
,
0011
1100
0101
1010
,
1001
0000
0110
0000
1000
0001
0100
0000
,
2001
0000
3100
0000
0010
1000
0001
0000
,
1002
0000
0103
0000
0010
0001
0100
0000
,
0001
1000
0001
1000
0020
0000
0230
0000
,
0301
1000
0001
1000
0200
0000
0310
0000
,
0001
0010
0100
1000
0010
0100
0001
1000
,
0100
0010
0001
1000
0010
0100
0001
1000
,
0200
0300
0000
0000
;

//---------------dance-single - ----------------
#NOTES:
     dance-single:
     :
     Challenge:
     9:
     0.598726,0.700812,0.294111,0.124997,0.194849,513.000000,40.000000,17.000000,0.000000,0.000000,0.000000,0.598726,0.700812,0.294111,0.124997,0.194849,513.000000,40.000000,17.000000,0.000000,0.000000,0.000000:
0000
0000
0000
0000
,
0000
0000
0000
0000
,
0000
0000
0000
0000
,
1000
0010
0010
0100
0100
0001
0010
0100
,
2000
0000
3001
0000
1000
0100
0010
0001
,
2000
0000
3001
0010
0100
1000
0002
0000
,
0103
0100
0000
0001
0100
0010
1000
0000
,
0101
0000
0000
1000
0010
0100
0001
0000
,
1100
0100
0010
0001
1000
0000
0010
1000
,
0001
0000
0100
0001
1000
0000
0000
0001
,
0010
0010
0000
0001
0010
0100
1000
0000
,
0001
0100
0100
0010
0010
1000
0100
0010
,
0001
0000
0001
0100
0001
0010
0001
0000
,
1000
0100
1000
0010
1000
0000
0001
1000
,
0010
0010
0000
1000
0100
0010
0001
0000
,
0010
0001
1000
1000
0010
1000
0001
0000
,
0102
1000
1000
1003
,
2100
0001
0001
3001
,
1000
0100
0010
0001
0100
0010
1000
0001
,
0100
0000
0001
1000
0001
0000
0100
0000
0010
1000
0010
0000
0100
0001
0100
0001
,
1000
2100
0001
3010
,
1001
0000
0100
0001
1000
0000
0100
1000
,
0001
0000
0010
0001
1000
0000
0010
1000
,
0001
0000
1000
0000
0010
0000
0100
0000
0001
0000
1000
0100
1000
0000
0001
0100
,
0001
0012
1000
0103
,
1001
0000
0010
1000
0001
0000
0010
0001
,
1000
0000
0100
1000
0001
0000
0100
0001
,
1000
0000
0001
0100
0001
0000
1000
0000
0010
0100
0010
0000
1000
0100
1000
0000
,
1001
0000
1100
0001
1001
0000
0101
0000
,
1000
0001
0100
0010
1000
0100
0010
0001
,
0011
0000
1000
1010
0001
1000
0010
0100
,
0001
1000
1000
0010
1010
0001
0101
0000
,
1001
0000
1000
0100
0010
0001
1000
0000
,
1010
0000
0001
1000
0010
0100
0001
0000
,
1100
0000
0000
0100
0000
0000
0010
0000
0001
0000
1000
0000
0001
0000
0000
0000
,
0100
0000
0000
0100
0000
0000
0010
0000
1000
0000
0001
0000
1000
0000
0000
0000
,
0001
0000
0000
0001
0100
0000
0000
0100
0010
0000
0000
0010
1000
0000
0100
0000
,
0010
0000
0000
0010
0001
0000
0000
0001
1000
0000
0000
1000
0010
0000
1000
0000
,
0001
0000
0000
0010
0000
0000
0100
0000
1000
0000
0001
0000
1000
0000
0000
0000
,
0010
0000
0000
0010
0000
0000
0100
0000
0001
0000
1000
0000
0001
0000
0000
0000
,
1000
0000
0000
1000
0010
0000
0000
0010
0100
0000
0000
0100
0001
0000
0010
0000
,
0100
0000
0000
0100
1000
0000
0000
1000
0001
0000
0000
0001
0100
0000
0010
0000
,
1000
0001
0101
0000
1100
0001
1001
0000
,
1000
0100
0010
0001
1000
1000
0001
0001
,
0100
0000
0000
0100
0010
0000
0000
0010
1000
0000
0000
1000
0100
0000
0000
0100
,
0010
0001
0010
1000
0010
0001
1000
0000
,
0001
1000
1010
0000
0011
1000
1001
0000
,
0001
0010
0100
1000
0001
0001
1000
1000
,
0010
0000
0000
0010
0100
0000
0000
0100
0001
0000
0000
0001
0010
0000
0000
0010
,
0100
0000
1000
0000
0100
0000
0001
0000
0100
1000
0100
0000
1000
0001
1000
0000
,
0002
0100
0100
0103
,
2000
0100
0100
3100
,
0002
0010
0010
0010
,
0010
0010
0010
0013
,
2001
0100
0010
3001
,
1002
0100
0010
1003
,
0001
0100
1000
0100
0001
0010
1000
0010
,
0001
0100
0001
0100
0010
0000
1000
0100
1000
0100
0010
0000
0001
1000
0001
1000
,
0010
1000
0102
0000
0010
0000
1003
0100
,
0010
0000
0001
1000
0010
0010
1000
0001
,
0010
0010
0001
1000
0100
0100
1000
0001
,
0100
0000
0100
0000
0010
0000
1000
0000
0100
0000
1000
0001
1000
0000
0001
0100
,
0001
1000
2010
0000
0100
0000
3001
0010
,
0100
0000
1000
0001
0100
0100
0001
1000
,
0100
0100
1000
0001
0010
0010
0001
1000
,
0010
0000
0100
0001
0100
0000
0010
0000
1000
0100
1000
0100
1000
0100
1000
0100
,
0010
0001
1000
0010
0100
0001
1000
0100
,
0010
0000
0001
0000
0100
0000
1000
0000
0100
0000
0001
0000
0010
0000
0100
1000
,
0100
0010
0001
1000
0010
0100
0001
1000
,
0010
0000
1000
0001
1000
0000
0010
0000
1010
0000
0001
0000
0101
0000
0000
0000
,
2001
0000
3100
1000
0010
0100
0001
0000
,
0102
0000
0000
0000
1003
0000
0001
0000
0100
0010
0100
0000
0001
1000
0001
1000
,
0010
0100
0001
0010
1000
0001
0100
1000
,
0001
0100
1000
0001
0010
1000
0001
0010
,
0011
0001
1001
1000
1100
0001
1001
0100
,
0101
1000
0100
0010
0001
1000
1100
0101
,
2000
3000
0000
0000
;

//---------------dance-single - ----------------
#NOTES:
     dance-single:
     :
     Medium:
     5:
     0.388647,0.504584,0.308817,0.441167,0.000000,268.000000,42.000000,60.000000,0.000000,0.000000,0.000000,0.388647,0.504584,0.308817,0.441167,0.000000,268.000000,42.000000,60.000000,0.000000,0.000000,0.000000:
0000
0000
0000
0000
,
0000
0000
0000
0000
,
0000
0000
0000
0000
,
1010
0000
0000
0000
0001
0100
0001
0000
,
2000
3100
0010
0001
,
2000
3010
0100
0002
,
1003
0000
0000
0000
0010
1000
0001
0000
,
1001
0000
0000
0000
0010
0001
1000
0000
,
0001
0100
0010
0010
,
1000
0100
0010
0000
,
0001
0000
0000
0000
1000
0100
1000
0000
,
0001
0000
1000
0000
0010
1000
0001
0000
,
0200
0000
0300
0000
0001
1000
0001
0000
,
0020
0000
0030
0000
0001
1000
0001
0000
,
2000
3000
0100
1000
,
0010
0000
0000
0000
1000
0001
1000
0000
,
0002
0100
0103
0000
,
2000
0100
3100
0000
,
0002
0023
0230
2300
,
3010
0000
1000
0000
0001
1000
0001
0000
,
1000
0100
2000
0000
3100
0000
0000
0000
,
0001
0100
0002
0000
0103
0000
0000
0000
,
1000
0001
0100
0010
,
1000
0000
0001
0000
1000
0100
0010
0000
,
0001
0100
0002
0000
0103
0000
0000
0000
,
1000
0100
2000
0000
3100
0000
0000
0000
,
1000
0000
0001
0000
0100
0000
0010
1000
,
0001
0000
1000
0100
1000
0100
1000
0000
,
1001
0000
0000
0101
0000
0000
2100
0000
,
3001
0000
1000
0000
0010
1000
0001
0000
,
1010
0000
0000
0011
0000
0110
0000
1100
,
0000
0000
0001
1000
0002
0000
0103
0000
,
2002
0000
3003
0000
0010
1000
0100
0000
,
2200
0000
3300
0000
0010
1000
0001
0000
,
0101
0010
2000
3200
,
0310
0001
2000
3002
,
0203
0000
0000
0000
0310
0000
0100
0001
,
2000
0000
3100
0000
,
1001
0100
2000
3010
,
0100
0001
0020
0130
,
2000
0000
0000
0000
3000
0000
0100
0010
,
0002
0000
0000
0103
,
0001
0101
0110
1010
,
0001
0000
1000
0000
0100
0010
0001
0000
,
1000
1000
1100
1001
,
0001
0001
0202
0303
,
0001
1000
0010
0010
,
1000
0000
0001
0000
0010
0001
1000
0000
,
1100
0101
1100
0001
,
1010
0011
2002
3003
,
0020
0000
0000
0030
,
0200
0000
0000
0300
,
0002
0000
0000
0003
,
2000
0000
0000
3000
,
0200
0000
0000
0300
,
0020
0000
0000
0030
,
0001
1000
0010
0100
,
1001
0000
0000
1001
0000
0000
1001
0000
,
0010
1000
0020
0000
0130
0000
0000
0000
,
0001
0100
0002
0000
1003
0000
0000
0000
,
0002
0023
0230
2300
,
3001
0000
1000
0000
0010
0100
0001
0000
,
1000
0100
2000
0000
3100
0000
0000
0000
,
0001
0100
0002
0000
0103
0000
0000
0000
,
0002
2003
3020
0230
,
0301
0000
1000
0000
0100
0010
0001
0000
,
1100
0011
1100
0011
,
1100
0000
0000
0000
0010
1000
0001
0000
,
0101
1010
0101
1010
,
0101
0000
0000
0000
1000
0001
1000
0000
,
0020
0030
0100
0001
,
2000
3000
0100
0010
,
0002
0003
2000
0000
,
3100
0000
0002
0000
,
0013
0001
1100
0101
,
0010
0000
1001
0000
0110
0000
1000
0001
,
0200
0300
0000
0000
;

//---------------dance-single - ----------------
#NOTES:
     dance-single:
     :
     Easy:
     4:
     0.237390,0.308357,0.161761,0.132350,0.000000,186.000000,22.000000,18.000000,0.000000,0.000000,0.000000,0.237390,0.308357,0.161761,0.132350,0.000000,186.000000,22.000000,18.000000,0.000000,0.000000,0.000000:
0000
0000
0000
0000
,
0000
0000
0000
0000
,
0000
0000
0000
0000
,
1001
0000
0100
0001
,
1000
1000
0000
0100
,
0010
0000
0001
1000
,
0001
0000
0100
0100
,
0010
0000
1000
1000
,
1001
0000
0001
0010
,
0100
0000
1000
0000
,
0010
0000
1000
1000
,
0001
0000
0100
0010
,
1000
0000
0001
0010
,
0001
0000
1000
0000
,
0010
0000
1000
1000
,
0001
0000
0100
0001
,
2000
0000
3000
0000
,
0002
0000
0003
0000
,
0100
0100
0010
0010
,
1000
0001
1000
0000
,
1001
1001
0100
0000
,
1001
1001
0100
0000
,
0010
0000
0001
0000
,
1000
0000
0010
0000
,
1001
1001
0010
0000
,
1001
1001
0010
0000
,
0001
0000
1000
0000
,
0010
0000
0100
0000
,
0001
0100
0001
0100
,
0010
0000
0010
0000
,
1000
0100
1000
0100
,
0010
0000
0010
0000
,
2002
3003
0000
0000
,
0020
0030
2000
3000
,
1001
0000
0100
0100
,
0010
0000
1000
1000
,
0001
0000
1000
0000
,
0100
0000
0010
0000
,
0001
0000
0100
0100
,
0010
0000
1000
1000
,
0001
0000
1000
0000
,
0100
0000
0010
0000
,
0000
0001
0100
0001
,
0000
1000
0001
0000
,
1000
1000
0100
0100
,
0010
0001
1000
0000
,
0000
0010
1000
0010
,
0000
1000
0001
0000
,
0100
0100
0001
0001
,
1000
0100
0010
0000
,
2002
0000
0000
0000
,
0000
0000
0000
3003
,
0020
0000
0000
0000
,
0000
0000
0000
0030
,
0100
0000
0100
0000
,
0001
0000
0001
0000
,
1000
1000
0001
0001
,
0100
0000
0100
0000
,
1001
1001
0010
0000
,
1001
1001
0010
0000
,
1000
0000
0001
0000
,
0100
0000
0001
0000
,
1001
1001
0100
0000
,
1001
1001
0100
0000
,
0001
0000
1000
0000
,
0010
0000
1000
0000
,
0001
0100
0001
0100
,
0010
0000
0010
0000
,
1000
0100
1000
0100
,
0010
0000
0010
0000
,
2002
3003
0000
0100
,
0200
0300
2000
3000
,
0002
0003
0200
0300
,
0020
0030
2000
3000
,
0001
1000
0001
1000
,
0010
0100
0010
0100
,
0002
0003
0000
0000
;

//---------------dance-single - ----------------
#NOTES:
     dance-single:
     :
     Beginner:
     2:
     0.146005,0.223524,0.022058,0.000000,0.000000,136.000000,3.000000,0.000000,0.000000,0.000000,0.000000,0.146005,0.223524,0.022058,0.000000,0.000000,136.000000,3.000000,0.000000,0.000000,0.000000,0.000000:
0000
0000
0000
0000
,
0000
0000
0000
0000
,
0000
0000
0000
0000
,
1000
0000
0001
0000
,
0100
0100
0000
0000
,
0010
0000
0010
0000
,
1000
0000
0000
0000
,
0001
0000
1000
0000
,
0001
0000
0100
0000
,
0010
0000
0010
0000
,
1000
0000
0000
0000
,
0001
0000
0000
0000
,
0100
0000
0010
0000
,
0010
0000
1000
0000
,
0001
0000
0000
0000
,
1000
0000
0001
0000
,
1001
0000
0000
0000
,
0100
0000
0000
0000
,
0010
0000
0000
0000
,
1000
0000
0001
0000
,
0100
0100
0000
0000
,
0100
0100
0000
0000
,
0001
0000
1000
0000
,
0010
0000
0000
0000
,
1000
1000
0000
0000
,
1000
1000
0000
0000
,
0100
0000
0010
0000
,
0001
0000
0000
0000
,
1000
0000
1000
0000
,
0001
0000
0001
0000
,
0100
0000
0100
0000
,
0010
0000
0010
0000
,
1001
0000
0000
0000
,
1000
0000
0001
0000
,
0100
0000
0010
0010
,
0000
0000
1000
1000
,
1000
0000
0001
0000
,
0100
0000
0001
0000
,
1000
0000
0100
0100
,
0000
0000
0010
0010
,
0010
0000
0001
0000
,
1000
0000
0000
0000
,
0001
0000
0000
0000
,
1000
0000
0000
0000
,
0010
0010
0010
0000
,
0100
0100
0100
0000
,
0001
0000
0000
0000
,
1000
0000
0000
0000
,
0100
0100
0100
0000
,
0010
0010
0010
0000
,
1001
0000
0000
0000
,
0000
0000
0000
0000
,
0100
0000
0000
0000
,
0000
0000
0000
0000
,
0001
0000
0001
0000
,
1000
0000
1000
0000
,
0001
0000
0010
0000
,
0100
0000
1000
0000
,
0010
0010
0000
0000
,
1000
0000
0001
0000
,
1000
0000
0100
0000
,
0010
0000
0001
0000
,
0100
0100
0000
0000
,
0001
0000
1000
0000
,
0100
0000
0010
0000
,
0001
0000
1000
0000
,
0010
0010
0010
0000
,
0010
0000
1000
0000
,
0001
0001
0001
0000
,
0001
0000
1000
1000
,
1000
0000
0000
0000
,
0010
0000
0100
0000
,
0001
0000
1000
0000
,
0100
0000
0010
0000
,
0001
0001
0001
0001
,
0001
0000
1000
0000
,
0010
0000
0000
0000
;

//---------------dance-double - ----------------
#NOTES:
     dance-double:
     :
     Challenge:
     8:
     0.554610,0.504584,0.602928,0.191172,0.110292,420.000000,82.000000,26.000000,0.000000,0.000000,0.000000,0.554610,0.504584,0.602928,0.191172,0.110292,420.000000,82.000000,26.000000,0.000000,0.000000,0.000000:
// measure 0
00000000
00000000
00000000
00000000
,  // measure 1
00000000
00000000
00000000
00000000
,  // measure 2
00000000
00000000
00000000
00000000
,  // measure 3
10000000
00010000
00010000
01000000
01000000
00100000
10000000
00010000
,  // measure 4
00200000
00000000
00301000
00000000
00010000
00001000
00100000
00001000
,  // measure 5
00002000
00000000
00013000
00000010
00010000
00001000
00002000
00000000
,  // measure 6
00103000
00000000
00000000
00001000
00000100
00000001
00001000
00000000
,  // measure 7
00001001
00000000
00000000
00000001
00000100
00000001
00001000
00000100
,  // measure 8
00001100
00000000
00000001
00001000
00000020
00000000
00001030
00000001
,  // measure 9
00000020
00000000
00000031
00000100
00002000
00000000
00000000
00003100
,  // measure 10
00000010
00001000
00000000
00000001
00000100
00000010
00001000
00000000
,  // measure 11
00000001
00001000
00001000
00000010
00000010
00000100
00000001
00001000
,  // measure 12
00000200
00000000
00010300
00001000
00001000
00010000
00000100
00010000
,  // measure 13
00010000
00001000
00001000
01000000
00001000
00010000
00020000
00000000
,  // measure 14
00030100
00000000
00000000
00010000
00100000
10000000
00010000
00000000
,  // measure 15
10000000
01000000
00100000
00010000
00110000
00000000
10100000
00000000
,  // measure 16
10020000
01000000
01000000
01030000
,  // measure 17
20010000
01000000
01000000
31000000
,  // measure 18
10000000
00010000
00001000
00000001
,  // measure 19
00001000
00000100
00001000
00000001
00000100
00000001
00001000
00000000
,  // measure 20
00001001
00011000
00001001
00011000
,  // measure 21
00000110
00011000
00000110
00011000
,  // measure 22
00010100
00000000
00000100
00010000
00001000
00000000
00010000
00001000
,  // measure 23
00100000
00010000
00010000
10000000
10000000
00100000
10000000
00010000
,  // measure 24
10010000
00011000
10010000
00011000
,  // measure 25
01100000
00011000
01100000
00011000
,  // measure 26
00101000
00000000
00100000
00001000
00010000
00000000
00001000
00010000
,  // measure 27
00000100
00000000
00001000
00000100
00000010
00000001
00000100
00000010
,  // measure 28
00001010
00010100
01001000
10010000
,  // measure 29
10000000
00010000
01000000
00100000
10000000
10000000
00010000
00010000
,  // measure 30
01010000
00101000
00010010
00001001
,  // measure 31
00000001
00001000
00000010
00000100
00000001
00001000
00000001
00000000
,  // measure 32
00001200
00010000
00010000
00001300
,  // measure 33
02010000
00001000
00001000
03010000
,  // measure 34
00011000
00000000
00000000
00010000
00000000
00000000
00100000
00000000
10000000
00000000
00100000
00000000
10000000
00000000
00000000
00000000
,  // measure 35
00010000
00000000
00000000
00010000
00000000
00000000
10000000
00000000
00100000
00000000
10000000
00000000
00100000
00000000
00000000
00000000
,  // measure 36
10000000
00000000
00000000
10000000
01000000
00000000
00000000
01000000
00010000
00000000
00000000
00010000
00001000
00000000
00000000
00001000
,  // measure 37
00000100
00000000
00000000
00000100
00000001
00000000
00000000
00000001
00001000
00000000
00000000
00001000
00000100
00000000
00010000
00000000
,  // measure 38
00011000
00000000
00000000
00001000
00000000
00000000
00000100
00000000
00000001
00000000
00000100
00000000
00000001
00000000
00000000
00000000
,  // measure 39
00001000
00000000
00000000
00001000
00000000
00000000
00000001
00000000
00000100
00000000
00000001
00000000
00000100
00000000
00000000
00000000
,  // measure 40
00000001
00000000
00000000
00000001
00000010
00000000
00000000
00000010
00001000
00000000
00000000
00001000
00010000
00000000
00000000
00010000
,  // measure 41
00100000
00000000
00000000
00100000
10000000
00000000
00000000
10000000
00010000
00000000
00000000
00010000
00100000
00000000
00001000
00000000
,  // measure 42
01000000
01010000
10010000
10100000
,  // measure 43
00010000
10000000
00010000
10000000
00100000
00100000
01000000
01000000
,  // measure 44
00010000
00000000
00000000
00010000
00100000
00000000
00000000
00100000
00001000
00000000
00000000
00001000
00010000
00000000
00000000
00010000
,  // measure 45
00000010
00000000
00000000
00000010
00001000
00000000
00000000
00001000
00000100
00000000
00000010
00000000
00000001
00000000
00001000
00000000
,  // measure 46
00000010
00001010
00001001
00000101
,  // measure 47
00001000
00000001
00001000
00000001
00000100
00000100
00000010
00000010
,  // measure 48
00001000
00000000
00000000
00001000
00000100
00000000
00000000
00000100
00010000
00000000
00000000
00010000
00001000
00000000
00000000
00001000
,  // measure 49
01000000
00000000
00000000
01000000
00010000
00000000
00000000
00010000
00100000
00000000
01000000
00000000
10000000
00000000
00100000
00000000
,  // measure 50
02000000
00010000
00010000
03010000
,  // measure 51
00002000
00100000
00100000
00103000
,  // measure 52
00020000
00000100
00000100
00000100
,  // measure 53
00000100
00000100
00000100
00030100
,  // measure 54
00002000
00003002
00000203
00000320
,  // measure 55
00002030
00003200
00020300
00032000
,  // measure 56
00103000
00001000
00100000
00001000
01000000
00010000
01000000
01000000
,  // measure 57
00010000
00100000
00010000
10000000
00100000
10000000
00010000
00000000
,  // measure 58
10010000
00011000
10010000
00011000
,  // measure 59
01100000
00011000
01100000
00011000
,  // measure 60
00101000
00000000
00100000
00001000
00010000
00000000
00001000
00010000
,  // measure 61
00000100
00001000
00001000
00000001
00000001
00000100
00000001
00001000
,  // measure 62
00001001
00011000
00001001
00011000
,  // measure 63
00000110
00011000
00000110
00011000
,  // measure 64
00010100
00000000
00000100
00010000
00001000
00000000
00010000
00001000
,  // measure 65
00100000
00000000
00010000
00100000
01000000
10000000
00100000
01000000
,  // measure 66
01010000
00101000
00010010
00001001
,  // measure 67
00000001
00001000
00000010
00000100
00000001
00000001
00001000
00001000
,  // measure 68
00001010
00010100
01001000
10010000
,  // measure 69
10000000
00010000
01000000
00100000
10000000
00010000
10000000
00000000
,  // measure 70
00210000
00001000
00001000
00310000
,  // measure 71
00001020
00010000
00010000
00001030
,  // measure 72
00001001
00011000
10010000
00011000
,  // measure 73
00110000
00001010
00110000
00001010
,  // measure 74
01001000
00010100
01001000
00010100
,  // measure 75
00100000
00001000
00010000
00000100
00001000
00000010
00000100
00000001
,  // measure 76
00002000
00003000
00000000
00000000
;
