#VERSION:0.82;
#TITLE:Spring of Everything;
#SUBTITLE:(Remixed by JAKAZiD);
#ARTIST:Perfume VS Everyone;
#TITLETRANSLIT:;
#SUBTITLETRANSLIT:;
#ARTISTTRANSLIT:;
#GENRE:Thank You for 150;
#ORIGIN:;
#CREDIT:;
#BANNER:Spring of Everything.png;
#BACKGROUND:Spring of Everything-bg.png;
#PREVIEWVID:;
#JACKET:jacket.png;
#CDIMAGE:;
#DISCIMAGE:;
#LYRICSPATH:;
#CDTITLE:cdtitle.png;
#MUSIC:Spring of Everything.ogg;
#OFFSET:0.013000;
#SAMPLESTART:18.186304;
#SAMPLELENGTH:14.419994;
#SELECTABLE:YES;
#BPMS:0.000=132.000;
#STOPS:;
#DELAYS:;
#WARPS:;
#TIMESIGNATURES:0.000=4=4;
#TICKCOUNTS:0.000=4;
#COMBOS:0.000=1;
#SPEEDS:0.000=1.000=0.000=0;
#SCROLLS:0.000=1.000;
#FAKES:;
#LABELS:0.000=Song Start;
#BGCHANGES:3.750=Spring of Everything.avi=1.000=0=0=1=====,
99999=-nosongbg-=1.000=0=0=0 // don't automatically add -songbackground-
;
#KEYSOUNDS:;
#ATTACKS:
;

//---------------dance-single - ----------------
#NOTEDATA:;
#CHARTNAME:;
#STEPSTYPE:dance-single;
#DESCRIPTION:;
#CHARTSTYLE:;
#DIFFICULTY:Hard;
#METER:9;
#RADARVALUES:0.614769,0.617357,0.279327,0.257505,0.168033,863.000000,64.000000,59.000000,0.000000,0.000000,0.000000,0.000000,0.000000,0.614769,0.617357,0.279327,0.257505,0.168033,863.000000,64.000000,59.000000,0.000000,0.000000,0.000000,0.000000,0.000000;
#CREDIT:Ben Speirs;
#NOTES:
0000
0000
0000
0000
,
0000
0000
0000
0000
,
2000
0100
0000
0100
,
3002
0100
0000
0100
,
2003
0010
0000
0010
,
3002
0000
0023
0000
0130
1000
0001
0000
,
1000
0100
1000
0100
0010
0001
0010
0001
,
1000
0010
0100
0001
0010
0100
1000
0001
,
0100
0100
0010
0010
1000
0010
0100
0001
,
2000
0001
0200
3300
,
1100
0000
0110
0000
0011
0000
0001
1000
,
0001
0100
0010
0010
1000
0001
0100
0000
,
0101
0000
0110
0000
1010
0000
1000
0100
,
0010
0001
2000
0000
3002
0000
0103
0010
,
0120
0000
1030
0010
2000
0000
3001
0010
,
0001
1000
0100
1000
0001
0100
0010
0000
,
1000
0000
0000
1000
0010
0000
0100
0000
0001
0000
0000
0000
1001
0000
0000
0000
,
0001
0000
0000
0001
0010
0000
0100
0000
1000
0000
0000
0000
1001
0000
0000
0000
,
1000
0000
0010
0100
0010
0000
1000
0000
0100
0000
0010
0000
0001
1000
0001
0000
,
0000
0000
0100
0010
0100
0000
0001
0000
1000
0000
0100
0010
0100
0000
1000
0000
,
0001
0001
0010
0011
1000
1000
0010
1010
,
0100
0100
0010
1000
0100
0010
0001
1000
,
0002
0000
0000
0000
0203
0000
0000
0000
0310
0000
0010
0000
1000
0000
0000
1000
,
0100
0100
0020
0000
0031
1000
0010
1000
,
0001
0010
0100
1000
0001
0001
0100
0100
,
0020
0000
2030
0000
3001
0010
0001
0100
,
0010
1000
0010
0000
1000
0100
1000
0001
,
0010
0001
0010
0000
0001
0100
0010
1000
,
0001
1000
0001
0000
1000
0100
0010
0001
,
0100
0100
0010
1000
0002
0000
0203
0000
,
0310
0000
1000
0000
0100
0000
1000
0001
1000
0001
1000
0000
0010
0000
1000
0000
,
0100
0000
0010
0001
0010
0000
0100
0000
1000
0000
0001
0100
0001
0100
0001
0000
,
1000
0000
0010
0100
0010
0000
0100
0000
0010
0000
0000
1000
0000
0000
0001
0000
,
0010
0000
0010
0000
0001
0010
0100
2000
0000
0000
0000
0000
3001
0000
0000
0000
,
1100
0000
0101
0100
0110
0010
1010
1000
,
0002
0000
0000
0000
0013
0000
0100
1000
0100
0000
1000
0000
0010
0000
0100
0000
,
0001
0000
1001
1000
1100
0001
1002
0000
,
0103
0000
0010
0000
1000
0000
0001
0000
0010
0000
0001
0000
1000
0001
1000
0000
,
0020
0000
0130
0001
1000
0100
0010
0001
,
1000
0000
0010
0100
0010
0000
1000
0000
0001
0000
0010
0000
0100
0000
0000
0000
,
0020
0000
0031
0200
0000
0310
2000
0000
,
3002
0000
1003
0100
0020
0000
0031
0000
,
1000
0010
1000
0000
0100
0000
0010
0000
0001
0000
0000
0000
0100
0010
0100
0000
,
0001
0000
1000
0010
1000
0000
0001
0000
0010
0000
0000
0000
0001
0000
1000
0000
,
0010
0100
0010
0000
1000
0000
0100
0000
0010
0000
0000
0000
0001
0010
0001
0000
,
1000
0000
0010
1000
0010
0000
0100
0000
0001
0000
0000
0000
1000
0000
0000
0000
,
0001
0010
0001
0000
1000
0000
0010
0000
0100
0000
0000
0000
0010
0000
1000
0000
,
0200
0000
0310
0000
0001
0010
0100
1000
,
0001
1000
0020
0000
0130
0001
2000
0000
,
3200
0000
0320
0000
0031
0010
0100
1000
,
0001
0000
1100
1000
0001
1000
0010
0100
,
0110
0000
0101
0100
0010
1000
0100
0010
,
0110
0000
1100
0100
0010
0001
1000
0010
,
0100
0100
0010
0010
1000
0010
0100
0001
,
1000
1000
1100
0100
0010
0010
0110
0010
,
0001
0001
0011
0001
1000
1000
0010
0100
,
0001
0001
1000
1000
0010
1000
0100
0010
,
0001
0001
1000
1000
0020
0000
0130
0001
,
1000
0000
0010
0100
0020
0000
0000
0000
1030
0000
0001
0010
0001
0000
0100
0000
,
0010
0000
1000
0100
2000
0000
0000
0000
3010
0100
0000
0100
0001
0000
1000
0000
,
0100
0000
0010
0000
0001
0000
1000
0000
0000
0000
0010
0100
0010
0000
1000
0000
,
0001
0000
0010
0100
0010
0000
0001
0000
1000
0000
0010
0000
0100
0000
0001
0000
,
1000
0000
0000
1100
0000
0000
0100
0010
0100
0000
0010
0000
0001
0000
1000
0000
,
0010
0000
0000
1010
0000
0000
0010
0100
0010
0000
0100
0000
0001
0000
1000
0000
,
1100
0000
0000
0110
0000
0000
0012
0000
0000
0000
1003
0000
0001
0000
1000
0000
,
0010
0000
0100
0000
0001
0000
1000
0000
0010
0000
0010
0100
0000
0000
0001
0000
,
2000
0000
3100
1000
0010
0100
0001
0010
,
0100
0010
0001
1000
0010
0100
0001
0000
,
0101
0100
0020
0000
1030
0100
0020
0000
,
0031
0000
1000
0000
0010
0000
1000
0100
0000
0100
0010
0000
0002
0000
0000
0000
,
0103
0010
0100
0001
2001
0000
3010
0000
,
1000
0100
0010
0100
1000
0010
0100
0001
,
0101
0000
0000
0110
0000
0000
2010
0000
0001
0000
0000
0000
3100
0000
0000
0000
,
1100
0000
0000
0110
0000
0000
0012
0000
0100
0000
0000
0000
1003
0000
0000
0000
,
0001
0100
0010
1000
0100
0010
0001
0100
,
1000
0001
0010
1000
0100
0010
0001
1000
,
0010
0001
0010
1000
0100
0010
0001
0100
,
1000
0100
0010
1000
0100
0010
0001
1000
,
0010
0000
0000
1000
0000
0000
0100
0000
0000
0010
0000
0000
0001
0000
0100
0000
,
0001
1000
0100
0010
0001
0100
0010
1000
,
0001
0000
0000
0010
0000
0000
0100
0000
0000
1000
0000
0000
0001
0000
0100
0000
,
0010
1000
0100
1000
0001
0100
0010
0000
,
2010
0100
0010
3100
,
0012
0100
0010
0103
,
2010
0100
0010
3100
,
0012
0100
0010
0103
,
1010
1100
0101
0011
,
0001
0010
0100
1000
0010
0100
0001
0000
,
0101
0110
1010
1100
,
1000
0100
0010
0001
1000
0010
0010
0100
,
0001
0000
1000
0000
0010
0100
0010
0000
1000
0000
0001
0000
0010
0000
0100
1000
,
0100
0010
0001
1000
0010
0100
0100
0001
,
0001
0000
1000
0100
1000
0000
0001
0100
0001
0000
1000
0000
0100
0000
0010
0000
,
0001
1000
0001
0000
1000
0000
0010
0000
0200
0000
0000
0000
0301
0000
0100
0000
,
0010
1000
0010
1000
0100
0010
0001
0000
,
1000
0100
1000
0100
0010
0001
1000
0000
,
1010
0010
0100
0000
1001
0001
0010
0000
,
1000
0100
0000
0000
0100
0010
0000
0000
0010
0002
0000
0000
1003
0000
0000
0000
,
0010
0000
1000
0000
0010
0000
1000
0000
0001
0100
0001
0000
0100
0000
0010
0000
,
1000
0000
0100
0000
0010
0000
0001
0000
1000
0100
1000
0000
0010
0000
0100
0000
,
0001
0000
1000
0000
0100
0000
0010
0000
0001
0100
0001
0000
0010
0000
0001
0000
,
1000
0000
0010
0000
0100
0000
0001
0000
1000
0100
1000
0000
0001
0100
0001
0000
,
2000
0000
0000
0000
3010
0000
0100
0001
0100
0000
0010
0000
1000
0000
0000
0000
,
0001
0010
0010
0001
0001
1000
2010
0000
,
3001
0000
0010
0000
0001
0100
0001
0000
1000
0100
1000
0000
0020
0000
0000
0000
,
1030
0000
0100
0010
0100
0000
0010
0000
0001
0000
1000
0000
0020
0000
0000
0030
,
1000
0100
1000
0000
0010
0000
1000
0100
0000
0000
0010
0000
0001
0000
1000
0000
,
0010
0100
0010
0000
1000
0000
0010
0100
0000
0000
0001
0000
1000
0000
0100
0000
,
0010
0001
0010
0000
0100
0000
0010
0001
0000
0000
1000
0000
0001
0000
0100
0000
,
0010
1000
0010
0000
0100
0000
0010
1000
0000
0000
0001
0000
0010
0000
0001
0100
,
0001
0000
1000
0100
1000
0000
0001
1000
0001
0000
0100
0000
0010
0000
1000
0000
,
0100
0100
1200
0000
0320
0000
0031
0010
,
0100
0000
1000
0000
0002
0000
0000
0000
0100
0000
0000
0000
1000
0003
0000
0000
,
1000
0100
0010
0001
0100
0010
1000
0000
,
0101
0100
0010
1000
0100
0010
0001
1000
,
0010
1000
0100
0010
0001
0100
0020
0000
,
1030
0000
0001
0100
0001
0000
1000
0000
0100
0000
0010
0000
0001
0000
1000
0000
,
0010
0000
0000
0010
0100
0000
0001
0000
1000
0000
1000
0000
0100
0000
0000
0000
,
1100
0100
0010
0001
0101
0100
0010
1000
,
1010
1000
0100
0010
0011
0001
1000
0010
,
0100
0101
0010
1000
0100
1100
0010
0001
,
1000
1000
0001
0001
0100
0010
0110
0100
,
2002
0000
0000
0000
,
3003
0000
0000
0000
;

//---------------dance-double - ----------------
#NOTEDATA:;
#CHARTNAME:;
#STEPSTYPE:dance-double;
#DESCRIPTION:;
#CHARTSTYLE:;
#DIFFICULTY:Challenge;
#METER:9;
#RADARVALUES:0.601052,0.617357,0.222589,0.336066,0.122206,836.000000,51.000000,77.000000,0.000000,0.000000,0.000000,0.000000,0.000000,0.601052,0.617357,0.222589,0.336066,0.122206,836.000000,51.000000,77.000000,0.000000,0.000000,0.000000,0.000000,0.000000;
#CREDIT:Ben Speirs;
#NOTES:
00000000
00000000
00000000
00000000
,
00000000
00000000
00000000
00000000
,
20000000
00100000
00000000
30100000
,
00020000
00100000
00000000
00130000
,
20000000
01000000
00000000
31000000
,
20000000
32000000
03200000
00320000
,
10030000
01000000
10000000
01000000
00100000
00010000
00100000
00010000
,
01000000
00001000
01000000
00001000
00100000
00010000
00100000
00010000
,
00100000
00001000
00010000
00000100
00001000
00000010
00000100
00000100
,
00000002
00001000
00000200
00000303
,
00000101
00000100
00000010
00000000
00001010
00000000
00000001
00001000
,
00000001
00001000
00000100
00000100
00000010
00000001
00001000
00000000
,
00001100
00000000
00010100
00000000
00011000
00000000
00001000
00010000
,
00100000
10000000
02000000
00000000
03100000
00000000
01100000
00000000
,
20010000
00000000
30100000
10000000
00020000
00000000
00130000
00010000
,
10000000
01000000
10000000
00100000
01000000
00010000
10000000
00000000
,
00100000
00000000
00000000
00100000
00000000
00000000
10000000
00000000
01000000
00000000
00000000
00000000
10010000
00000000
00000000
00000000
,
01000000
00000000
00000000
01000000
00000000
00000000
00010000
00000000
00100000
00000000
00000000
00000000
10010000
00000000
00000000
00000000
,
10000000
00000000
00100000
01000000
00100000
00000000
01000000
00000000
00010000
00000000
00100000
00000000
00001000
00100000
00001000
00000000
,
00000000
00000000
00010000
00001000
00010000
00000000
00000100
00000000
00010000
00000000
00000010
00001000
00000010
00000000
00001000
00000000
,
00000001
00000001
00000100
00000100
00000010
00000010
00001000
00001000
,
00000100
00000100
00000010
00000010
00000001
00000010
00000100
00001000
,
00000020
00000000
00000000
00000000
00002030
00000000
00000000
00000000
00003002
00000000
00000000
00000000
00002003
00000000
00000000
00003010
,
00000100
00000100
00000200
00000000
00000301
00000100
00000010
00001000
,
00000100
00000100
00010000
00010000
00000100
00010000
00001000
00100000
,
00020000
00000000
01030000
00000000
00100000
10000000
01000000
00100000
,
00110000
10000000
00010000
00000000
10000000
00100000
01000000
00010000
,
01010000
10000000
00100000
00000000
10000000
01000000
00100000
00010000
,
01000000
00010000
00100000
00001000
00010000
00000100
00010000
00000010
,
00001000
00000100
00000010
00000001
00000200
00000000
00000320
00000000
,
00001030
00000000
00000001
00000000
00000100
00000000
00000010
00001000
00000010
00001000
00000010
00000000
00001000
00000000
00000100
00000000
,
00000010
00000000
00000001
00001000
00000001
00000000
00001000
00000000
00000010
00000000
00000100
00000001
00000100
00000001
00000100
00000000
,
00000010
00000000
00001000
00000100
00001000
00000000
00000010
00000000
00000100
00000000
00000000
00000001
00000000
00000000
00001000
00000000
,
00000100
00000000
00000100
00000000
00010000
00000000
00001000
00020000
00000000
00000000
00000000
00000000
00031000
00000000
00000000
00000000
,
00010100
00000000
00001000
00010000
00001000
00100000
00001000
00010000
,
00012000
00000000
00103000
00010000
01000000
00100000
10000000
01000000
,
00200000
00000000
00310000
01000000
10000000
01000000
00020000
00000000
,
10030000
01000000
11000000
00000000
01010000
00000000
00011000
00000000
,
00001200
00000000
00000310
00000001
00000100
00000010
00001000
00000100
,
00000010
00000001
00001000
00000010
00001000
00000001
00000010
00000000
,
00000002
00000000
00000103
00002000
00000000
00013000
02000000
00000000
,
23000000
00000000
30010000
01000000
00200000
00000000
10300000
00000000
,
00010000
01000000
00010000
00000000
01000000
00000000
00100000
00000000
10000000
00000000
00000000
00000000
00010000
00100000
00010000
00000000
,
10000000
00000000
00100000
01000000
00100000
00000000
10000000
00000000
01000000
00000000
00000000
00000000
00100000
00000000
00010000
00000000
,
10000000
00100000
10000000
00000000
01000000
00000000
10000000
00000000
00010000
00000000
00000000
00000000
00100000
00010000
00100000
00000000
,
00010000
00000000
01000000
00010000
01000000
00000000
00010000
00000000
00100000
00000000
00000000
00000000
00101000
00000000
00000000
00000000
,
00010000
00000100
00010000
00000000
00000100
00000000
00001000
00000000
00000010
00000000
00000000
00000000
00000100
00000000
00000010
00000000
,
00000200
00000000
00000301
00000000
00000100
00000010
00000100
00000001
,
00000010
00000010
00000200
00000000
00001300
00000010
00002000
00000000
,
00003001
00000010
00000100
00001000
00000010
00000100
00000001
00000000
,
00001001
00000000
00001100
00000100
00000010
00000001
00001000
00000010
,
00001010
00000000
00000101
00000100
00000010
00001000
00000100
00010000
,
00010100
00000000
00011000
00001000
00010000
00001000
00100000
00010000
,
01000000
01000000
00100000
00100000
10000000
00100000
01000000
00010000
,
10000000
10000000
01000000
01000000
00100000
00100000
00010000
00010000
,
01000000
01000000
00100000
00100000
00010000
00010000
00001000
00001000
,
00000010
00000001
00000010
00000001
00001000
00000010
00001000
00000010
,
00000100
00000001
00000010
00000100
00001000
00000000
00000101
00000100
,
00000020
00000000
00000000
00000000
00002030
00000000
00000000
00000000
00003001
00000000
00000010
00000100
00000010
00000000
00000001
00000000
,
00002000
00000000
00000000
00000000
00003020
00000000
00000000
00000000
00000130
00000001
00000000
00000001
00000100
00000000
00000010
00000000
,
00001000
00000100
00010000
00002000
00000000
00100000
00100000
00103000
,
00001000
00100000
00010000
01000000
00100000
10000000
01000000
00100000
,
01100000
00000000
00000000
01100000
00000000
00000000
00010000
00000000
00100000
00000000
01000000
00000000
10000000
00000000
00100000
00000000
,
10100000
00000000
00000000
10100000
00000000
00000000
10000000
00000000
01000000
00000000
00100000
00000000
00010000
00000000
01000000
00000000
,
01010000
00000000
00000000
00011000
00000000
00000000
00001200
00000000
00000000
00000000
00000310
00000000
00000001
00000000
00000100
00000000
,
00000010
00000000
00001000
00000000
00000100
00000000
00000010
00000000
00000001
00001000
00000001
00000000
00001000
00000000
00000010
00000000
,
00000100
00000001
00000100
00000010
00001000
00000100
00000010
00000001
,
00002000
00000100
00003001
00001001
,
00000001
00000100
00002000
00000000
00013000
01000000
20000000
00000000
,
30010000
00000000
01000000
00000000
00100000
00000000
10000000
01000000
00000000
01000000
00100000
00000000
00010000
00000000
00000000
00000000
,
01000000
00010000
01000000
00100000
20000000
00000000
30010000
00000000
,
10000000
01000000
10000000
00010000
00200000
00000000
00310000
00000000
,
00110000
00000000
00000000
00101000
00000000
00000000
00010200
00000000
00000000
00000000
00000000
00000000
00001300
00000000
00000000
00000000
,
00001010
00000000
00000000
00001001
00000000
00000000
00000102
00000000
00000000
00000000
00000000
00000000
00000103
00000000
00000000
00000000
,
00000010
00001000
00000010
00001000
00000100
00000010
00000001
00000100
,
00001000
00000100
00000001
00000010
00001000
00010000
00100000
10000000
,
01000000
00100000
01000000
10000000
00010000
01000000
10000000
01000000
,
00010000
00100000
01000000
10000000
00100000
00010000
00001000
00000010
,
00000001
00000000
00000000
00000100
00000000
00000000
00001000
00000000
00000000
00010000
00000000
00000000
01000000
00000000
10000000
00000000
,
01000000
00100000
00010000
01000000
00100000
10000000
00100000
00100000
,
10000000
00000000
00000000
00100000
00000000
00000000
00010000
00000000
00000000
00001000
00000000
00000000
00000010
00000000
00000001
00000000
,
00000010
00000100
00001000
00000010
00000100
00000001
00000100
00000100
,
00000020
00001000
00002030
00000100
,
00003200
00010000
00020300
00001000
,
00032000
00100000
00203000
00010000
,
00320000
01000000
02030000
03100000
,
00100000
01000000
00100000
01000000
00010000
10000000
00010000
10000000
,
01000000
00100000
01000000
00100000
00010000
10000000
00010000
10000000
,
00100000
00100000
01000000
01000000
00010000
00010000
00100000
00100000
,
00010000
00100000
00001000
00010000
00000100
00001000
00000010
00000100
,
00000101
00000000
00000100
00000000
00000010
00001000
00000010
00000000
00000100
00000000
00000001
00000000
00000010
00000000
00000100
00001000
,
00000100
00000010
00000002
00000000
00001003
00000100
00000100
00000010
,
00000001
00000000
00001000
00000100
00001000
00000000
00000010
00000000
00000100
00000000
00000001
00000000
00001000
00000000
00000100
00000000
,
00010000
00010000
00002000
00000000
00103000
00001000
00010000
00100000
,
10000000
10000000
00100000
00100000
20100000
00000000
30010000
00000000
,
00100000
00100000
00010000
00010000
00120000
00000000
10030000
00000000
,
00010000
10000000
10020000
00000000
10030000
00010000
10020000
00000000
,
01030000
00100000
10000000
01000000
00100000
00010000
01000000
00010000
,
00200000
00000000
00000000
00000000
00301000
00000000
00010000
00000000
00000100
00010000
00000100
00000000
00001000
00000000
00000010
00000000
,
00000100
00000000
00000001
00000000
00001000
00000000
00000100
00000000
00000010
00000001
00000010
00000000
00000100
00000000
00001000
00000000
,
00000010
00000100
00000001
00001000
00000010
00000010
00000100
00000100
,
00000001
00000010
00000100
00001000
00000001
00000001
00000100
00000100
,
00002000
00000000
00000000
00000000
00003100
00000000
00000001
00000100
00000001
00000000
00000100
00000000
00000020
00000000
00000000
00000000
,
00001030
00000100
00010000
00001000
00100000
00010000
02000000
00000000
,
03100000
10000000
01000000
01000000
00100000
00100000
00020000
00000000
,
10030000
01000000
00010000
01000000
10000000
00100000
02000000
00000000
,
03010000
10000000
00010000
00000000
10000000
00000000
00100000
01000000
00100000
00000000
10000000
00000000
01000000
00000000
00100000
00000000
,
00010000
10000000
00010000
00000000
01000000
00000000
00100000
10000000
00100000
00000000
10000000
00000000
01000000
00000000
00100000
00000000
,
00010000
00100000
00010000
00000000
00100000
00000000
00001000
00010000
00001000
00000000
00010000
00000000
00000100
00000000
00001000
00000000
,
00000010
00001000
00000010
00000000
00001000
00000000
00000100
00000000
00000010
00000000
00000001
00000000
00000100
00000000
00000010
00000100
,
00000010
00000000
00001000
00000010
00001000
00000000
00000001
00000010
00000001
00000000
00000100
00000000
00000010
00000000
00001000
00000000
,
00000100
00000100
00020000
00000000
00032000
00000000
00103000
00010000
,
01000000
00100000
20000000
00000000
01000000
00000000
00010000
00000000
,
30002000
00023000
00030002
00002003
,
00003010
00000100
00000010
00001000
00000100
00000010
00000001
00000100
,
00001000
00000100
00000001
00000010
00000100
00001000
00000002
00000000
,
00001003
00000000
00000100
00001000
00000100
00000000
00000010
00000000
00000001
00000000
00000100
00000000
00000010
00000000
00001000
00000000
,
00000100
00000000
00000000
00000100
00010000
00000000
00010000
00000000
00002000
00000000
00000000
00000000
00103000
00000000
00000000
00000000
,
00011000
00011000
00001000
00100000
00010000
00010000
01000000
00100000
,
10100000
10100000
10000000
01000000
00100000
00100000
00010000
01000000
,
01010000
01010000
00010000
00100000
00001000
00001000
00010000
00010000
,
00000100
00000000
00000100
00000000
00001000
00000001
00001000
00000000
00000000
00000000
00000000
00000000
00000000
00000000
00000000
00000000
,
00022000
00000000
00000000
00000000
,
00033000
00000000
00000000
00000000
;

//---------------dance-single - ----------------
#NOTEDATA:;
#CHARTNAME:;
#STEPSTYPE:dance-single;
#DESCRIPTION:;
#CHARTSTYLE:;
#DIFFICULTY:Medium;
#METER:6;
#RADARVALUES:0.414626,0.456307,0.248776,0.349159,0.000000,528.000000,57.000000,80.000000,0.000000,0.000000,0.000000,0.000000,0.000000,0.414626,0.456307,0.248776,0.349159,0.000000,528.000000,57.000000,80.000000,0.000000,0.000000,0.000000,0.000000,0.000000;
#CREDIT:Ben Speirs;
#NOTES:
0000
0000
0000
0000
,
0000
0000
0000
0000
,
0002
0100
0000
0100
,
0000
0100
0000
0103
,
2000
0100
0000
0100
,
0000
0100
0000
3100
,
1001
1000
0100
0100
,
0010
0010
0001
0001
,
0100
0010
1000
0001
,
0100
0000
0000
0000
,
0001
0001
0100
0100
,
0001
0000
0010
0000
0001
1000
0001
0000
,
1000
1000
0100
0100
,
1000
0000
0010
1000
0010
0000
0100
0000
,
0110
0100
0101
0001
,
1001
1100
1002
0003
,
1000
0100
1000
0000
0002
0000
0003
0000
,
1000
0100
1000
0000
0002
0000
0003
0000
,
1001
0000
1000
0000
0010
0100
0010
0000
,
1000
0000
0001
0000
0010
0100
0010
0000
,
0001
0001
0000
0000
1000
1000
0000
0000
,
0010
0010
0000
0000
0100
0100
0000
0000
,
0101
0010
2000
3200
,
0310
0001
0010
0000
0001
1000
0001
0000
,
0200
0000
0320
0000
1030
0100
1000
0000
,
0002
0203
0310
0000
,
1001
1001
0010
1000
,
0101
0000
0101
0000
1000
0001
1000
0000
,
1100
1100
0001
0010
,
1001
1001
0020
0230
,
0301
0000
1000
0000
0010
1000
0010
0000
,
1000
0000
0001
0000
1000
0100
0010
0000
,
2002
0000
3003
0000
0010
1000
0010
0000
,
1000
0100
1000
0100
0010
0000
0001
0000
,
1001
0000
1000
0000
0010
0100
0010
0000
,
2000
0000
3000
0001
0002
0000
0003
0000
,
0100
0000
0010
0000
1000
0100
1000
0000
,
0001
0010
0001
0000
0200
0000
0300
0000
,
1001
0000
1000
0000
0010
0100
0010
0000
,
1000
0100
0010
0000
,
0002
0000
0003
2000
0000
3000
0010
0000
,
0200
0000
0300
0002
0000
0000
1003
0000
,
1001
1000
0100
0000
,
1001
0001
0100
0000
,
1001
1000
0010
0010
,
0100
0001
0100
0000
0010
0000
0000
0000
,
1000
0010
1000
0001
1000
0000
0100
0000
,
0020
0000
0030
0000
0001
1000
0001
0000
,
0010
0010
0001
1000
,
0010
0100
0010
0100
0001
0100
0001
0000
,
0201
0000
0310
0000
1000
0000
0100
1000
,
0200
0000
0310
0000
0001
0000
1000
0010
,
2000
0000
3100
0000
0010
0000
0001
0100
,
0002
0000
1003
0000
0010
0010
0010
0000
,
1100
0101
0020
0030
,
1010
0011
2000
3000
,
0001
1000
0010
0010
,
0100
0001
0100
0001
1000
0000
0000
0000
,
1100
0102
1003
0001
,
1100
0102
1003
0001
,
1000
0100
0010
0001
0000
0100
0010
0100
,
0000
0010
0100
0010
0100
0000
0010
0000
,
0110
1001
1000
0100
,
0110
1001
0001
0100
,
0010
1000
0010
0000
1000
0100
1000
0000
,
0001
0100
0001
0100
0010
1000
0010
0000
,
2001
0000
3100
0000
1000
0000
0001
0100
,
0002
0003
1000
0001
,
0100
0010
0100
0000
0010
0100
0010
0000
,
1000
0000
0001
0000
0010
0001
1000
0000
,
1100
1100
0002
0003
,
0101
0101
2000
3000
,
0001
0010
0100
1000
0001
0000
0000
0000
,
1000
0100
0010
0001
1000
0000
0000
0000
,
0020
0000
1030
0000
0001
0010
0001
0000
,
1000
0000
0010
0100
0010
0000
1000
0000
,
0002
0000
0013
0000
0100
1000
0100
0000
,
1000
0000
0001
0100
0002
0000
0003
0000
,
1000
0100
1000
0001
1000
0100
1000
0000
,
0010
1000
0001
1000
,
0001
0100
0001
0010
0001
1000
0001
0000
,
0010
0001
2000
3000
,
0020
0000
0230
0000
,
0302
0000
2003
0000
,
3200
0000
0320
0000
,
0032
0000
0203
0000
,
0320
1000
2030
0100
,
3200
0010
0320
0001
,
0032
0100
0203
0320
,
2030
3002
1003
1001
,
1100
0000
0001
0100
0001
0000
1000
0100
,
2000
0000
3000
0000
0001
0010
0100
1000
,
0002
0000
0103
0000
0010
1000
0010
0000
,
1000
0001
1000
0000
0001
0000
0000
0000
,
1000
0100
1000
0100
0020
0000
0030
0000
,
0001
0100
0001
0100
0020
0000
0030
0000
,
1000
1000
0100
0000
0001
0001
0100
0000
,
1001
1001
2002
3003
,
0020
0000
1030
0000
0100
0010
0100
0000
,
0020
0000
0031
0000
1000
0100
1000
0000
,
0002
0000
0003
0000
1000
0100
1000
0100
,
0020
0000
0030
0000
0001
0100
0001
0100
,
0010
0000
1001
0000
1000
0100
0010
0000
,
0000
0001
1000
0001
1000
0000
1100
0000
,
0011
0000
1000
0100
0010
0001
1000
0000
,
0000
0001
0100
0001
1000
0000
1001
0000
,
0001
0100
0010
1000
0001
0000
0000
0000
,
1000
0100
0010
0001
1000
0000
0000
0000
,
0010
0100
0010
1000
0001
0000
0000
0000
,
0010
0100
0010
0001
1000
0000
0010
0000
,
2000
3200
0320
0031
,
1000
1000
0020
0000
0230
0000
0301
2000
,
0000
0200
0000
0000
0000
0000
3300
0000
,
1100
0110
0011
1001
,
0001
0100
0001
0100
0020
0000
0030
0000
,
1000
0000
0001
0000
1000
0100
2000
0000
,
3002
0013
0001
1000
,
1010
1001
0022
0033
,
0001
0001
0100
0000
0010
0010
1000
0000
,
0001
0001
0010
0000
0100
0100
1000
0000
,
0001
0001
0010
0100
1000
1000
0010
0100
,
0001
0001
1000
1000
0000
0000
0000
0000
,
2002
0000
0000
0000
,
3003
0000
0000
0000
;

//---------------dance-single - ----------------
#NOTEDATA:;
#CHARTNAME:;
#STEPSTYPE:dance-single;
#DESCRIPTION:;
#CHARTSTYLE:;
#DIFFICULTY:Easy;
#METER:4;
#RADARVALUES:0.221342,0.322099,0.069832,0.144028,0.000000,306.000000,16.000000,33.000000,0.000000,0.000000,0.000000,0.000000,0.000000,0.221342,0.322099,0.069832,0.144028,0.000000,306.000000,16.000000,33.000000,0.000000,0.000000,0.000000,0.000000,0.000000;
#CREDIT:Ben Speirs;
#NOTES:
0000
0000
0000
0000
,
0000
0000
0000
0000
,
0000
1000
0000
1000
,
0000
0001
0000
0001
,
0000
0100
0000
0100
,
0000
0010
0000
0010
,
0010
0000
1000
0000
,
0100
0000
0010
0000
,
0001
0001
1000
1000
,
0010
0000
0000
0000
,
1000
0100
1000
0000
,
0010
0000
1000
0000
,
0001
0100
0001
0000
,
0010
0000
0100
0000
,
1001
0000
1001
0000
,
1000
0100
0010
0000
,
0001
0100
0001
0000
,
1000
0100
1000
0000
,
0000
0001
1000
0001
,
0000
1000
0001
1000
,
0020
0030
0020
0030
,
0200
0300
0200
0300
,
0001
0000
1000
0001
,
0100
0100
0010
0000
,
1000
0000
0001
1000
,
0010
0010
0100
0000
,
1001
1001
0000
0000
,
1001
1001
0000
0000
,
1000
1000
0100
0010
,
0001
0001
1000
0000
,
0001
0000
0100
0000
,
0010
0000
1000
0000
,
0100
1000
0001
0001
,
1000
0010
0100
0000
,
1001
0000
1000
0000
,
0020
0030
0020
0030
,
1000
0000
0100
0100
,
0010
0010
0020
0030
,
0001
0000
1000
0000
,
0010
1000
0001
0000
,
0010
0000
0010
0001
,
1000
0000
0001
0000
,
1000
0100
1000
0000
,
0001
0100
0001
0000
,
1000
0100
0010
0000
,
0001
0100
0010
0000
,
1000
0010
1000
0000
,
0002
0003
2000
3000
,
0010
0010
0100
0000
,
0001
0001
1000
0000
,
1001
0000
1000
1000
,
0100
0000
0010
0010
,
0001
0000
1000
1000
,
0010
0010
0100
0000
,
0001
0001
1000
1000
,
0100
0010
0001
0000
,
0100
0000
0100
0000
,
0010
1000
0001
0000
,
1000
1000
0000
0010
,
0100
0100
0000
0001
,
0010
0010
0000
0001
,
0000
1000
0010
0000
,
1000
0100
0000
1000
,
0001
0010
0000
0001
,
1000
0010
0000
1000
,
0001
0100
0000
0000
,
1001
0000
1000
0000
,
0020
0000
0030
0000
,
1000
0100
0010
0001
,
1000
0000
0001
0000
,
0100
0100
0010
0000
,
0010
0010
1000
0000
,
2002
3003
0010
0000
,
2002
3003
0010
0000
,
1000
0100
1000
0000
,
0001
0100
0001
0000
,
1000
0010
1000
0000
,
0001
0010
0001
0000
,
1000
0000
0001
0000
,
0100
0000
0000
0000
,
0010
0010
1000
0100
,
0010
0010
0001
0000
,
2002
0000
0000
3003
,
0020
0000
0000
0030
,
0200
0000
0000
0300
,
0002
0000
0000
0003
,
0000
1000
0000
1000
,
0000
0001
0000
0001
,
0000
0100
0000
0100
,
0000
0010
0010
0000
,
1001
0000
1000
0000
,
0010
0010
0000
0000
,
1000
0000
0001
0000
,
0100
0100
0000
0000
,
0010
1000
0010
0000
,
0100
0001
0100
0000
,
0002
0003
2000
3000
,
0100
0100
0200
0300
,
1001
0000
1000
0100
,
0000
0000
0010
0001
,
0000
0000
0100
0010
,
0000
0000
1000
0010
,
0200
0300
0001
0001
,
0000
1000
0100
0010
,
0010
0000
0001
0000
,
0100
0010
0010
0000
,
1000
0100
1000
0000
,
0001
0010
0001
0000
,
1000
0010
1000
0000
,
0001
0100
0001
0000
,
2000
3000
0002
0003
,
0100
0100
0010
0000
,
1000
0000
0001
0000
,
0100
0100
0010
0010
,
2002
3003
0000
0000
,
1000
0000
0001
0010
,
0010
0000
0001
0000
,
1000
0001
0100
0000
,
0020
0030
2000
3000
,
0002
0003
0020
0030
,
0001
0100
0010
1000
,
0001
1000
0000
0000
,
2002
0000
0000
0000
,
3003
0000
0000
0000
;

//---------------dance-single - ----------------
#NOTEDATA:;
#CHARTNAME:;
#STEPSTYPE:dance-single;
#DESCRIPTION:;
#CHARTSTYLE:;
#DIFFICULTY:Beginner;
#METER:2;
#RADARVALUES:0.128441,0.159740,0.039280,0.000000,0.000000,197.000000,9.000000,0.000000,0.000000,0.000000,0.000000,0.000000,0.000000,0.128441,0.159740,0.039280,0.000000,0.000000,197.000000,9.000000,0.000000,0.000000,0.000000,0.000000,0.000000,0.000000;
#CREDIT:Ben Speirs;
#NOTES:
0000
0000
0000
0000
,
0000
0000
0000
0000
,
1000
0000
0000
0000
,
0001
0000
0000
0000
,
0100
0000
0000
0000
,
0010
0000
0000
0000
,
1001
0000
1000
0000
,
0001
0000
0001
0000
,
0100
0000
0100
0000
,
0010
0000
0000
0000
,
1000
0000
0000
0000
,
0001
0000
0100
0000
,
0010
0000
0000
0000
,
0100
0100
0100
0000
,
0001
0000
0000
0000
,
1000
0000
0100
0000
,
0010
0000
0000
0001
,
0001
0000
0000
1000
,
1000
0000
0001
0000
,
0100
0000
0100
0000
,
0010
0010
0000
0000
,
0010
0010
0000
0000
,
1000
0000
0001
0000
,
0100
0100
0000
0000
,
0001
0000
1000
0000
,
0010
0010
0000
0000
,
1000
1000
0000
0000
,
0001
0001
0000
0000
,
0100
0100
0000
0000
,
0001
0001
0000
0000
,
1000
0000
0000
0000
,
0010
0000
0000
0000
,
1000
0000
0000
0000
,
0001
0001
0001
0000
,
1000
0000
0000
0000
,
0010
0000
0010
0000
,
0100
0000
0000
0000
,
0001
0001
0001
0000
,
1000
0000
0000
0000
,
0010
0000
0000
0000
,
1000
0000
1000
0000
,
0001
0000
0001
0000
,
0100
0000
0000
0010
,
0010
0000
0000
1000
,
1000
0000
0000
0001
,
0001
0000
0000
0000
,
1001
0000
0000
0000
,
1000
0000
0010
0000
,
0010
0000
0000
0000
,
1000
0000
0000
0000
,
0001
0000
0001
0000
,
1000
0000
1000
0000
,
0010
0000
0010
0000
,
0100
0000
0100
0000
,
0001
0001
0000
0000
,
1000
1000
0000
0000
,
0001
0000
0000
0000
,
1000
0000
0000
0000
,
0010
0010
0000
0000
,
0010
0010
0000
0000
,
0100
0100
0000
0000
,
0100
0100
0000
0000
,
0001
0000
0000
0000
,
1000
0000
0000
0000
,
0010
0000
0010
0000
,
0010
0010
0000
0000
,
1000
0000
0000
0000
,
0001
0000
0000
0000
,
0100
0000
0100
0000
,
0100
0000
0010
0010
,
0010
0000
0000
1000
,
1000
0000
0000
0000
,
0001
0001
0000
0000
,
1000
1000
0000
0000
,
1001
0000
0000
0000
,
0010
0000
0010
0000
,
1000
0000
0000
0000
,
0001
0000
0001
0000
,
0100
0000
0000
0000
,
0010
0000
1000
0000
,
1000
0000
0000
0000
,
0001
0000
0000
0000
,
1001
0000
0000
0000
,
0010
0000
0000
0000
,
1000
0000
0000
0000
,
0001
0000
0000
0000
,
0100
0000
0000
0000
,
0001
0000
0000
0000
,
1000
0000
0000
0000
,
0010
0000
0010
0000
,
0110
0000
0000
0000
,
0100
0100
0000
0000
,
1001
0000
0000
0000
,
1000
1000
0000
0000
,
0010
0010
0010
0000
,
1000
0000
0000
0000
,
0001
0001
0001
0000
,
0100
0000
0000
0000
,
1001
0000
0000
0000
,
1000
0000
0000
0000
,
0010
0000
0010
0000
,
0100
0000
0100
0000
,
0001
0000
1000
1000
,
0000
0000
0000
0001
,
0001
0000
0000
0000
,
0100
0000
0100
0000
,
0010
0000
0000
1000
,
1000
0000
0000
0001
,
0001
0000
0000
1000
,
1000
0000
0000
0000
,
0010
0000
0010
0000
,
0100
0000
0100
0000
,
0001
0000
0000
0000
,
1000
1000
1000
0000
,
1001
0000
0000
0000
,
0001
0000
0000
0000
,
1000
0000
0000
0000
,
0010
0010
0010
0000
,
0100
0000
0000
0000
,
0001
0000
0000
0000
,
1000
0000
1000
0000
,
0001
0000
0001
0000
,
1001
0000
0000
0000
;

//---------------dance-single - ----------------
#NOTEDATA:;
#CHARTNAME:;
#STEPSTYPE:dance-single;
#DESCRIPTION:;
#CHARTSTYLE:;
#DIFFICULTY:Challenge;
#METER:10;
#RADARVALUES:0.747574,0.939456,0.178944,0.187673,0.576112,1115.000000,41.000000,43.000000,0.000000,0.000000,0.000000,0.000000,0.000000,0.747574,0.939456,0.178944,0.187673,0.576112,1115.000000,41.000000,43.000000,0.000000,0.000000,0.000000,0.000000,0.000000;
#CREDIT:Ben Speirs;
#NOTES:
// measure 0
0000
0000
0000
0000
,  // measure 1
0000
0000
0000
0000
,  // measure 2
1100
0000
0110
0000
0011
0000
0001
0100
,  // measure 3
0001
0010
0100
1000
0001
0000
1000
0100
,  // measure 4
2100
0000
3001
0100
0102
0000
1003
0000
,  // measure 5
1100
0110
0011
1001
,  // measure 6
0001
0100
0010
0100
1000
0100
0010
0100
,  // measure 7
0001
0010
0100
0010
1000
0010
0100
0010
,  // measure 8
0001
0000
1000
0000
0010
0000
0100
0000
0001
0000
1000
0000
0001
0010
0100
2000
,  // measure 9
0000
0001
0002
3003
,  // measure 10
1000
0100
1000
0000
0010
0000
0100
0000
0001
0000
1000
0000
0010
0000
0100
0000
,  // measure 11
0100
0000
0001
0000
0010
0000
0100
0000
1000
0100
1000
0100
0020
0000
0000
0000
,  // measure 12
0031
0000
1000
0000
0010
0000
1000
0000
0001
0000
1000
0000
0010
0100
0010
0000
,  // measure 13
0100
0001
0010
0100
1000
0000
1100
0100
,  // measure 14
0120
0000
0031
0100
0010
1000
0100
0010
,  // measure 15
0001
1000
0001
0000
1000
0000
0010
0000
0100
0000
0100
0000
0001
0000
0000
0000
,  // measure 16
1000
0000
0010
1000
0001
0000
0010
0001
1000
0000
0000
0000
1001
0000
0000
0000
,  // measure 17
1000
0000
0100
1000
0001
0000
0100
0001
1000
0000
0000
0000
1001
0000
0000
0000
,  // measure 18
1000
0000
0001
0100
0010
0000
1000
0000
0001
0000
0010
0100
0010
0100
0010
0000
,  // measure 19
0001
0000
1000
0100
0010
0000
0001
0000
1000
0000
0010
0100
0010
0100
0010
0000
,  // measure 20
1000
0100
1000
0000
0001
0100
0001
0000
1000
0100
1000
0000
0001
0100
0001
0000
,  // measure 21
1000
0010
1000
0000
0001
0010
0001
0000
1000
0010
1000
0000
0001
0010
0001
0000
,  // measure 22
1000
0000
0010
0000
0100
0000
0001
0000
1000
0000
0100
0000
0010
0000
0001
1000
,  // measure 23
0010
0010
0020
0000
0130
0001
0100
0010
,  // measure 24
1000
1000
0001
0001
0010
0001
1000
0100
,  // measure 25
2100
0000
0000
0000
3002
0000
0000
0000
0103
0010
0100
0000
0001
0000
1000
0000
,  // measure 26
0001
0100
0010
1000
0100
0000
0010
0000
0001
0000
1000
0000
0010
0000
0100
0000
,  // measure 27
0001
0010
0100
1000
0001
0000
0100
0000
0010
0000
1000
0000
0100
0000
0010
0000
,  // measure 28
0001
0010
0100
1000
0001
0000
0100
0000
0010
0000
1000
0000
0001
0000
0010
0000
,  // measure 29
0001
0100
0010
1000
0100
0010
0001
1000
0020
0000
0000
0000
0230
0000
0000
0000
,  // measure 30
0301
0000
1000
0000
1000
0000
0001
0010
0100
1000
0001
0000
0100
0000
0010
0000
,  // measure 31
0010
0000
1000
0100
0010
0000
0001
0000
1000
0000
0010
0100
0010
0100
0010
0000
,  // measure 32
1001
0000
0100
0010
0100
0000
0010
0000
1000
0100
0010
0001
0000
1000
0100
1000
,  // measure 33
0001
0000
0100
0000
0010
1000
0010
1000
0001
0000
0010
0001
0010
0000
0001
1000
,  // measure 34
0002
0000
0000
0000
1003
0100
1000
0100
0010
0100
0010
0100
0010
0001
0010
0001
,  // measure 35
2000
0000
3010
1000
0100
0010
0001
1000
,  // measure 36
0010
0000
0100
0000
0001
0100
0001
0100
0010
0100
0010
0100
0020
0000
0000
0000
,  // measure 37
1030
0001
1000
0000
0100
0000
0010
0000
0001
0000
1000
0000
0010
0000
1000
0000
,  // measure 38
0002
0000
0103
1000
0100
0010
0100
0001
,  // measure 39
0010
1000
0010
0100
0010
0001
2000
0000
,  // measure 40
3010
0100
0010
0000
1000
0000
0001
0010
0001
0000
0100
0000
0001
1000
0001
0000
,  // measure 41
1000
0100
1000
0000
0001
0000
0010
0001
0010
0000
0001
0000
1001
0000
0000
0000
,  // measure 42
1000
0100
0010
0100
0010
0001
1000
0000
0001
0000
0100
0000
0010
1000
0010
0000
,  // measure 43
0100
0000
0001
1000
0001
1000
0100
0010
0001
0000
1000
0000
0010
0100
0010
0100
,  // measure 44
0001
0010
0100
1000
0001
0100
0010
1000
0001
0000
0010
0000
0100
0000
1000
0000
,  // measure 45
0010
0100
0010
1000
0100
0010
0001
0000
1000
0000
0010
0000
1001
0000
0000
0000
,  // measure 46
0001
0010
0100
0010
0100
1000
0001
0000
1000
0000
0010
0000
0100
0001
0100
0000
,  // measure 47
0020
0000
1030
0100
1000
0001
0010
0001
,  // measure 48
1000
0100
1000
0000
0001
0000
0100
0000
0010
1000
0010
0000
0100
0000
0001
0000
,  // measure 49
1000
0000
0100
0000
1000
0000
0001
0000
0100
0010
0000
0010
1000
0000
0001
0100
,  // measure 50
0002
0000
0000
0000
1003
0100
1000
0000
0001
0000
0010
0000
0100
0000
1000
0000
,  // measure 51
0002
0000
0000
0000
0103
0010
0100
0000
0001
0000
0010
0000
0100
0000
1000
0000
,  // measure 52
0002
0000
0000
0000
1003
0010
1000
0000
0100
0000
0010
0000
0001
0000
1000
0000
,  // measure 53
0010
0010
0100
0100
0110
0010
1000
0001
,  // measure 54
1001
1000
0100
0010
0011
0001
0100
0010
,  // measure 55
1010
1000
0100
0010
0001
1000
0010
0100
,  // measure 56
0001
1000
0001
1000
0001
1000
0001
0000
0100
0000
0010
0000
1000
0000
0001
0000
,  // measure 57
0010
0100
0010
0000
0001
0000
1000
0000
0200
0000
0000
0000
1300
0000
0001
0000
,  // measure 58
0100
0010
0100
0001
0100
0000
0010
0000
1000
0000
0100
0000
0010
0000
0001
0000
,  // measure 59
1000
0010
1000
0100
1000
0000
0001
0000
0010
0001
0000
0001
0100
0000
0010
0000
,  // measure 60
1000
0001
1000
0001
1000
0000
0010
0000
0100
0000
0001
0010
0001
0010
0001
0000
,  // measure 61
0100
0000
0010
1000
0010
1000
0010
0000
1000
0000
0100
0000
0010
0000
0001
0000
,  // measure 62
0011
0000
0001
1000
0000
1000
0010
0000
0100
0000
0001
0000
1000
0000
0100
0000
,  // measure 63
1100
0000
0100
0010
0000
0010
0001
0000
1000
0000
0010
0000
0100
0000
0001
0000
,  // measure 64
0101
0000
0100
0010
0000
0010
1000
0000
0100
0000
0010
0000
0001
0000
1000
0000
,  // measure 65
0010
0100
0010
0100
0010
0100
0010
0000
1000
0100
0000
0100
0010
0000
0001
0000
,  // measure 66
2100
0000
0000
0000
3001
0010
0000
0100
0000
1000
0000
0001
0000
0100
0000
0010
,  // measure 67
2000
0000
0100
0000
3001
1000
0001
0100
,  // measure 68
0010
1000
0010
0000
0100
0001
0100
0000
0001
1000
0001
0000
0010
0001
0010
0000
,  // measure 69
0002
0000
0000
0000
1003
0000
0001
0010
0000
0010
0100
0000
1000
0000
0001
0000
,  // measure 70
0101
0100
0010
1000
1200
0000
0310
0000
,  // measure 71
0011
0010
0100
1000
1002
0000
0103
0010
,  // measure 72
1000
0100
1000
0001
0100
0001
1000
0000
0010
0000
1000
0000
0100
0000
0010
0000
,  // measure 73
0001
0010
0001
1000
0010
1000
0001
0000
0010
0000
0100
0000
1000
0000
0001
0000
,  // measure 74
0100
0010
0000
0000
1000
0000
0100
0000
1000
0001
0000
0100
0000
0000
0010
0000
,  // measure 75
0000
0000
1000
0000
0100
0000
1000
0000
0001
0010
0000
0001
0000
1000
0000
0000
,  // measure 76
0010
0100
0000
0000
0001
0000
0100
0000
0010
1000
0000
0100
0000
0000
1000
0000
,  // measure 77
0000
0000
0001
0000
0010
0001
0000
1000
0000
0000
0000
0000
0001
0000
0000
0000
,  // measure 78
1000
0100
1000
0001
0100
0001
1000
0100
1000
0001
0100
0001
1000
0100
0010
0002
,  // measure 79
0000
1003
0010
1000
0001
0010
0100
1000
,  // measure 80
0001
0010
0001
1000
0010
1000
0001
0010
0001
1000
0010
1000
0001
0010
0100
2000
,  // measure 81
0000
0000
3001
0000
0100
0000
0001
0000
1000
0000
0100
0000
0010
0000
0001
1000
,  // measure 82
0000
1000
0100
0000
1000
0000
0100
0000
1000
0000
0100
0000
1000
0000
0100
0010
,  // measure 83
0000
0010
0100
0000
0010
0000
0100
0000
0010
0000
0100
0000
0010
0000
0100
0010
,  // measure 84
0000
0010
0001
0000
0010
0000
0001
0000
0010
0000
0001
0000
0010
0000
0001
2000
,  // measure 85
0000
0010
0001
3100
,  // measure 86
0001
0100
0101
0100
0010
1000
1100
0100
,  // measure 87
0010
0001
0011
0001
1000
0010
1010
1000
,  // measure 88
1001
1001
1001
1001
,  // measure 89
0001
0000
0010
0000
0100
0000
1000
0000
0010
0000
0100
0000
0001
0000
1000
0100
,  // measure 90
0010
0000
0001
0000
0100
0010
1000
0000
0001
0000
0010
0000
0100
0000
1000
0001
,  // measure 91
0100
0000
0010
0000
1000
0000
0001
0000
0010
0000
0100
1000
0100
1000
0100
1000
,  // measure 92
0001
0000
1000
0100
1000
0000
0001
0100
0001
0000
1000
0000
0100
0000
0010
0000
,  // measure 93
0001
1000
0020
0000
0130
0001
1000
0010
,  // measure 94
1000
0100
1000
0100
1000
0000
0010
0000
0100
0000
0001
0000
1000
0000
0000
0000
,  // measure 95
0001
0100
0001
0100
0001
0000
0100
0000
0010
0000
1000
0000
0001
0000
0000
0000
,  // measure 96
1000
0100
1000
0000
0001
0100
0001
0000
1000
0010
1000
0000
0001
0100
0001
0000
,  // measure 97
0101
0100
0110
0010
2010
0000
3001
0000
,  // measure 98
1000
0000
0100
0000
0010
0000
0001
0000
1000
0010
0100
0001
1000
0000
0010
0000
,  // measure 99
0100
0000
0001
0000
0010
0000
0100
0000
1000
0100
0010
0001
1000
0000
0010
0000
,  // measure 100
0100
0000
0001
0000
1000
0000
0100
0000
0010
0001
0010
0001
0010
0100
1000
0000
,  // measure 101
0001
0000
0100
0000
0010
0000
1000
0000
0001
0100
0001
0100
0010
1000
0001
0000
,  // measure 102
0200
0000
0000
0000
0310
0000
1000
0100
1000
0000
0001
0000
0010
0000
0100
0000
,  // measure 103
1000
0000
0001
0010
0100
0000
1000
0010
0100
0000
0001
0000
2001
0000
0000
0000
,  // measure 104
3010
0000
0100
0000
0001
1000
0001
1000
0100
0010
0100
0010
0002
0000
0000
0000
,  // measure 105
1003
0000
0010
0100
0010
0000
1000
0000
0100
0000
0010
0000
0002
0000
0000
0000
,  // measure 106
1003
0100
0010
0000
0100
0000
1000
0100
0010
0000
0100
0000
1000
0000
0010
0000
,  // measure 107
0100
0001
1000
0000
0010
0000
0100
0001
1000
0000
0010
0000
1000
0000
0100
0000
,  // measure 108
0010
0001
0100
0000
0001
0000
0010
0001
0100
0000
0010
0000
1000
0000
0001
0000
,  // measure 109
0010
0001
1000
0000
0001
0000
0010
0001
1000
0000
0010
0000
0100
0000
0001
1000
,  // measure 110
0001
0000
1000
0100
1000
0000
0001
0100
0001
0000
1000
0000
0100
0000
0010
0000
,  // measure 111
0001
0001
2000
0000
3020
0000
0130
0001
,  // measure 112
0100
0010
2000
0000
0100
0000
3001
0000
,  // measure 113
1000
0100
1000
0100
0010
0001
0010
0001
1000
0010
1000
0010
0100
0001
0100
0001
,  // measure 114
1000
0000
1000
0100
0010
0000
0010
0001
0200
0000
0000
0000
0310
0000
0000
0000
,  // measure 115
0100
0001
0010
0100
1000
0001
0200
0000
,  // measure 116
0310
0000
1000
0100
0010
0000
0001
0000
1000
0000
0010
0000
0100
0000
0001
0000
,  // measure 117
1000
0000
0010
1000
0001
0000
0010
0001
2000
0000
0000
0000
3100
0000
0000
0000
,  // measure 118
1000
0100
1000
0100
0010
0001
0100
0010
1000
0001
1000
0001
0100
0010
1000
0001
,  // measure 119
0010
0100
0010
0100
1000
0010
0100
0001
1000
0010
1000
0010
0100
0001
1000
0100
,  // measure 120
0010
0001
0100
0010
1000
0100
0010
0001
0100
0010
1000
0100
0010
0001
0100
0010
,  // measure 121
1000
0100
1000
0001
0100
0001
1000
0010
1000
0001
0010
0001
1000
0100
0010
0002
,  // measure 122
2000
0000
0000
0000
,  // measure 123
3003
0000
0000
0000
;
