#VERSION:0.82;
#TITLE:Sorry;
#SUBTITLE:;
#ARTIST:Justin Bieber;
#TITLETRANSLIT:;
#SUBTITLETRANSLIT:;
#ARTISTTRANSLIT:;
#GENRE:Hello.. It's Me;
#ORIGIN:;
#CREDIT:;
#BANNER:Sorry.png;
#BACKGROUND:Sorry-bg.png;
#PREVIEWVID:;
#JACKET:jacket.png;
#CDIMAGE:;
#DISCIMAGE:;
#LYRICSPATH:;
#CDTITLE:;
#MUSIC:Sorry.ogg;
#OFFSET:0.002000;
#SAMPLESTART:95.996513;
#SAMPLELENGTH:13.714000;
#SELECTABLE:YES;
#BPMS:0.000=100.000;
#STOPS:;
#DELAYS:;
#WARPS:;
#TIMESIGNATURES:0.000=4=4;
#TICKCOUNTS:0.000=4;
#COMBOS:0.000=1;
#SPEEDS:0.000=1.000=0.000=0;
#SCROLLS:0.000=1.000;
#FAKES:;
#LABELS:0.000=Song Start;
#BGCHANGES:4.000=Sorry.avi=1.000=0=0=1=====,
99999=-nosongbg-=1.000=0=0=0 // don't automatically add -songbackground-
;
#KEYSOUNDS:;
#ATTACKS:
;

//---------------dance-single - ----------------
#NOTEDATA:;
#CHARTNAME:;
#STEPSTYPE:dance-single;
#DESCRIPTION:;
#CHARTSTYLE:;
#DIFFICULTY:Hard;
#METER:9;
#RADARVALUES:0.544173,0.629678,0.117327,0.211188,0.555347,445.000000,15.000000,27.000000,0.000000,0.000000,0.000000,0.000000,0.000000,0.544173,0.629678,0.117327,0.211188,0.555347,445.000000,15.000000,27.000000,0.000000,0.000000,0.000000,0.000000,0.000000;
#CREDIT:Ben Speirs;
#NOTES:
0000
0000
0000
0000
,
0000
0000
0000
0000
,
0000
0000
0000
0000
,
0000
0000
0000
0000
0000
0000
0000
0000
0000
0000
0000
0000
0000
0000
1000
0001
,
1000
0000
0000
0100
1000
0000
0001
0000
0001
0000
0000
0100
0001
0000
1000
0000
,
1000
0000
0000
0010
1000
0000
0001
0000
0001
0000
0000
0010
0001
0000
1000
0100
,
1000
0000
0000
0001
0100
0000
0010
0000
1000
0000
0000
0100
0010
0000
0001
0000
,
1000
0000
0000
0010
0100
0000
0001
0000
1000
0000
0000
0100
0010
0000
0110
0000
,
0001
0010
0001
1000
0100
1000
0001
0100
0001
1000
0010
1000
,
0001
0000
0000
0100
0010
0000
1000
0000
1000
0000
0000
0100
0010
0000
0001
1000
,
0001
0000
0100
0010
1000
0100
0010
0000
,
0001
0000
0000
0000
1000
0000
0010
0100
0010
0000
1000
0000
0100
0010
0100
0010
,
0001
0000
1000
0100
1000
0000
0001
0000
1000
0000
0001
0100
0001
0000
1000
0000
,
0001
0000
1000
0010
1000
0000
0001
0000
1000
0000
0001
0010
0001
0000
1000
0000
,
0010
0100
0010
1000
0100
1000
0001
0100
0001
1000
0010
1000
,
0001
0000
0000
0100
0010
0000
0100
0000
0001
0000
0000
1000
0100
0000
1000
0000
,
0010
0000
0100
0001
0100
0000
0010
0000
1000
0000
0100
0010
0100
0000
1000
0000
,
0001
0000
0100
0010
0100
0000
0001
0000
1000
0000
0010
0000
0100
0000
0001
1000
,
0002
0000
0103
0010
2000
0000
3100
0010
,
0001
1000
0010
0100
0001
1000
0100
1000
,
0010
0000
0000
0100
0000
0000
0101
0000
0100
0000
0000
0010
0000
0000
1010
0000
,
1000
0000
0000
0100
0000
0000
1100
0000
0100
0000
0000
0010
0000
0000
0011
0000
,
0001
0000
0001
0100
0000
0100
0010
0000
1000
0000
0001
0000
0100
0000
0010
1000
,
0001
0000
0000
0000
0001
0000
0100
0000
0000
0000
0100
0000
0010
0000
0000
0000
1000
0000
0000
0000
0001
0100
0001
0100
0001
0000
0000
0000
1001
0000
0000
0000
,
2000
0000
0000
3100
0000
0000
1100
0000
0002
0000
0000
0103
0000
0000
0101
0000
,
2000
0000
0000
3010
0000
0000
1010
0000
0002
0000
0000
0013
0000
0000
0011
0000
,
0001
0000
0001
1000
0000
0000
0010
0000
0100
0000
0100
0001
0000
0000
1000
0000
,
0100
0000
0100
0010
0000
0000
0001
1000
0001
0000
0100
0000
0010
1000
0010
0000
,
0100
0000
0100
0001
1000
0000
0001
0000
0100
0000
0100
0010
1000
0000
0001
0000
,
0010
0000
0010
0001
1000
0000
0001
0000
0010
0000
0010
0100
1000
0000
0010
0000
,
0100
0001
0100
0001
0100
0001
0100
0001
2000
0000
3010
0000
0200
0000
0301
0000
,
1000
0100
1000
0100
1000
0100
1000
0100
0020
0000
0031
0000
1000
0000
0010
0100
,
0001
0000
0000
0001
0010
1000
0010
0001
1000
0000
0000
1000
0010
0001
0010
1000
,
0100
0000
0100
0010
0001
0000
1000
0000
0010
0000
0010
0100
0001
0000
1000
0000
,
1000
0000
0000
0001
0010
0100
0010
0100
1000
0000
0000
1000
0010
0100
0010
0100
,
0001
0000
0001
1000
0000
1000
0010
0100
0001
0000
1000
0000
0100
0010
0100
0000
,
1000
0000
1100
0000
0100
1000
0100
1000
0001
0000
0011
0000
0010
0001
0010
0001
,
1000
0000
1000
0010
0100
0000
0001
0000
1000
0000
1000
0100
0010
0000
0001
0000
,
0100
0010
0100
0010
0100
0010
0100
0010
2000
0000
3200
0000
0320
0000
0031
0000
,
1000
0010
1000
0010
1000
0010
1000
0010
0200
0000
0302
0000
2003
0000
3000
0000
,
1001
0000
0000
1000
0100
0001
0100
1000
0001
0000
0000
0001
0100
1000
0100
0001
,
0010
0000
0010
0100
1000
0000
0001
0000
0100
0000
0100
0010
1000
0000
0001
0000
,
0001
0000
0000
1000
0100
0010
0100
0010
0001
0000
0000
0001
0100
0010
0100
0010
,
1000
0000
1000
0001
0000
0001
0100
0010
1000
0000
0001
0000
0010
0100
0010
0000
,
0001
0000
0011
0000
0010
0001
0010
0001
1000
0000
1100
0000
0100
1000
0100
1000
,
0001
0000
0001
0100
0010
0000
1000
0000
0001
0000
0001
0010
0100
0000
1000
0000
,
0010
0100
0010
0100
0010
0100
0010
0100
0002
0000
0023
0000
0230
0000
1300
0000
,
0001
0100
0001
0100
0001
0100
0001
0100
0020
0000
2030
0000
3002
0000
0003
0000
,
2000
0000
3020
0000
,
0230
0000
0000
0000
0000
0000
0000
0000
0000
0000
0000
0000
0300
0000
0001
1000
,
0002
0000
0023
0000
,
0230
0000
0000
0000
0000
0000
0000
0000
0000
0000
0000
0000
0300
0000
1000
0001
;

//---------------dance-single - ----------------
#NOTEDATA:;
#CHARTNAME:;
#STEPSTYPE:dance-single;
#DESCRIPTION:;
#CHARTSTYLE:;
#DIFFICULTY:Medium;
#METER:5;
#RADARVALUES:0.318459,0.405755,0.203367,0.391089,0.000000,209.000000,26.000000,50.000000,0.000000,0.000000,0.000000,0.000000,0.000000,0.318459,0.405755,0.203367,0.391089,0.000000,209.000000,26.000000,50.000000,0.000000,0.000000,0.000000,0.000000,0.000000;
#CREDIT:Ben Speirs;
#NOTES:
0000
0000
0000
0000
,
0000
0000
0000
0000
,
0000
0000
0000
0000
,
0000
0000
0000
0000
,
1000
0100
1000
0000
0001
0100
0001
0000
,
2000
3010
0200
0301
,
1000
0100
1000
0000
0001
0010
0001
0000
,
2000
3001
0200
0310
,
1000
0100
2000
0000
3001
0100
0002
0000
,
1003
0010
0100
0001
,
2000
3000
0020
0030
,
0100
0000
0001
0000
1000
0100
0010
0000
,
1002
0103
2000
3100
,
0002
0013
2000
3010
,
1000
0100
1000
0000
0001
0100
0001
0000
,
1000
0001
0100
0000
,
0010
1000
0010
1000
0001
0000
1000
0000
,
0001
0100
0001
0100
0010
0000
1000
0000
,
0200
0300
0020
0030
,
0001
0000
1000
0000
0010
0100
0010
0000
,
2020
3030
0202
0303
,
2002
3003
1000
0001
,
0100
0010
0100
0000
0001
1000
0001
0000
,
0010
0100
0010
0000
0001
1000
0001
0000
,
0202
0303
2020
3030
,
2002
0000
3003
0000
0100
1000
0001
0000
,
2002
3003
0202
0303
,
2020
0000
3030
0000
0001
1000
0010
0010
,
0220
0330
0202
0303
,
2200
3300
0001
1000
,
0010
0100
0010
0100
0001
1000
0100
0000
,
1000
0001
1000
0001
0100
0010
1000
0000
,
0101
0000
1000
0100
0001
0000
1000
0100
,
0001
0000
1000
0001
,
0011
0000
0001
0010
1000
0000
0001
0010
,
1000
0000
0000
0010
0100
0100
0010
0010
,
2000
3100
0020
0031
,
2000
0000
3010
0000
0100
0001
1000
0000
,
0101
0000
0101
0000
1000
0001
0100
0000
,
1100
0000
1100
0000
0010
1000
0001
0000
,
1010
0000
0001
0010
1000
0000
0001
0010
,
1000
0000
0001
1000
,
1100
0000
1000
0100
0001
0000
1000
0100
,
0001
0000
0000
0100
0010
0010
0100
0100
,
0002
0013
0200
1300
,
0002
0000
0103
0000
0010
1000
0001
0000
,
1010
0000
1010
0000
0001
1000
0010
0000
,
0011
0000
0011
0000
0100
0001
1000
0000
,
0020
0030
0200
0300
,
0002
0000
0000
0003
,
2000
3000
0200
0300
,
0020
0000
0000
0000
0000
0000
0030
1001
;

//---------------dance-single - ----------------
#NOTEDATA:;
#CHARTNAME:;
#STEPSTYPE:dance-single;
#DESCRIPTION:;
#CHARTSTYLE:;
#DIFFICULTY:Easy;
#METER:3;
#RADARVALUES:0.173197,0.242867,0.054753,0.219010,0.000000,120.000000,7.000000,28.000000,0.000000,0.000000,0.000000,0.000000,0.000000,0.173197,0.242867,0.054753,0.219010,0.000000,120.000000,7.000000,28.000000,0.000000,0.000000,0.000000,0.000000,0.000000;
#CREDIT:Ben Speirs;
#NOTES:
0000
0000
0000
0000
,
0000
0000
0000
0000
,
0000
0000
0000
0000
,
0000
0000
0000
0000
,
1000
0100
0010
0001
,
0100
0000
0100
0000
,
0001
0010
0100
1000
,
0010
0000
0010
0000
,
1000
0100
1000
1000
,
0001
0000
1000
0000
,
0020
0030
0200
0300
,
0002
0003
1000
0000
,
0001
0010
0100
1000
,
0010
0000
0010
0000
,
1000
0100
0010
0001
,
0100
0000
0100
0000
,
0001
0010
0001
0001
,
1000
0000
0001
0000
,
0200
0300
0020
0030
,
2000
3000
0001
0000
,
0200
0300
0020
0030
,
2002
0000
0000
3003
,
0010
1000
0001
0000
,
0010
0001
1000
0000
,
0200
0300
2000
3000
,
2002
0000
0000
3003
,
0020
0030
0200
0300
,
2002
0000
0000
3003
,
0002
0003
2000
3000
,
0020
0030
0200
0300
,
0001
0100
0010
0000
,
1000
0010
0100
0000
,
1001
0000
0010
1000
,
0100
0000
0010
0001
,
1000
0000
0010
1000
,
0100
0000
1000
0000
,
1001
0000
0010
0100
,
0001
0000
1000
0100
,
0010
0000
0010
0000
,
0001
1000
0001
1000
,
1001
0000
0100
0001
,
0010
0000
0100
1000
,
0001
0000
0100
0001
,
0010
0000
0001
0000
,
1001
0000
0100
0010
,
1000
0000
0001
0010
,
0100
0000
0100
0000
,
1000
0001
1000
0000
,
0020
0030
0200
0300
,
0002
0000
0000
0003
,
0020
0030
0200
0300
,
2000
0000
0000
3000
;

//---------------dance-single - ----------------
#NOTEDATA:;
#CHARTNAME:;
#STEPSTYPE:dance-single;
#DESCRIPTION:;
#CHARTSTYLE:;
#DIFFICULTY:Beginner;
#METER:1;
#RADARVALUES:0.102801,0.159564,0.062574,0.000000,0.000000,84.000000,8.000000,0.000000,0.000000,0.000000,0.000000,0.000000,0.000000,0.102801,0.159564,0.062574,0.000000,0.000000,84.000000,8.000000,0.000000,0.000000,0.000000,0.000000,0.000000,0.000000;
#CREDIT:Ben Speirs;
#NOTES:
0000
0000
0000
0000
,
0000
0000
0000
0000
,
0000
0000
0000
0000
,
0000
0000
0000
0000
,
0100
0000
0010
0000
,
1000
0000
0000
0000
,
0100
0000
0010
0000
,
0001
0000
0000
0000
,
1000
0000
0001
0000
,
1000
0000
0000
0000
,
0010
0000
0010
0000
,
0010
0000
0000
0000
,
0100
0000
0001
0000
,
1000
0000
0000
0000
,
0001
0000
0010
0000
,
0100
0000
0000
0000
,
1000
0000
0010
0000
,
0100
0000
0000
0000
,
0001
0000
0001
0000
,
0001
0000
0000
0000
,
1001
0000
0100
0000
,
1000
0000
0000
0000
,
0010
0000
1000
0000
,
0001
0001
0001
0000
,
1001
0000
0100
0000
,
0010
0000
0000
0000
,
1000
0000
0001
0000
,
0100
0000
0000
0000
,
0010
0000
1000
0000
,
0001
0000
0000
0000
,
0010
0000
0001
0000
,
0100
0100
0100
0000
,
0110
0000
1000
0000
,
1001
0000
0000
0000
,
0100
0000
1000
0000
,
1001
0000
0000
0000
,
0001
0000
0100
0000
,
0010
0000
1000
0000
,
0100
0100
0100
0000
,
0010
0010
0010
0000
,
0110
0000
0001
0000
,
1001
0000
0000
0000
,
0010
0000
0001
0000
,
1001
0000
0000
0000
,
1000
0000
0010
0000
,
0100
0000
0001
0000
,
0010
0010
0010
0000
,
0100
0100
0100
0000
,
0001
0000
1000
0000
,
0010
0000
0000
0000
,
1000
0000
0001
0000
,
0100
0000
0000
0000
;

//---------------dance-double - ----------------
#NOTEDATA:;
#CHARTNAME:;
#STEPSTYPE:dance-double;
#DESCRIPTION:;
#CHARTSTYLE:;
#DIFFICULTY:Challenge;
#METER:9;
#RADARVALUES:0.520708,0.629678,0.070396,0.281584,0.539703,421.000000,9.000000,36.000000,0.000000,0.000000,0.000000,0.000000,0.000000,0.520708,0.629678,0.070396,0.281584,0.539703,421.000000,9.000000,36.000000,0.000000,0.000000,0.000000,0.000000,0.000000;
#CREDIT:Ben Speirs;
#NOTES:
// measure 0
00000000
00000000
00000000
00000000
,  // measure 1
00000000
00000000
00000000
00000000
,  // measure 2
00000000
00000000
00000000
00000000
,  // measure 3
00000000
00000000
00000000
00000000
00000000
00000000
00000000
00000000
00000000
00000000
00000000
00000000
00000000
00000000
00010000
00001000
,  // measure 4
00020000
00000000
00000000
00130000
10000000
00000000
00010000
00000000
00020000
00000000
00000000
00130000
00010000
00000000
10000000
00000000
,  // measure 5
20000000
00000000
00000000
31000000
10000000
00000000
00010000
00000000
00020000
00000000
00000000
00130000
00001000
00000000
00100000
00001000
,  // measure 6
00010000
00000100
00001000
00000010
00000100
00000001
00001000
00000100
,  // measure 7
00000010
00000000
00000000
00000010
00000001
00000000
00001000
00000100
00001000
00000000
00000000
00000001
00000100
00000000
00000010
00001000
,  // measure 8
00000010
00000100
00000001
00001000
00000100
00010000
00001000
00100000
,  // measure 9
00020000
00000000
00000000
00000000
10030000
00000000
00100000
01000000
00100000
00000000
00000000
00000000
01000000
00000000
00010000
00000000
,  // measure 10
20000000
00000000
31000000
00100000
00020000
00000000
00130000
00001000
,  // measure 11
00020000
00000000
00000000
00000000
00030100
00000000
00001000
00000100
00001000
00000000
00000001
00000000
00001000
00000100
00000010
00000000
,  // measure 12
00000001
00000010
00000001
00001000
00000100
00001000
00000001
00000100
00000001
00001000
00000010
00000100
,  // measure 13
00000002
00000000
00000000
00000000
00001003
00000000
00000100
00010000
00001000
00000000
01000000
00000000
00010000
00000000
00100000
00010000
,  // measure 14
10000000
01000000
10000000
00010000
00100000
00010000
10000000
00100000
10000000
00010000
01000000
00100000
,  // measure 15
20000000
00000000
00000000
00000000
30010000
00000000
00100000
00001000
00010000
00000000
00000010
00000000
00001000
00000000
00000100
00001000
,  // measure 16
00000002
00000000
00000000
00000103
00000010
00000100
00000010
00000000
00002000
00000000
00000000
00003100
00000010
00000100
00000010
00000000
,  // measure 17
00000001
00000000
00001000
00000000
00000100
00000000
00010000
00001000
00010000
00000000
00000100
00000000
00001000
00000010
00000100
00000000
,  // measure 18
00000002
00000000
00001003
00000100
00020000
00000000
00031000
00100000
,  // measure 19
00020000
00000000
01030000
00100000
10000000
00010000
01000000
00000000
,  // measure 20
10010000
00000000
00000000
10000000
00000000
00000000
10000000
00000000
01100000
00000000
00000000
00100000
00000000
00000000
00100000
00000000
,  // measure 21
10010000
00000000
00000000
00010000
00000000
00000000
00010000
00000000
00100000
00000000
00000000
00100000
00000000
00000000
00100000
00000000
,  // measure 22
00010000
00000000
10000000
01000000
00000000
01000000
00100000
00000000
00010000
00000000
10000000
00000000
00100000
00000000
01000000
00010000
,  // measure 23
10000000
00000000
10000000
01000000
00000000
01000000
00100000
00000000
00010000
00000000
00100000
00000000
00001000
00000000
00010000
00000100
,  // measure 24
00002000
00000000
00000000
00003100
00000000
00000000
00001100
00000000
00000002
00000000
00000000
00000103
00000000
00000000
00000101
00000000
,  // measure 25
00002000
00000000
00000000
00003010
00000000
00000000
00001001
00000000
00001000
00000000
00000100
00000000
00000010
00000001
00000010
00000000
,  // measure 26
00000002
00000000
00000000
00001000
00000003
00000000
00001001
00000000
00002000
00000000
00000000
00003001
00000000
00001000
00000001
00000000
,  // measure 27
00000200
00000000
00000000
00000310
00000000
00000000
00001000
00000010
00001000
00000000
00000001
00000000
00001000
00000100
00001000
00000000
,  // measure 28
00000001
00000000
00001000
00000200
00000000
00000000
00010300
00000000
00001000
00000000
00100000
00020000
00000000
00000000
10030000
00000000
,  // measure 29
00100000
00000000
01000000
00200000
00000000
00000000
10300000
00000000
01000000
00000000
00100000
02000000
00000000
00000000
13000000
00000000
,  // measure 30
00010000
01000000
00010000
01000000
00010000
01000000
00010000
01000000
00200000
00000000
20300000
00000000
32000000
00000000
03100000
00000000
,  // measure 31
00010000
00100000
00010000
00100000
00001000
00010000
00001000
00010000
00000200
00000000
00002300
00000000
00003001
00000000
00000000
00000000
,  // measure 32
00001001
00000000
00000000
00000001
00000010
00001000
00000010
00000001
00001000
00000000
00000000
00001000
00000100
00000001
00000100
00001000
,  // measure 33
00000001
00000000
00000000
00001000
00000100
00000000
00010000
00000000
00010000
00000000
00000000
00001000
00100000
00000000
00010000
00000000
,  // measure 34
00010000
00000000
00000000
00010000
01000000
10000000
01000000
00010000
00100000
00000000
00000000
00100000
01000000
10000000
00100000
01000000
,  // measure 35
00010000
00000000
00000000
10000000
00000000
00000000
00100000
01000000
00100000
00000000
10000000
00000000
01000000
00100000
00010000
00000000
,  // measure 36
10000000
00000000
00000000
10000000
01000000
00100000
00010000
10000000
00100000
00000000
00000000
00100000
01000000
00010000
10000000
01000000
,  // measure 37
00100000
00000000
00010000
10000000
00010000
00000000
01000000
00000000
00100000
00000000
10000000
01000000
10000000
00000000
00010000
00000000
,  // measure 38
00100000
00001000
00100000
00001000
00000000
00010000
00001000
00000000
00100000
00000000
00001000
00000000
00010000
00000000
00000100
00001000
,  // measure 39
00000100
00000000
00001000
00000001
00000000
00001000
00000100
00010000
00001000
00000000
00100000
00000000
00010000
00000000
10000000
00000000
,  // measure 40
10010000
00000000
00000000
10000000
01000000
00010000
01000000
10000000
00010000
00000000
00000000
00010000
00100000
10000000
00100000
00010000
,  // measure 41
10000000
00000000
00000000
00010000
00100000
00000000
00001000
00000000
00001000
00000000
00000000
00010000
00000100
00000000
00001000
00000000
,  // measure 42
00001000
00000000
00000000
00001000
00000010
00000001
00000010
00001000
00000100
00000000
00000000
00000100
00000010
00000001
00000100
00000010
,  // measure 43
00001000
00000000
00000000
00000001
00000000
00000000
00000100
00000010
00000100
00000000
00000001
00000000
00000010
00000100
00001000
00000000
,  // measure 44
00000001
00000000
00000000
00000001
00000010
00000100
00001000
00000001
00000100
00000000
00000000
00000100
00000010
00001000
00000001
00000010
,  // measure 45
00000100
00000000
00001000
00000001
00001000
00000000
00000010
00000000
00000100
00000000
00000001
00000010
00000001
00000000
00001000
00000000
,  // measure 46
00000100
00010000
00000100
00010000
00000000
00001000
00010000
00000000
00000100
00000000
00010000
00000000
00001000
00000000
00100000
00010000
,  // measure 47
00100000
00000000
00010000
10000000
00000000
00010000
00100000
00001000
00010000
00000000
00000100
00000000
00001000
00000000
00000010
00000100
,  // measure 48
00000002
00000000
00002003
00000000
,  // measure 49
00003200
00000000
00000000
00000000
00000000
00000000
00000000
00000000
00000000
00000000
00000000
00000000
00000300
00000000
00001000
00000100
,  // measure 50
00020000
00000000
00032000
00000000
,  // measure 51
02003000
00000000
00000000
00000000
00000000
00000000
00000000
00000000
00000000
00000000
00000000
00000000
03000000
00000000
00100000
10000000
;
