#TITLE:Something Just Like This;
#SUBTITLE:;
#ARTIST:The Chainsmokers & Coldplay;
#TITLETRANSLIT:;
#SUBTITLETRANSLIT:;
#ARTISTTRANSLIT:;
#GENRE:EDM;
#CREDIT:;
#BANNER:Something Just Like This.png;
#BACKGROUND:Something Just Like This-bg.png;
#LYRICSPATH:;
#CDTITLE:cdtitle.png;
#MUSIC:Something Just Like This.ogg;
#OFFSET:-0.300000;
#SAMPLESTART:93.413322;
#SAMPLELENGTH:14.339993;
#SELECTABLE:YES;
#BPMS:0.000000=103.000000
;
#STOPS:
;
#BGCHANGES:0.667=Something Just Like This.avi=1.000=0=0=1=====,
99999=-nosongbg-=1.000=0=0=0 // don't automatically add -songbackground-
;
#KEYSOUNDS:;
#ATTACKS:;

//---------------dance-single - ----------------
#NOTES:
     dance-single:
     :
     Hard:
     7:
     0.473262,0.527914,0.482664,0.190140,0.036565,361.000000,66.000000,26.000000,0.000000,0.000000,0.000000,0.473262,0.527914,0.482664,0.190140,0.036565,361.000000,66.000000,26.000000,0.000000,0.000000,0.000000:
0000
0000
0000
0000
,
0000
0000
0000
0000
,
0000
0000
0000
0000
0001
0000
0100
0100
,
0020
0000
0030
0000
1000
0000
0100
0100
,
2000
0000
3000
0000
0001
1000
0001
1000
,
0020
0000
0030
0000
1000
0001
1000
0001
,
0200
0300
0000
0010
,
1000
1000
0010
0000
0100
0100
0001
0000
,
2002
0000
3003
0000
0001
1000
0100
0010
,
0002
0000
0013
0000
0001
0010
0001
0100
,
0020
0000
0130
0001
1000
1000
0001
0001
,
0010
0010
0001
0100
0010
0010
1000
1000
,
0002
0000
1003
0000
0100
1000
0001
0100
,
0201
0000
0310
0000
0100
0100
0010
1000
,
1200
0000
0310
0000
0001
0010
0100
1000
,
0020
0000
0130
0001
0001
0100
0010
1000
,
0200
0000
1300
0010
0100
0001
0010
0100
,
1100
0000
0001
0101
1000
0000
0010
1010
,
0001
0000
0010
0011
1000
1000
0001
0001
,
0100
0000
0010
0110
0001
0000
0100
0101
,
1000
0000
0001
0100
0101
0101
1000
1000
,
1100
0000
0100
0110
0011
0000
0001
0101
,
0110
0000
0100
0010
0010
1000
0100
0010
,
0110
0000
0100
1100
1001
0000
0001
0101
,
1001
1000
0010
0100
0010
0010
0100
0001
,
2002
0000
3003
0000
1000
0100
0010
0001
,
0012
0000
0103
0100
0010
0010
0100
0001
,
1000
1000
0001
0001
0010
0001
0100
0010
,
2010
0000
3100
0000
1000
0010
0100
0002
,
0000
0000
1003
0000
0001
1000
0010
0100
,
0210
0000
0301
0000
0100
0100
0010
0010
,
2000
0000
0000
3001
0000
0000
1000
0000
0010
0000
0010
0000
0100
0000
0001
0000
,
0020
0000
0130
0010
0001
0001
0100
0001
,
2001
0000
0100
0000
0010
3020
0000
0000
,
0130
0000
0001
0100
0010
0000
1000
0010
,
0210
0000
0001
0000
0010
0320
0000
0000
,
1030
0000
0001
1000
0100
0010
0001
0000
,
1100
1000
0100
1000
0100
1000
0010
0100
,
0101
0100
0010
0100
0010
0100
0001
0000
,
0101
0100
0010
1000
0001
0010
0100
1000
,
0010
0100
0110
0110
0101
0101
1010
1010
,
1001
0000
1000
1100
0001
0000
0100
0101
,
1000
0000
0001
0001
1000
1010
0001
0011
,
0100
0000
0001
0101
1000
0000
0010
1010
,
0001
0000
0010
0110
0110
0100
1100
1000
,
0001
0000
0100
0110
0001
1000
0100
0110
,
0001
0000
0010
0011
1001
0100
1000
1010
,
1001
0000
1000
0001
0101
0000
1000
0010
,
1010
0000
0001
0010
0110
0100
1000
0010
,
0100
0000
0000
0000
0001
0000
1000
0000
0010
0100
0010
0000
1000
0000
0001
0000
,
0010
0000
0000
0010
0000
0000
0010
0000
0001
1000
0001
0000
0100
0000
0010
0000
,
1000
0000
0100
0000
0010
0000
0001
0000
1000
0100
1000
0000
0010
0000
0100
0000
,
0001
0000
0000
0001
0000
0000
0001
0000
0100
0010
0100
0000
0001
0000
1000
0000
,
0010
0000
0100
0000
0001
0000
0101
0000
1000
0100
1000
0000
0010
0000
0100
0000
,
0101
0000
0000
0110
0000
0000
1010
0000
0001
1000
0001
0000
0100
0000
0010
0000
,
1010
1000
0100
0010
0110
0010
0001
0100
,
0101
0100
0010
0010
0110
0110
0101
0101
,
2000
0000
0100
0010
0000
0000
3010
0000
;

//---------------dance-single - ----------------
#NOTES:
     dance-single:
     :
     Challenge:
     9:
     0.621613,0.654613,0.307150,0.146262,0.427816,533.000000,42.000000,20.000000,0.000000,0.000000,0.000000,0.621613,0.654613,0.307150,0.146262,0.427816,533.000000,42.000000,20.000000,0.000000,0.000000,0.000000:
0000
0000
0000
0000
,
0000
0000
0000
0000
,
0000
0000
0000
1000
1000
0100
1000
0010
,
0200
0000
0300
0001
0001
0100
0001
0010
,
0020
0000
0030
0001
0010
0100
1000
0010
,
0100
0000
0000
0001
0100
0000
0001
0000
0100
0000
0100
0000
0010
0000
1000
0000
,
0100
0000
0000
1000
0100
0000
1000
0000
0100
0000
0010
0000
0010
0000
0001
0000
,
1000
1000
0010
0100
0001
0001
0100
0010
,
0210
0000
0301
0100
0010
1000
0100
0010
,
1001
0000
1000
0100
0100
1000
0010
0100
,
0101
0000
0001
1000
0010
0010
0100
0100
,
0001
0010
0100
0100
1000
1000
0010
1000
,
0002
0000
0103
0010
0100
0001
1000
2100
,
0001
0000
3010
1000
0001
0001
0010
0001
,
0200
0000
0310
0100
0010
0010
1000
0100
,
1000
0000
0000
0010
0100
0000
0001
0000
0001
0000
1000
0000
1000
0000
0010
0000
,
0100
0000
0001
0000
1000
0000
0010
0000
1000
0100
0010
0001
1000
0010
0100
0001
,
1000
0000
0000
0010
0100
0000
0110
0000
0001
0000
0100
0000
0010
0000
1010
0000
,
0001
0000
0000
1000
0100
0000
0110
0000
0110
0000
0001
0000
1000
0000
1010
0000
,
0001
0000
0000
0100
0010
0000
0110
0000
1000
0000
0010
0000
0100
0000
0101
0000
,
1000
0000
0000
0001
0010
0000
0001
0000
1000
0100
0010
0001
0100
0010
1000
0001
,
0100
0000
0010
1000
0010
0000
1010
0000
1100
0000
1000
0100
1000
0000
1100
0000
,
1001
0000
0001
0100
0001
0000
0101
0000
1001
0000
1010
0000
1100
0000
0011
0000
,
1001
0000
0001
0100
0001
0000
0101
0000
0110
0000
0010
0100
0010
0000
0110
0000
,
1010
0000
1000
0100
1000
0000
0010
0000
1000
0100
0010
0001
0100
0010
1000
0001
,
0200
0000
1300
0100
0001
1000
0100
0001
,
0200
0000
0310
0001
0100
0100
0010
0010
,
1000
0001
1000
0001
0100
0100
0001
1000
,
0200
0000
0310
0001
1000
1000
0010
2010
,
0001
0000
3100
1000
0010
0010
0100
0001
,
2000
0000
3010
0100
0001
0001
1000
1000
,
0001
0010
0100
1000
0000
0000
0001
0000
0001
0000
1000
0000
0010
0000
0100
0000
,
0210
0000
0000
0000
0301
0000
0100
0000
0010
1000
0100
0010
0001
1000
0010
0100
,
0001
1000
0010
0100
0001
1001
1000
0100
,
0110
0000
0010
0000
0001
0000
1000
0000
0010
0000
1010
0000
1000
0000
0100
0010
,
0001
0100
0010
1000
0001
0101
0100
0010
,
1010
0000
1000
0000
0001
0000
0010
0000
0001
0000
1000
0100
0010
0000
0001
0100
,
0010
0000
1000
0100
1000
0000
0100
1000
0100
0000
1000
0100
1000
0000
0100
1000
,
0001
0000
0100
0001
0100
0000
0001
0100
0001
0000
0100
0001
0010
0100
1000
0001
,
0100
0000
0010
0100
0010
0000
0100
0010
0100
0000
0010
0100
0010
0000
0100
0010
,
0100
0000
0001
0100
0001
0000
1000
0000
0001
0010
0100
1000
0010
0100
0001
1000
,
0010
0000
0100
0001
1000
0000
0020
0000
0130
0000
0001
0100
0010
0000
2000
0000
,
3100
0000
1000
0010
0100
0000
0001
0000
1000
0100
1000
0100
0010
0001
0010
0001
,
1000
0000
0001
0100
0010
0000
2000
0000
3001
0000
1000
0100
0010
0000
0002
0000
,
0103
0000
0010
0100
0001
0000
1000
0000
0010
1000
0010
1000
0001
0010
0001
0010
,
0100
0000
1000
0010
0100
0000
0101
0000
1000
0000
0010
1000
0100
0000
1100
0000
,
0001
0000
0010
0001
0100
0000
0010
0000
0100
0000
0101
0000
0110
0000
1010
0000
,
1100
0000
1000
0001
0100
0000
0101
0000
1000
0000
0010
1000
0001
0000
0011
0000
,
1000
0000
0001
1000
0100
0000
0010
0000
0001
1000
0001
1000
0010
0100
0001
1000
,
0020
0000
0000
0000
0130
0000
0001
0000
1000
0100
0010
0000
1000
0100
0010
0000
,
0001
0100
0001
1000
0100
1000
0001
0100
0010
1000
0002
0000
0023
0000
0100
0000
,
0031
0100
0001
0100
0010
1000
0100
0010
0001
0001
0100
0000
0010
0010
1000
0000
,
0001
0010
0100
1000
0010
0100
0001
1000
0010
0010
0100
0000
0001
1000
0001
1000
,
0010
0100
0001
1000
0100
0010
0001
1000
0010
0100
0100
0000
0001
1000
1000
0000
,
0010
0100
0001
1000
0100
0010
0001
1000
0010
0010
0010
0000
1000
0100
0010
0001
,
0100
0000
0010
0100
0001
0000
0101
0000
1000
0000
0010
1000
0100
0000
1100
0000
,
0001
0000
0010
0001
1000
0010
0100
0000
0100
0100
0001
0100
0010
0010
1000
0100
,
0020
0000
0000
0001
0001
0000
0031
0000
;

//---------------dance-double - ----------------
#NOTES:
     dance-double:
     :
     Challenge:
     9:
     0.576690,0.656030,0.197454,0.204767,0.361998,497.000000,27.000000,28.000000,0.000000,0.000000,0.000000,0.576690,0.656030,0.197454,0.204767,0.361998,497.000000,27.000000,28.000000,0.000000,0.000000,0.000000:
00000000
00000000
00000000
00000000
,
00000000
00000000
00000000
00000000
,
00000000
00000000
00000000
10000000
01000000
01000000
10000000
00100000
,
02000000
00000000
03000000
00100000
01000000
01000000
00010000
00100000
,
00020000
00000000
00030000
10000000
01000000
00010000
00001000
00000100
,
00000002
00000000
00000003
00000001
00000100
00001000
00010000
01000000
,
20000000
00000000
30100000
10000000
00000000
00010000
00100000
00100000
,
00001000
00001000
00010000
00000100
00000100
00000010
00000001
00000100
,
00002000
00000000
00003100
00000001
00001000
00001000
00000100
00010000
,
00010100
00000000
00011000
00001000
00100000
00010000
01000000
00100000
,
02100000
00000000
03100000
01000000
00010000
00010000
00100000
00100000
,
00001000
00010000
00100000
00100000
00010000
00001000
00001000
00000010
,
00000002
00000000
00000103
00000010
00001000
00001000
00000001
00002001
,
00000100
00000000
00003010
00001000
00000100
00000100
00000010
00000001
,
00000200
00000000
00000310
00000100
00000001
00000001
00000100
00001000
,
00010000
00000000
00000000
00001000
00000100
00000000
00001000
00000000
00010000
00000000
00010000
00000000
00100000
00000000
10000000
00000000
,
02000000
00000000
00000000
00000000
03100000
00000000
00010000
00000000
01000000
00000000
01000000
00000000
00100000
10000000
01000000
00100000
,
00010000
00000000
00000000
10000000
01000000
00000000
11000000
00000000
00100000
00000000
00010000
00000000
00110000
00000000
00010000
00000000
,
10000000
00000000
00000000
00100000
10000000
00000000
01000000
00000000
00100000
00000000
01100000
00000000
00010000
00000000
00110000
00000000
,
00001000
00000000
00000000
00100000
00010000
00000000
00110000
00000000
10000000
00000000
00000000
00000000
00100000
00000000
10100000
00000000
,
00010000
00000000
00100000
00000000
00001000
00000000
00011000
00000000
00011000
00000000
00010100
00000000
00001000
00000000
00000010
00000100
,
00000001
00000000
00000000
00001000
00000100
00000000
00001000
00000001
00001000
00000000
00000000
00000010
00000100
00000000
00000001
00001000
,
00000001
00000000
00000000
00000100
00000010
00000000
00001000
00000100
00001000
00000000
00000100
00010000
00000100
00000000
00010000
00001000
,
00000100
00000000
00000000
00000010
00000100
00000000
00000010
00001000
00000010
00000000
00000000
00001000
00000100
00000000
00010000
00001000
,
00010000
00000000
00000000
00000100
00010000
00000000
00011000
00000000
00011000
00000000
00101000
00000000
00110000
00000000
00010000
00000000
,
02000000
00000000
13000000
01000000
00100000
00100000
01000000
00010000
,
00200000
00000000
01300000
00100000
00010000
10000000
00100000
00010000
,
00001000
00001000
00010000
00100000
00100000
01000000
00010000
00100000
,
00002000
00000000
00013000
00000100
00000010
00000010
00001000
00000020
,
00000000
00000000
00000031
00000100
00000010
00001000
00000100
00001000
,
00000001
00000000
00000000
00000100
00000010
00000000
00000100
00000000
00000001
00000000
00000001
00000000
00001000
00000000
00001000
00000000
,
00000010
00001000
00000001
00000100
00000000
00000000
00000001
00000000
00000001
00000000
00000100
00000000
00000010
00000000
00001000
00000000
,
00000200
00000000
00010300
00000100
00001000
00010000
00001000
00000100
,
00000020
00000000
00001000
00000000
00000100
00000032
00000000
00000000
,
00000103
00000010
00001000
00001000
00000100
00010000
00001000
00001000
,
00200000
00000000
01000000
00000000
00010000
00302000
00000000
00000000
,
00013000
00100000
10000000
01000000
01000000
10000000
00100000
01000000
,
00010000
00000000
10000000
01000000
10000000
00000000
01000000
10000000
01000000
00000000
10000000
01000000
10000000
00000000
00100000
00000000
,
01000000
00000000
00010000
01000000
00010000
00000000
01000000
00010000
01000000
00000000
00010000
01000000
00010000
00000000
00100000
00000000
,
00001000
00000000
00100000
00010000
00100000
00000000
00001000
00010000
00001000
00000000
00010000
00000100
00010000
00000000
00000100
00001000
,
00000100
00000000
00001000
00000000
00000010
00000000
00000100
00000000
00000001
00000010
00000100
00001000
00000010
00000100
00000001
00001000
,
00000010
00000000
00001000
00000100
00001000
00000000
00000002
00000000
00000103
00000000
00000010
00001000
00000010
00000000
00002000
00000000
,
00003100
00000000
00010000
00000100
00010000
00000000
00001000
00000000
00010000
00001000
00010000
00001000
00100000
00010000
00100000
00010000
,
01000000
00000000
00100000
10000000
00100000
00000000
02000000
00000000
03010000
00000000
10000000
01000000
10000000
00000000
00200000
00000000
,
01300000
00000000
00010000
10000000
00010000
00000000
10000000
00000000
01000000
00100000
01000000
00100000
00010000
00100000
00010000
00100000
,
00001000
00000000
00010000
00000100
00001000
00000000
00001100
00000000
00000010
00000000
00001000
00000010
00000100
00000000
00000101
00000000
,
00000100
00000000
00000010
00001000
00000100
00000000
00000010
00000000
00000001
00000000
00000011
00000000
00000110
00000000
00001100
00000000
,
00001001
00000000
00001000
00000100
00010000
00000000
00001000
00000000
00011000
00000000
00010000
00001000
01000000
00000000
00010000
00000000
,
01010000
00000000
01000000
00010000
10000000
00000000
00100000
00000000
01000000
00100000
01000000
00100000
01000000
00010000
10000000
01000000
,
00200000
00000000
00000000
00000000
00310000
00000000
00100000
00000000
00001000
00100000
00010000
00000000
00001000
00100000
00010000
00000000
,
00100000
00001000
00010000
00001000
00100000
00010000
00100000
00001000
00010000
00010000
00001000
00000000
00020000
00000000
00030100
00000000
,
00001000
00000100
00000001
00000100
00001000
00000100
00000001
00000100
00001000
00001000
00000010
00000100
00000001
00000001
00000100
00000000
,
00000010
00000100
00000010
00000100
00000001
00000010
00000100
00001000
00000010
00000010
00000100
00000000
00002000
00000000
00013000
00000000
,
00001000
00010000
00100000
00010000
00001000
00100000
00010000
00100000
00001000
00001000
00010000
00000000
00001000
00001000
00010000
00000000
,
00010000
00001000
00000100
00001000
00010000
00000100
00010000
00001000
00000100
00000100
00000010
00000100
00000002
00000000
00001003
00000000
,
00000010
00000000
00001000
00000100
00010000
00000000
00010100
00000000
00001000
00000000
00010000
00001000
00100000
00000000
00101000
00000000
,
00100000
00000000
00010000
10000000
00100000
00000000
01000000
00000000
00010000
10000000
01000000
00010000
00001000
00000100
00000001
00000010
,
00002000
00000000
00010000
00010000
00000000
00000000
00000000
00013000
;

//---------------dance-single - ----------------
#NOTES:
     dance-single:
     :
     Medium:
     5:
     0.329089,0.402083,0.036565,0.336402,0.000000,264.000000,5.000000,46.000000,0.000000,0.000000,0.000000,0.329089,0.402083,0.036565,0.336402,0.000000,264.000000,5.000000,46.000000,0.000000,0.000000,0.000000:
0000
0000
0000
0000
,
0000
0000
0000
0000
,
0000
0000
1000
0010
,
0200
0000
0300
0000
0001
0000
1000
0001
,
2000
0000
3000
0000
0001
0000
0010
0010
,
0200
0000
0300
0000
1000
0000
0010
0010
,
0200
0300
0000
0001
,
0100
0000
0010
0000
1000
0000
0001
1000
,
0001
0000
1000
0000
0010
1000
0001
0000
,
0200
0000
0300
0000
0001
1000
0001
0000
,
2000
3100
1000
0001
,
0010
0010
0010
0000
0100
0100
0100
0000
,
2002
0000
3003
0000
0001
0000
0100
0020
,
0000
0000
0030
0000
0100
0100
0010
1000
,
0002
0000
0003
0000
1000
0100
1000
0000
,
0020
0000
0230
0000
0301
0000
1000
0001
,
2000
0000
3001
0000
1000
0100
0010
0001
,
0100
0000
0000
0010
0010
0000
0000
1000
,
1000
0000
0001
0000
1000
0100
0010
0001
,
1000
0000
0000
0010
0010
0000
0000
1000
,
1000
0000
0001
0000
1000
0010
0100
0001
,
0200
0000
0310
1000
1000
0000
0001
0010
,
0010
0000
0001
0000
0100
0010
0100
0000
,
0001
0000
1000
0100
0100
0000
0010
0001
,
0001
0000
0100
0000
0001
1000
0001
0000
,
2200
0000
3300
0000
0100
0000
1000
0001
,
2000
3000
0010
0010
,
0100
0000
0001
0000
1000
0000
0001
0010
,
0002
0000
0003
0000
0100
0100
0010
0020
,
0000
0000
0030
0000
1000
0000
0001
1000
,
0001
0000
0010
0000
0001
1000
0001
0000
,
1100
0000
0101
0000
0010
0000
0001
1000
,
0010
0000
0100
0100
0010
0010
1000
0001
,
2000
0000
3000
0100
,
0020
0000
0000
0000
0030
0000
0001
1000
,
0020
0000
0030
1000
,
0002
0000
0003
0000
0100
0001
1000
0000
,
0010
0010
0010
0010
0010
0000
0000
0000
,
0100
0100
0100
0100
0100
0000
0000
0000
,
0001
0000
1000
0000
0010
1000
0001
0000
,
0100
0001
1000
0000
0001
0001
1000
1000
,
0020
0000
0030
0100
0200
0000
0300
0001
,
0002
0000
2003
0000
3010
0100
0010
0100
,
0002
0000
0003
1000
2000
0000
3000
0100
,
0200
0000
2300
0000
3010
1000
0010
1000
,
0002
0000
0003
0010
0020
0000
0030
0001
,
0002
0000
0203
0000
0310
1000
0010
1000
,
0002
0000
0003
1000
2000
0000
3000
0010
,
0020
0000
0130
0000
0001
0100
0010
1000
,
0001
0000
1000
0000
0100
0010
0001
0000
,
0100
0100
0100
0100
0010
1000
0002
0000
,
0013
0000
0001
0000
1000
0100
0010
0000
,
0100
0100
0100
0100
1000
0010
0100
0000
,
0002
0000
2003
0000
3010
0100
0010
0000
,
1000
1000
1000
1000
0001
0001
0001
0000
,
0020
0000
0032
0000
1003
0100
1000
0000
,
0002
0000
0103
0100
0010
0010
1000
0001
,
2002
0000
0000
0000
0000
0000
0000
3003
;

//---------------dance-single - ----------------
#NOTES:
     dance-single:
     :
     Easy:
     3:
     0.199543,0.253947,0.058505,0.277898,0.000000,145.000000,8.000000,38.000000,0.000000,0.000000,0.000000,0.199543,0.253947,0.058505,0.277898,0.000000,145.000000,8.000000,38.000000,0.000000,0.000000,0.000000:
// measure 0
0000
0000
0000
0000
,  // measure 1
0000
0000
0000
0000
,  // measure 2
0000
0000
0010
0010
,  // measure 3
0200
0300
0001
0001
,  // measure 4
2000
3000
0001
1000
,  // measure 5
0020
0030
1000
0001
,  // measure 6
0200
0300
0000
0010
,  // measure 7
0010
1000
1000
0001
,  // measure 8
0002
0003
1000
0000
,  // measure 9
2002
3003
0000
0100
,  // measure 10
0020
0030
1000
0000
,  // measure 11
0001
0001
1000
1000
,  // measure 12
0200
0300
0000
0010
,  // measure 13
0002
0003
0000
0100
,  // measure 14
0020
0030
0000
1000
,  // measure 15
0010
0010
1000
0001
,  // measure 16
0100
0010
0010
0010
,  // measure 17
1001
0000
1000
0000
,  // measure 18
0001
0100
0010
0010
,  // measure 19
1000
0000
0001
0000
,  // measure 20
1000
0100
0010
0010
,  // measure 21
0001
0000
1001
0000
,  // measure 22
0110
0000
0100
0010
,  // measure 23
1000
0000
1001
0000
,  // measure 24
0110
0000
0001
0001
,  // measure 25
0200
0300
0000
0000
,  // measure 26
0020
0030
0000
0000
,  // measure 27
1000
1000
0001
0001
,  // measure 28
0010
0000
0001
0100
,  // measure 29
0020
0030
0000
0000
,  // measure 30
0200
0300
0000
0000
,  // measure 31
0001
0001
1000
1000
,  // measure 32
0010
0000
1000
0100
,  // measure 33
0020
0000
0030
0000
,  // measure 34
0002
0000
0003
0100
,  // measure 35
0200
0000
0300
0000
,  // measure 36
0020
0030
2000
3000
,  // measure 37
0200
0300
0200
0300
,  // measure 38
0020
0030
0020
0030
,  // measure 39
0002
0003
0002
0003
,  // measure 40
2000
3000
0010
0010
,  // measure 41
1001
0000
1000
0000
,  // measure 42
0010
0010
0100
0001
,  // measure 43
1000
0000
0001
0000
,  // measure 44
0100
0100
0001
1000
,  // measure 45
0200
0300
0200
0300
,  // measure 46
0020
0030
0010
0001
,  // measure 47
2000
3000
2000
3000
,  // measure 48
0002
0003
0100
0001
,  // measure 49
0010
0010
0100
0100
,  // measure 50
0010
0100
0010
0000
,  // measure 51
0001
0001
0100
0100
,  // measure 52
0001
0100
0001
0000
,  // measure 53
1000
1000
0010
0010
,  // measure 54
1000
0010
1000
0000
,  // measure 55
0002
0003
2000
3000
,  // measure 56
0020
0030
0100
0100
,  // measure 57
2002
0000
0000
0000
0000
0000
0000
3003
;

//---------------dance-single - ----------------
#NOTES:
     dance-single:
     :
     Beginner:
     1:
     0.097160,0.145896,0.036565,0.000000,0.000000,88.000000,5.000000,0.000000,0.000000,0.000000,0.000000,0.097160,0.145896,0.036565,0.000000,0.000000,88.000000,5.000000,0.000000,0.000000,0.000000,0.000000:
// measure 0
0000
0000
0000
0000
,  // measure 1
0000
0000
0000
0000
,  // measure 2
0000
0000
0000
0000
,  // measure 3
0100
0000
0000
0000
,  // measure 4
0001
0000
0000
0000
,  // measure 5
1000
0000
0000
0000
,  // measure 6
0010
0000
0000
0000
,  // measure 7
1000
0000
1000
0000
,  // measure 8
1000
0000
0000
0000
,  // measure 9
1001
0000
0000
0001
,  // measure 10
0001
0000
0000
0000
,  // measure 11
0100
0000
0100
0000
,  // measure 12
0100
0000
0000
0010
,  // measure 13
0010
0000
0000
1000
,  // measure 14
1000
0000
0000
0000
,  // measure 15
0001
0000
0001
0000
,  // measure 16
0001
0000
0000
0000
,  // measure 17
1001
0000
1000
0000
,  // measure 18
1000
0000
0000
0000
,  // measure 19
0010
0000
0010
0000
,  // measure 20
0010
0000
0000
0000
,  // measure 21
0100
0100
0100
0100
,  // measure 22
0100
0000
0000
0000
,  // measure 23
0001
0001
0001
0001
,  // measure 24
0001
0000
0000
0000
,  // measure 25
1001
0000
0000
0000
,  // measure 26
1000
0000
0000
0000
,  // measure 27
0010
0000
0010
0000
,  // measure 28
0010
0000
0000
0000
,  // measure 29
0100
0000
0000
0000
,  // measure 30
0001
0000
0000
0000
,  // measure 31
1000
1000
0000
1000
,  // measure 32
1000
0000
0000
0000
,  // measure 33
1001
0000
0000
0000
,  // measure 34
0000
0000
0000
0010
,  // measure 35
0010
0000
0000
0000
,  // measure 36
0100
0000
0100
0000
,  // measure 37
0100
0000
0000
0000
,  // measure 38
0001
0000
0000
0000
,  // measure 39
1000
0000
1000
0000
,  // measure 40
1000
0000
0010
0010
,  // measure 41
0010
0000
0000
0000
,  // measure 42
0100
0000
0100
0000
,  // measure 43
0100
0000
0000
0000
,  // measure 44
0001
0000
0001
0000
,  // measure 45
0001
0000
0000
0000
,  // measure 46
1000
0000
1000
0000
,  // measure 47
1000
0000
0000
0000
,  // measure 48
0010
0000
0000
0000
,  // measure 49
1001
0000
0000
0000
,  // measure 50
0010
0010
0010
0010
,  // measure 51
0010
0000
0000
0000
,  // measure 52
1000
1000
1000
1000
,  // measure 53
1000
0000
0000
0000
,  // measure 54
0001
0001
0001
0001
,  // measure 55
0001
0000
0000
0000
,  // measure 56
0100
0000
0000
0000
,  // measure 57
0010
0000
0000
0000
;
