#TITLE:Shout Out To My Ex;
#SUBTITLE:;
#ARTIST:Little Mix;
#TITLETRANSLIT:;
#SUBTITLETRANSLIT:;
#ARTISTTRANSLIT:;
#GENRE:Pop;
#CREDIT:;
#BANNER:Shout Out To My Ex.png;
#BACKGROUND:Shout Out to My Ex-bg.png;
#LYRICSPATH:;
#CDTITLE:;
#MUSIC:Shout Out To My Ex.ogg;
#OFFSET:0.100000;
#SAMPLESTART:47.474373;
#SAMPLELENGTH:13.714000;
#SELECTABLE:YES;
#BPMS:0.000000=125.999992
,164.000000=62.999996
,182.000000=125.999992
;
#STOPS:
;
#BGCHANGES:0.000=Shout Out To My Ex.avi=1.000=0=0=1=====,
99999=-nosongbg-=1.000=0=0=0 // don't automatically add -songbackground-
;
#KEYSOUNDS:;
#ATTACKS:;

//---------------dance-single - ----------------
#NOTES:
     dance-single:
     :
     Hard:
     8:
     0.498297,0.640448,0.218432,0.184302,0.232083,452.000000,32.000000,27.000000,0.000000,0.000000,0.000000,0.498297,0.640448,0.218432,0.184302,0.232083,452.000000,32.000000,27.000000,0.000000,0.000000,0.000000:
0000
0000
0000
0000
,
1100
0000
0001
1000
0000
0001
0100
0000
,
0020
0000
0000
0030
,
0101
0000
1000
0100
0000
0010
0100
0000
,
2000
0000
0000
3000
,
1010
0000
0001
1000
0000
1000
0100
0010
,
0002
0000
0000
0003
,
0101
0000
1000
0001
0000
0001
0010
0100
,
1000
0000
0001
0000
0100
0010
1000
0000
,
0201
0000
0310
0100
0000
0100
0001
1000
,
0100
0000
1000
0010
1000
0001
0010
0000
,
0012
0000
1003
0010
0000
0010
1000
0001
,
0100
0000
0001
0100
0010
1000
0100
0000
,
2100
0000
3001
0100
0000
0100
0010
0100
,
0001
0000
0010
0001
0100
0000
0010
1000
,
1200
0000
0310
0100
0000
0100
1000
0010
,
0100
0000
0001
0100
0010
0010
1000
0001
,
0010
0000
0000
0010
0000
0000
0001
0000
0100
0000
0000
0100
0000
0000
0010
0000
,
1000
0000
0000
1000
0000
0000
0001
0000
0010
0000
0000
0010
0000
0000
0001
0000
,
0200
0000
0000
0000
0310
0000
1000
0001
1000
0000
0000
0000
0010
0000
0000
0000
,
1000
0000
0001
0010
0100
1000
0001
0000
,
0200
0000
0000
0000
0301
0000
1000
0010
1000
0000
0000
0000
0001
0000
0000
0000
,
1000
0100
0010
0001
0100
0100
0010
1000
,
0200
0000
0000
0000
0300
0000
0000
0010
,
0020
0000
0030
0001
,
1100
0000
0001
1000
0010
0000
0101
0000
,
1000
1000
0010
0100
0002
0000
1003
0000
,
0001
0010
0100
1000
0010
0010
0100
0001
,
1000
0100
0000
0000
0001
0100
0000
0000
1000
0000
0000
0000
1001
0000
0000
0000
,
0010
0000
1010
0001
0100
0000
1001
0000
,
0001
0000
0010
0000
0100
0000
1000
0000
0010
0000
0000
0000
1000
0001
0000
0000
,
1000
0000
0010
0100
0001
1000
0010
0100
,
0001
1000
0000
0000
0010
0000
0010
0000
1001
0000
0000
0000
1100
0000
0000
0000
,
0001
0000
0100
0010
0000
0010
1000
0000
0001
0000
0000
0000
0101
0000
0000
0000
,
1000
0000
0001
0000
1000
0000
0010
0100
0010
0000
0000
0000
1000
0000
0000
0000
,
0001
0010
0100
1000
0010
0010
0100
0001
,
1000
0100
0000
0000
0001
0100
0000
0000
1000
0000
0000
0000
1010
0000
0000
0000
,
0001
0000
1000
0010
0000
0010
0100
0000
0001
0000
0000
0000
1001
0000
0000
0000
,
1000
0000
0010
0000
0100
0000
0001
1000
0001
0000
0000
0000
0100
0010
0000
0000
,
1000
0000
0000
0010
0100
0000
0010
0000
1000
0000
0100
0000
0010
0000
0001
0000
,
1000
0100
0000
0000
0010
0000
0010
0000
0001
0100
0000
0000
0020
0000
0000
0000
,
2030
0000
0000
0000
0000
0000
0000
0000
0001
3000
1000
0000
0100
0000
0010
0000
0002
0000
0000
0000
0000
0000
0000
0000
0203
0000
0000
0000
0000
0000
0000
0000
,
0320
0000
0000
0000
0130
0001
0010
0100
1000
0000
0100
0000
0001
0000
0010
0000
,
2200
0000
3300
0000
0001
1000
0100
0010
0002
0000
0103
0000
0020
0000
1030
0000
,
0002
0000
0003
0000
1000
0001
1000
0000
0010
0000
0000
0000
1000
0001
1000
0000
,
2002
0000
0000
0000
0000
0000
3003
0000
1100
0000
0100
1000
0000
0001
1000
0000
,
0100
0000
0000
0000
0101
0000
0000
0000
0010
0000
0001
0000
0100
0000
0010
1000
,
0010
0000
1001
0000
1000
0010
0100
0001
,
0010
0000
0010
0000
0001
0000
0100
0000
0010
0100
0000
0000
0010
0100
0000
0000
,
0110
0000
0000
0000
1001
0000
0000
0000
0101
0000
0100
0001
0000
1000
0100
0000
,
1000
0000
0000
0000
1001
0000
0000
0000
1000
0000
0010
0000
0100
0000
0001
1000
,
0001
0000
0000
0000
1000
0100
0000
0000
1000
0000
0000
0010
0100
0000
0010
0000
,
1000
0000
0001
0000
0010
0000
0100
0000
1000
0001
0000
0000
1000
0000
0100
0000
,
1100
0000
0000
0000
1001
0000
0000
0000
0001
0000
0100
0010
0000
1000
0001
0000
,
0010
0000
0001
0000
1000
0000
0010
0000
0100
0000
0100
0000
0001
0000
1000
0100
,
2000
0000
3001
0000
1000
0010
0001
0010
,
0100
0000
0100
0000
0010
0000
0010
0000
1000
0100
0000
0000
1000
0001
0000
0000
,
1001
0000
0000
0000
0101
0000
0000
0000
1000
0000
0010
0100
0000
0001
1000
0000
,
0100
0000
1000
0000
0001
0000
0100
0000
0010
0000
0010
0000
1000
0000
0001
0010
,
0002
0000
0000
0000
1003
0200
0000
0000
1300
0000
0010
0100
0000
0100
0010
0000
,
1000
0000
0100
0000
0010
0000
0001
0000
1000
0100
0000
0000
0001
0000
1000
0000
,
0010
1000
0000
0000
0001
0000
0010
0000
0011
0000
0000
0001
1000
0000
0000
1000
,
0010
0000
0100
0000
0001
0000
1000
0000
0010
0000
0000
0010
0100
0000
0000
0100
,
0010
0000
1000
0000
0100
0000
0010
0000
0001
0000
0000
0001
1000
0000
0000
1000
,
0010
1000
0100
0010
0001
0100
1000
0100
,
0001
0000
0010
0000
1000
0000
0010
0000
0001
0000
0000
0001
0100
0000
0000
0100
,
0010
0000
1000
0000
0100
0000
0010
0000
0001
0000
0000
0001
1000
0000
0000
1000
,
0010
0000
1000
0000
0100
0000
0010
0000
0001
0000
1000
0100
1000
0000
0001
0000
,
1000
0000
0100
1000
0100
0000
1000
0000
0001
0000
1000
0100
1000
0000
0010
0000
,
0100
0010
0000
0000
1000
0000
0001
0000
0100
0000
0000
0000
0000
0000
0000
0000
;

//---------------dance-single - ----------------
#NOTES:
     dance-single:
     :
     Challenge:
     10:
     0.667971,0.664168,0.266213,0.068260,0.604100,636.000000,39.000000,10.000000,0.000000,0.000000,0.000000,0.667971,0.664168,0.266213,0.068260,0.604100,636.000000,39.000000,10.000000,0.000000,0.000000,0.000000:
0000
0000
0000
0000
,
0101
0000
0000
1000
0100
0000
0020
0000
0000
0000
0031
0000
1000
0000
0000
0000
,
0100
0000
1000
0001
0000
0000
0100
0000
0100
0000
0001
0000
1000
0000
0010
0000
,
1010
0000
0000
0001
0010
0000
0200
0000
0000
0000
1300
0000
0001
0000
0000
0000
,
0010
0000
0001
1000
0000
0000
0010
0000
0010
0000
1000
0000
0001
0000
0100
0000
,
0110
0000
0000
0010
1000
0000
0001
0000
0000
0000
0010
0000
0010
0000
0001
0000
,
1000
0000
0010
0100
0010
0000
1000
0000
1000
0000
0100
0000
0010
0000
0001
0000
,
0101
0000
0000
0100
0001
0000
1000
0000
0000
0000
0100
0000
0100
0000
1000
0000
,
0001
0000
0000
0000
0000
0000
0100
0000
0000
0010
0000
0000
0100
0000
0000
0000
0000
0000
0001
0000
0000
0000
0000
0000
0001
0000
0000
0000
0000
0000
1000
0000
0100
0000
1000
0000
0100
0000
0000
0000
0000
0000
0010
0000
0000
0000
0000
0000
,
0011
0000
0001
0100
0000
0100
0020
0000
0000
0000
1030
0000
0001
0000
1000
0000
,
0010
0000
0100
0000
0100
0000
0001
0000
1000
0100
1000
0000
0010
0000
0100
0000
,
1001
0000
0000
0000
0001
1000
0020
0000
0000
0000
0100
0000
0130
0000
0000
0000
,
0010
1000
0001
0010
0010
0001
1000
0100
,
1100
0000
0000
0001
0100
0000
0010
0000
0000
0000
1000
0000
0100
0000
0010
0000
,
0001
0000
1000
0010
1000
0000
0001
0000
0010
0001
0010
0000
0001
0000
0100
0000
,
0110
0000
0000
0100
0001
0000
1000
0000
0000
0000
0010
0000
1000
0000
0001
0000
,
0010
0000
0000
0001
0000
0000
0100
0000
0010
0000
1000
0000
1000
0000
0001
0000
,
0010
0100
0010
0100
0000
0000
0010
0000
0001
0100
0001
0100
0000
0000
0010
0000
,
1000
0100
1000
0100
0000
0000
1000
0000
0010
0000
0100
0010
0000
0000
1000
0000
,
0200
0000
0000
1300
0000
0000
0001
1000
0001
0000
1000
0000
0010
0000
0100
0000
,
0001
0000
1000
0001
0000
0000
1000
0000
0010
0000
0010
0000
0100
0000
0001
0000
,
0020
0000
0000
0031
0000
0000
1000
0001
1000
0000
0001
0000
0100
0000
0010
0000
,
1000
0000
0001
1000
0000
0000
0001
0000
0100
0000
0100
0000
0010
0000
1000
0000
,
0202
0000
0000
0000
0303
0000
0000
1000
,
2000
3000
0000
1001
,
0101
0000
0100
0010
0100
0001
1000
0000
0010
0000
0000
0000
1001
0000
1000
0000
,
0010
0000
0010
0000
0100
0000
0001
1000
0010
0000
0000
0000
1001
0000
0000
0000
,
1000
0100
0010
0001
1000
0010
0100
0001
,
1000
0100
0000
0100
0010
0100
0000
0010
0001
0000
0010
0001
1000
0000
0000
0000
,
1010
0000
0010
0100
0010
1000
0001
0000
0100
0000
0000
0000
1001
0000
0001
0000
,
0100
0000
0100
0000
0010
0000
1000
0001
0100
0000
0000
0000
0001
1000
0000
0000
,
0010
0000
0000
1000
0100
1000
0100
0000
0010
0000
0001
0000
1000
0000
0010
0000
,
0100
0001
0000
0000
1000
0000
1000
0000
1010
0000
0000
0000
0011
0000
0000
0000
,
1001
0000
1000
0010
0100
0001
1000
0000
0010
0000
0100
0000
0101
0000
0010
0000
,
1000
0000
1100
0000
0001
0000
1000
0010
0100
0000
0001
0000
0101
0000
0010
0000
,
1000
0000
0001
0010
0001
0000
0100
0000
0010
0000
1000
0100
1000
0000
0001
0000
,
0100
0010
0000
0010
1000
0100
0000
0100
0010
0001
0000
0001
1000
0000
0010
0000
,
0100
0000
0001
0100
0010
1000
0001
0000
0100
0000
0010
0000
1010
0000
0100
0000
,
0001
0000
0011
0000
1000
0000
0001
0100
0010
0000
1000
0000
1010
0000
0100
0000
,
0001
0000
1000
0100
0010
0100
0010
0000
0001
0000
1000
0000
0010
0000
0100
0000
,
0001
1000
0001
0000
0100
0000
0010
0000
1000
0100
1000
0000
1001
0000
0000
0000
,
0001
0000
0100
0010
0000
0100
0010
0000
1000
0000
0000
0000
0000
0000
0001
0000
1000
0000
0100
0000
0010
0000
0001
1000
0000
0000
0000
0000
0000
0000
0000
0000
,
0000
0000
0010
0000
0010
0000
1000
0000
0100
0000
0010
0000
0001
1000
0000
0000
0010
0100
0000
0000
0010
0100
0000
0000
0001
0000
0000
0000
0000
0000
0000
0000
,
1000
0000
0000
0100
0000
0010
0001
0000
1000
0000
0000
0000
0000
0000
0000
0000
0001
0000
1000
0000
0010
0000
0100
0001
0000
0000
0000
0000
1000
0100
0000
0000
,
0000
0000
0000
1000
0000
0001
0010
0000
0001
0000
1000
0000
0010
0000
0100
0000
0001
1000
0000
0000
0000
0000
0010
0000
0010
1000
0000
0000
0100
0000
0010
0000
,
0002
0000
0000
0000
0000
0000
0003
0000
1100
0000
1000
0100
0001
0100
1000
0000
,
0010
0000
0100
0000
0110
0000
0010
0000
1000
0000
1010
0000
0001
0000
0010
0001
,
0100
0000
0010
0000
0110
0000
0100
0000
0001
0000
1000
0100
1000
0000
0001
0100
,
0001
0000
1000
0001
1000
0000
0010
0000
0100
0001
0000
0001
0010
0100
0000
0100
,
1000
0010
0000
0010
0100
0000
0001
0000
0011
0000
0001
0010
1000
0010
0001
0000
,
0100
0000
0010
0000
0110
0000
0100
0000
0001
0000
0101
0000
1000
0000
0100
1000
,
0010
0000
0100
0000
0010
0100
0001
0000
1000
0000
0001
0010
0001
0010
0100
0000
,
1000
0000
0001
0000
1000
0000
0010
0000
0100
0010
0000
1000
0100
0000
0010
0000
,
0001
1000
0001
0000
1100
0000
0000
0000
1001
0000
1000
0100
0010
0001
1000
0000
,
0001
0010
0100
1000
0001
0000
0100
0000
0010
0000
0110
0000
1001
0000
1000
0100
,
0010
0000
0001
0100
0010
0000
0000
0000
1000
0000
0001
0010
0001
0000
1000
0010
,
1000
0000
0001
0000
0010
0000
0001
0000
1000
0010
0000
0010
0100
0001
0000
0001
,
1000
0100
0000
0100
0010
0000
0001
0000
1001
0000
0001
0010
0100
1000
0001
0000
,
1000
0100
0010
0001
1000
0000
0010
0000
0100
0000
0110
0000
1001
0000
0001
0010
,
0100
0000
1000
0010
0100
0001
0000
0000
0100
0000
0001
0010
0100
1000
0001
0000
,
1000
0000
0010
0000
0100
0000
0001
0000
1000
0010
0000
0010
0100
0000
0001
0000
,
1000
0100
0000
0100
0010
0000
0001
0000
1000
0100
1000
0100
0010
0100
0010
0100
,
0010
0000
0001
0000
1000
0000
0010
0000
0100
0001
0100
0001
0100
0010
0100
0010
,
1000
0000
0100
0000
0010
0000
0001
0000
1000
0010
1000
0010
0100
0001
0100
0001
,
1000
0000
0100
0000
0010
0000
0001
0000
1000
0010
1000
0010
0100
0001
0100
0001
,
1000
0000
0100
0000
0010
0000
0001
0000
1000
0100
1000
0001
0100
0001
1000
0100
,
1000
0000
0001
0000
0100
0000
0010
0000
1000
0010
1000
0001
0010
0001
1000
0000
,
0010
0000
1000
0100
0010
0001
1000
0000
0010
0000
1000
0100
0010
0001
1000
0000
,
0010
0000
1000
0100
0010
0001
1000
0000
0010
0000
0100
0010
0100
0000
0001
0000
,
0100
0010
0000
1000
0100
0010
0100
0010
0001
0000
0000
0000
0000
0000
0000
0000
;

//---------------dance-double - ----------------
#NOTES:
     dance-double:
     :
     Challenge:
     9:
     0.631891,0.664168,0.211606,0.040956,0.556318,611.000000,31.000000,6.000000,0.000000,0.000000,0.000000,0.631891,0.664168,0.211606,0.040956,0.556318,611.000000,31.000000,6.000000,0.000000,0.000000,0.000000:
00000000
00000000
00000000
00000000
,
00011000
00000000
00000000
00010000
00000100
00000000
00001000
00000000
00000000
00000000
00000100
00000000
00010000
00000000
00000000
00000000
,
00001000
00010000
00001000
00100000
00010000
10000000
00100000
01000000
,
01100000
00000000
00000000
01000000
00100000
00000000
10000000
00000000
00000000
00000000
00100000
00000000
10000000
00000000
00000000
00000000
,
00010000
10000000
01000000
00100000
00010000
00010000
00100000
00001000
,
00101000
00000000
00000000
00100000
00001000
00000000
00010000
00000000
00000000
00000000
00000100
00000000
00001000
00000000
00000000
00000000
,
00000010
00001000
00000100
00000010
00000001
00000001
00000100
00000010
,
00000110
00000000
00000000
00000100
00000001
00000000
00001000
00000000
00000000
00000000
00000010
00000000
00001000
00000000
00000000
00000000
,
00000001
00000010
00000100
00001000
00000010
00000100
00001000
00010000
,
00011000
00000000
00000000
00001000
00010000
00000000
00000100
00000000
00000000
00000000
00001000
00000000
00001000
00000000
00000010
00000000
,
00000100
00000000
00000001
00000000
00001000
00000000
00000010
00000000
00000100
00000001
00000100
00000000
00000010
00000000
00001000
00000000
,
00001100
00000000
00000000
00000100
00010000
00000000
00002000
00000000
00000000
00000000
00013000
00000000
00001000
00000000
00000000
00000000
,
00010000
00000000
00001000
00000000
00100000
00000000
00001000
00000000
01000000
00010000
01000000
00000000
00100000
00000000
10000000
00000000
,
11000000
00000000
00000000
01000000
10000000
00000000
00200000
00000000
00000000
00000000
01300000
00000000
00010000
00000000
00000000
00000000
,
10000000
00100000
01000000
00010000
10000000
01000000
00100000
00010000
,
10010000
00000000
00000000
10000000
00100000
00000000
01000000
00000000
00000000
00000000
00010000
00000000
10000000
00000000
00000000
00000000
,
00100000
10000000
00010000
00100000
00001000
00001000
00100000
00010000
,
01000000
00010000
01000000
00010000
00000000
00000000
00100000
00000000
00001000
00100000
00001000
00100000
00000000
00000000
00001000
00000000
,
00010000
00001000
00010000
00001000
00000000
00000000
00010000
00000000
00000100
00001000
00000100
00001000
00000000
00000000
00000010
00000000
,
00000100
00000000
00000000
00000001
00000000
00000000
00001000
00000100
00001000
00000000
00000000
00000000
00000101
00000000
00000000
00000000
,
00000010
00000000
00000000
00000001
00000000
00000000
00000100
00000000
00000010
00000000
00000010
00000000
00001000
00000000
00000100
00000000
,
00010000
00000000
00000000
00001000
00000000
00000000
00100000
00010000
00100000
00000000
00000000
00000000
00001000
00000000
00000000
00000000
,
00100000
00010000
01000000
00100000
10000000
01000000
10000000
00100000
,
02000000
00000000
00000000
00000000
03000000
00000000
00000000
00010000
,
00020000
00030000
00000000
00110000
,
00101000
00000000
00100000
00001000
00010000
00001000
00100000
00000000
00001000
00000000
00000000
00000000
00110000
00000000
00100000
00000000
,
00010000
00000000
01000000
00000000
00100000
00000000
10000000
01000000
10000000
00000000
00000000
00000000
00100000
00000000
00000000
00000000
,
01000000
00010000
10000000
01000000
00100000
00100000
00010000
10000000
,
00100000
01000000
00000000
00000000
00010000
00100000
00000000
00000000
00001000
00000000
00000000
00000000
00010100
00000000
00000000
00000000
,
00000100
00000000
00001000
00000010
00000100
00000010
00001000
00000000
00000100
00000000
00000010
00000000
00000110
00000000
00000000
00000000
,
00000010
00000000
00000001
00000000
00001000
00000000
00000010
00000100
00000010
00000000
00001000
00000000
00000001
00000100
00000000
00000000
,
00000010
00000000
00000000
00001000
00000000
00000001
00000010
00000000
00000001
00000000
00001000
00000000
00000010
00000000
00000100
00000000
,
00000001
00001000
00000000
00000000
00000010
00000000
00001000
00000000
00001100
00000000
00000000
00000000
00000101
00000000
00000000
00000000
,
00001000
00000000
00000010
00001000
00000100
00001000
00000100
00000000
00000010
00000001
00000100
00000001
00000100
00000000
00000010
00000000
,
00001000
00000000
00001100
00000000
00000100
00000000
00010000
00001000
00010000
00000000
00000100
00000000
00000010
00000000
00000001
00000000
,
00000100
00000110
00000010
00001010
00001000
00000100
00010000
00001000
,
00100000
00010000
00000000
00010000
10000000
00100000
00000000
00100000
01000000
00010000
00000000
00010000
10000000
00000000
00000000
00000000
,
00100000
00000000
10000000
00010000
10000000
00010000
01000000
00000000
00100000
00000000
10000000
00000000
10010000
00000000
00000000
00000000
,
10000000
00000000
11000000
00000000
00010000
00000000
01000000
00100000
10000000
00000000
00010000
00000000
00100000
00010000
00000000
00000000
,
01000000
00000000
00010000
00100000
00000000
00100000
00001000
00000000
00010000
00000000
00000100
00000000
00000010
00000000
00000001
00000000
,
00000100
00000010
00000000
00000000
00001000
00000000
00001000
00000000
00000100
00010000
00000000
00000000
00021000
00000000
00000000
00000000
,
00030100
00000000
00001000
00000010
00000000
00001000
00000010
00000000
00000100
00000000
00000000
00000000
00000000
00000000
00000001
00000000
00000001
00000000
00001000
00000000
00000100
00000000
00000010
00000001
00000000
00000000
00000000
00000000
00000000
00000000
00000000
00000000
,
00000000
00000000
00000100
00000000
00000100
00000000
00000010
00000000
00000010
00000000
00001000
00000000
00000100
00010000
00000000
00000000
00001000
00010000
00000000
00000000
00001000
00100000
00000000
00000000
00010000
00000000
00000000
00000000
00000000
00000000
00000000
00000000
,
10000000
00000000
00000000
00100000
00000000
01000000
00010000
00000000
10000000
00000000
00000000
00000000
00000000
00000000
00000000
00000000
00100000
00000000
01000000
00000000
01000000
00000000
00010000
10000000
00000000
00000000
00000000
00000000
00100000
10000000
00000000
00000000
,
00000000
00000000
00000000
00010000
00000000
00100000
00010000
00000000
00100000
00000000
00010000
00000000
01000000
00000000
00001000
00000000
00100000
00010000
00000000
00000000
00000000
00000000
01000000
00000000
00100000
10000000
00000000
00000000
01000000
00000000
00100000
00000000
,
00020000
00000000
00000000
00000000
00000000
00000000
00030000
00000000
00101000
00000000
00100000
00010000
10000000
00010000
10000000
00000000
,
00100000
00000000
00000000
00000000
01100000
00000000
01000000
00000000
00100000
00000000
10000000
00000000
01000000
00000000
00100000
00010000
,
10000000
00000000
00010000
10000000
00010000
00000000
00000000
00000000
01000000
00000000
00100000
10000000
00100000
00000000
01000000
00000000
,
00010000
00000000
00100000
00000000
00001000
00000000
00010000
00000000
00000100
00000010
00000000
00000010
00000001
00000100
00000000
00000100
,
00000010
00000000
00001000
00000001
00001000
00000000
00000010
00000000
00000100
00000000
00000001
00000100
00001000
00000100
00000010
00000000
,
00001000
00000010
00000001
00000010
00000100
00000000
00000001
00000000
00001000
00000000
00001100
00000000
00000001
00000000
00001000
00000100
,
00000010
00000000
00000001
00000000
00000100
00000010
00000000
00000000
00001000
00000000
00000001
00000010
00000001
00000010
00000100
00000000
,
00001000
00000000
00000010
00000000
00000100
00000000
00000001
00000000
00001000
00000100
00000000
00000000
00001000
00000000
00001000
00000000
,
00001100
00000000
00000000
00000000
00010100
00000000
00000000
00000000
00011000
00000000
00010000
00001000
00000100
00001000
00000100
00000000
,
00000100
00001000
00000100
00001000
00010000
00000000
00001000
00000000
00010000
00000000
00011000
00000000
00001000
00000000
00100000
00010000
,
01000000
00000000
00100000
00000000
10100000
00000000
10000000
00000000
00010000
00000000
10000000
01000000
10000000
00000000
00010000
01000000
,
00010000
00000000
00100000
00010000
00100000
00000000
00010000
00000000
10000000
00100000
00000000
00100000
01000000
00010000
00000000
00010000
,
00100000
00001000
00000000
00001000
00000010
00000000
00000001
00000000
00000100
00000000
00000010
00001000
00000010
00000100
00000001
00000000
,
00001000
00000100
00000010
00000001
00000100
00000000
00000010
00000000
00000100
00000000
00000101
00000000
00000010
00000000
00001000
00000100
,
00000010
00000000
00000001
00001000
00000010
00000100
00000000
00000100
00000001
00000000
00001000
00000010
00000100
00000010
00000100
00000000
,
00000001
00000000
00001000
00000000
00000100
00000010
00000100
00000000
00000010
00000001
00000010
00000000
00000001
00000000
00001000
00000000
,
00000010
00000100
00000010
00000000
00000100
00000000
00001000
00000000
00010000
00001000
00010000
00001000
00010000
00001000
00010000
00001000
,
00100000
00000000
00010000
00000000
01000000
00000000
00100000
00000000
10000000
01000000
10000000
01000000
10000000
01000000
10000000
01000000
,
00100000
00000000
00010000
00000000
10000000
00000000
00100000
00000000
01000000
00010000
01000000
00010000
01000000
00010000
01000000
00010000
,
00100000
00000000
00010000
00000000
10000000
00000000
00100000
00000000
01000000
00010000
01000000
00001000
00010000
00000100
00001000
00000010
,
00000100
00000000
00000100
00000000
00000001
00000000
00000010
00000000
00000001
00000100
00000010
00001000
00000100
00000010
00000001
00000100
,
00000010
00000000
00001000
00000000
00000100
00000000
00010000
00000000
00001000
00010000
00001000
00100000
00010000
10000000
00100000
00000000
,
01000000
00000000
00001000
00010000
00001000
00100000
00010000
00000000
00100000
00000000
00001000
00010000
00001000
00100000
00010000
00000000
,
00100000
00000000
00001000
00010000
00001000
00100000
00010000
00000000
00100000
00000000
00001000
00010000
00001000
00100000
00010000
00000000
,
01000000
00100000
00000000
00100000
10000000
00000000
01000000
00000000
00010000
00000000
00000000
00000000
00000000
00000000
00000000
00000000
;

//---------------dance-single - ----------------
#NOTES:
     dance-single:
     :
     Medium:
     5:
     0.313020,0.355805,0.218432,0.177476,0.000000,263.000000,32.000000,26.000000,0.000000,0.000000,0.000000,0.313020,0.355805,0.218432,0.177476,0.000000,263.000000,32.000000,26.000000,0.000000,0.000000,0.000000:
0000
0000
0000
0000
,
2002
3003
0000
0000
,
0001
0000
0100
0000
0010
1000
0100
0000
,
2200
3300
0000
0000
,
0100
0000
1000
0000
0001
1000
0010
0000
,
0202
0303
0000
0000
,
0001
0000
0100
0000
0001
0010
0100
0000
,
2200
3300
0000
0000
,
0100
0000
1000
0000
0010
0100
0010
0000
,
0110
0101
0000
1000
,
0000
0000
0010
0000
1000
0100
0010
0000
,
0011
1000
0000
0001
,
0000
0000
0100
0000
0010
1000
0100
0000
,
1001
0001
0000
1000
,
0000
0000
0010
0000
0100
0010
1000
0000
,
1010
0001
0000
0010
,
0000
0001
0100
0100
,
0020
1030
2000
3100
,
0200
0000
0310
0000
0020
0000
0031
1000
,
0002
0003
0100
0000
,
0001
0100
0010
0010
,
2000
3000
0100
0000
,
1000
0010
0100
0100
,
0002
0000
0003
0000
,
2000
0000
3000
0000
,
1001
0000
1000
0100
1000
0000
0001
0000
,
0100
0000
0010
1000
0001
0000
0000
0000
,
1000
1100
0001
0011
,
2000
3002
0203
0300
,
0001
0101
1010
0001
,
1000
0000
0100
0100
0100
0000
0010
0000
,
0000
0000
0001
0010
0001
0000
0100
0000
,
0010
0000
1000
0001
1000
0000
0000
0000
,
1001
0110
1001
0100
,
0001
0000
1000
0100
0010
0000
0000
0000
,
0001
0000
0100
0000
0010
1000
0010
0000
,
1000
0100
1000
0000
0001
0000
0000
0000
,
1001
0110
1001
0000
,
0001
0100
0001
0100
0010
0000
0000
0000
,
1000
0000
0010
0010
0010
0000
1000
0000
,
0001
0010
0001
1001
,
2000
3000
0001
0001
,
0200
0000
0300
0000
0010
0010
0010
0000
,
1000
0001
0020
0030
,
0001
0000
0000
0000
0100
0000
0100
0100
,
0200
0300
1001
1000
,
0010
0000
0101
0000
1000
0000
0010
1000
,
0100
0000
1000
0001
,
0010
0001
0100
0000
0010
1000
0100
0000
,
1000
0000
1001
0010
,
0001
0000
1100
0000
0001
0000
0100
0010
,
0100
0000
0002
0000
0003
0000
1000
0010
,
1000
0000
0001
0000
0010
0000
0001
1000
,
0010
0000
1001
0101
,
1100
0000
1001
0000
0010
0000
0001
0010
,
0100
0000
1000
0000
0010
1000
0010
1000
,
0100
0100
1100
0110
,
0011
0000
0000
0000
1000
0000
0001
1000
,
0010
0000
0000
0000
1000
0100
0010
0001
,
0100
0000
0000
0000
0001
0000
0100
0100
,
0100
0001
1000
0000
,
0010
1000
0001
0001
,
0010
0001
0100
0000
0010
0000
0010
0000
,
2000
3002
1003
1000
,
0100
1000
0010
0000
0100
0000
0001
0000
,
1000
0001
1000
0000
0010
0000
0100
0000
,
0001
0001
0001
0000
0100
0000
0010
0000
,
0000
1000
0100
0000
0000
1000
0100
0000
,
0000
1000
0100
0000
0000
1000
0100
0000
,
0010
0000
0001
1000
0010
0000
0000
0000
;

//---------------dance-single - ----------------
#NOTES:
     dance-single:
     :
     Easy:
     3:
     0.194053,0.237203,0.068260,0.116042,0.000000,172.000000,10.000000,17.000000,0.000000,0.000000,0.000000,0.194053,0.237203,0.068260,0.116042,0.000000,172.000000,10.000000,17.000000,0.000000,0.000000,0.000000:
// measure 0
0000
0000
0000
0000
,  // measure 1
2002
3003
0000
0000
,  // measure 2
1000
0000
0001
0100
,  // measure 3
0020
0030
0000
0000
,  // measure 4
1000
0000
0010
1000
,  // measure 5
0002
0003
0000
0000
,  // measure 6
0010
0000
0001
1000
,  // measure 7
0200
0300
0000
0000
,  // measure 8
1000
0000
0001
1000
,  // measure 9
0020
0030
0010
0000
,  // measure 10
1000
0000
0001
1000
,  // measure 11
0200
0300
0100
0000
,  // measure 12
1000
0000
0010
0100
,  // measure 13
0002
0003
0001
0000
,  // measure 14
0100
0000
0001
1000
,  // measure 15
0020
0030
0010
0000
,  // measure 16
1000
0001
0100
0000
,  // measure 17
0002
0003
1000
0000
,  // measure 18
2000
3000
0001
0000
,  // measure 19
2002
3003
0000
0000
,  // measure 20
1000
0001
0100
0100
,  // measure 21
0020
0030
0000
0000
,  // measure 22
0100
0000
0001
1000
,  // measure 23
0002
0003
0000
0000
,  // measure 24
2000
3000
0000
0000
,  // measure 25
1001
1000
0010
0000
,  // measure 26
0100
0001
1000
0000
,  // measure 27
0000
0010
0010
1000
,  // measure 28
0100
0010
0001
0000
,  // measure 29
1000
0100
1000
0000
,  // measure 30
0001
0100
0001
0000
,  // measure 31
0000
0100
0010
0000
,  // measure 32
0010
1000
0001
0000
,  // measure 33
1001
0001
0100
0000
,  // measure 34
0001
1000
0100
0000
,  // measure 35
0000
1000
0010
0100
,  // measure 36
0001
0001
0001
0000
,  // measure 37
1000
0001
1000
0000
,  // measure 38
0001
0100
0001
0000
,  // measure 39
0000
1000
0010
0000
,  // measure 40
0100
0010
1000
0000
,  // measure 41
1001
0000
0000
0000
,  // measure 42
0001
0000
1000
1000
,  // measure 43
0010
0000
0100
0000
,  // measure 44
0001
0001
1000
1000
,  // measure 45
0020
0030
1001
0000
,  // measure 46
0000
0000
1000
0100
,  // measure 47
0010
0000
0001
0000
,  // measure 48
0000
0000
0100
0001
,  // measure 49
1000
0000
0010
0000
,  // measure 50
0010
0000
1000
1000
,  // measure 51
0100
0000
1000
0001
,  // measure 52
1000
0000
0001
0001
,  // measure 53
0100
0000
0000
0010
,  // measure 54
0100
0000
0001
1000
,  // measure 55
0100
0000
0000
0010
,  // measure 56
0010
0001
0100
0100
,  // measure 57
0100
0000
0000
0001
,  // measure 58
1000
0000
0010
0010
,  // measure 59
1000
0000
0001
1000
,  // measure 60
0001
0000
1000
0000
,  // measure 61
1000
0000
0001
0100
,  // measure 62
0001
0000
1000
0010
,  // measure 63
1000
0000
0001
0010
,  // measure 64
0001
0001
0100
0100
,  // measure 65
0100
0000
0010
1000
,  // measure 66
0100
0000
1000
0001
,  // measure 67
0000
1001
0000
1001
,  // measure 68
0000
1001
0000
1001
,  // measure 69
0000
0100
0100
0000
;

//---------------dance-single - ----------------
#NOTES:
     dance-single:
     :
     Beginner:
     1:
     0.097514,0.166042,0.027304,0.000000,0.000000,96.000000,4.000000,0.000000,0.000000,0.000000,0.000000,0.097514,0.166042,0.027304,0.000000,0.000000,96.000000,4.000000,0.000000,0.000000,0.000000,0.000000:
// measure 0
0000
0000
0000
0000
,  // measure 1
1000
0000
0000
0000
,  // measure 2
0000
0000
0000
0000
,  // measure 3
0001
0000
0000
0000
,  // measure 4
0000
0000
0000
0000
,  // measure 5
0100
0000
0000
0000
,  // measure 6
0000
0000
0000
0000
,  // measure 7
0010
0000
0000
0000
,  // measure 8
0000
0000
0000
0000
,  // measure 9
1000
0000
0000
0000
,  // measure 10
0001
0000
0000
0000
,  // measure 11
0100
0000
0000
0000
,  // measure 12
0010
0000
0000
0000
,  // measure 13
1000
0000
0000
0000
,  // measure 14
0001
0000
0000
0000
,  // measure 15
0100
0000
0000
0000
,  // measure 16
0100
0000
0000
0000
,  // measure 17
0001
0000
0001
0000
,  // measure 18
0001
0000
0001
0000
,  // measure 19
0001
0000
0000
0000
,  // measure 20
1000
0000
0000
0000
,  // measure 21
0010
0000
0000
0000
,  // measure 22
0100
0000
0000
0000
,  // measure 23
0001
0000
0000
0000
,  // measure 24
0000
0000
0000
0000
,  // measure 25
1001
0000
0000
0000
,  // measure 26
0100
0100
0100
0000
,  // measure 27
0100
0000
0000
0000
,  // measure 28
0001
0000
0000
0000
,  // measure 29
1000
1000
1000
0000
,  // measure 30
1000
0000
0000
0000
,  // measure 31
0000
0010
0010
0000
,  // measure 32
0010
0000
0010
0000
,  // measure 33
0010
0000
0000
0000
,  // measure 34
0100
0100
0100
0000
,  // measure 35
0100
0000
0000
0000
,  // measure 36
0001
0001
0001
0000
,  // measure 37
0000
0000
0000
0000
,  // measure 38
1000
0000
0000
0000
,  // measure 39
0000
0010
0010
0000
,  // measure 40
0010
0010
0010
0000
,  // measure 41
0000
0000
0000
0000
,  // measure 42
1000
0000
1000
0000
,  // measure 43
0001
0000
0001
0000
,  // measure 44
0100
0000
0100
0100
,  // measure 45
0100
0000
1001
0000
,  // measure 46
0000
0000
0010
0010
,  // measure 47
0010
0000
0000
0000
,  // measure 48
0001
0000
0001
0000
,  // measure 49
0001
0000
0000
0100
,  // measure 50
0100
0000
0100
0100
,  // measure 51
0100
0000
0000
0010
,  // measure 52
0010
0000
0010
0000
,  // measure 53
0010
0000
0000
0000
,  // measure 54
0000
1001
0000
0000
,  // measure 55
1000
0000
0000
0100
,  // measure 56
0100
0000
0000
0100
,  // measure 57
0100
0000
0000
0000
,  // measure 58
0000
1001
0000
0000
,  // measure 59
0001
0000
0000
0100
,  // measure 60
0100
0000
0100
0000
,  // measure 61
0100
0000
0100
0000
,  // measure 62
0000
0000
0001
0000
,  // measure 63
0000
0000
1000
0000
,  // measure 64
0000
0000
0010
0000
,  // measure 65
0000
0000
0100
0000
,  // measure 66
0000
0000
0001
0000
,  // measure 67
0000
1000
0000
1000
,  // measure 68
0000
1000
0000
1000
,  // measure 69
0000
0000
0010
0000
;
