#VERSION:0.82;
#TITLE:Short Skirt / Long Jacket;
#SUBTITLE:;
#ARTIST:Cake;
#TITLETRANSLIT:;
#SUBTITLETRANSLIT:;
#ARTISTTRANSLIT:;
#GENRE:I just want the cake;
#ORIGIN:;
#CREDIT:;
#BANNER:Short Skirt Long Jacket.png;
#BACKGROUND:Short Skirt Long Jacket-bg.png;
#PREVIEWVID:;
#JACKET:jacket.png;
#CDIMAGE:;
#DISCIMAGE:;
#LYRICSPATH:;
#CDTITLE:cdtitle.png;
#MUSIC:Short Skirt Long Jacket.ogg;
#OFFSET:-1.665000;
#SAMPLESTART:93.668358;
#SAMPLELENGTH:14.339993;
#SELECTABLE:YES;
#DISPLAYBPM:120;
#BPMS:0.000=120.000,
191.000=121.500,
195.000=120.000,
234.000=117.000,
235.000=120.000;
#STOPS:97.000=2.505;
#DELAYS:;
#WARPS:;
#TIMESIGNATURES:0.000=4=4;
#TICKCOUNTS:0.000=4;
#COMBOS:0.000=1;
#SPEEDS:0.000=1.000=0.000=0;
#SCROLLS:0.000=1.000;
#FAKES:;
#LABELS:0.000=Song Start;
#BGCHANGES:3.330=Short Skirt Long Jacket.avi=1.000=0=0=1=====,
99999=-nosongbg-=1.000=0=0=0 // don't automatically add -songbackground-
;
#KEYSOUNDS:;
#ATTACKS:
;

//---------------dance-single - ----------------
#NOTEDATA:;
#CHARTNAME:;
#STEPSTYPE:dance-single;
#DESCRIPTION:;
#CHARTSTYLE:;
#DIFFICULTY:Hard;
#METER:9;
#RADARVALUES:0.606223,0.691678,0.320557,0.343454,0.267131,469.000000,42.000000,45.000000,0.000000,0.000000,0.000000,0.000000,0.000000,0.606223,0.691678,0.320557,0.343454,0.267131,469.000000,42.000000,45.000000,0.000000,0.000000,0.000000,0.000000,0.000000;
#CREDIT:Ben Speirs;
#NOTES:
// measure 0
0000
0000
0000
0000
,  // measure 1
0000
0000
0000
0000
,  // measure 2
0000
0000
0000
0000
,  // measure 3
2000
0000
0000
0000
3001
0000
0000
1000
0100
1000
0100
0000
0020
0000
0000
0000
,  // measure 4
0031
0000
0000
1000
0100
1000
0100
1000
0000
0000
0001
0100
0001
0000
0100
0000
,  // measure 5
0120
0000
1030
0010
0200
0000
0301
1000
,  // measure 6
0200
0000
0000
0000
0310
0001
0010
0001
0000
0000
1000
0000
0001
0000
1000
0000
,  // measure 7
0020
0000
0130
0001
2000
0000
3010
1000
,  // measure 8
0200
0000
0000
0000
1300
0001
1000
0001
0000
0000
1000
0000
0010
0000
0100
0000
,  // measure 9
0201
0000
0310
1000
0200
0000
0310
0001
,  // measure 10
1000
0000
0000
0000
0010
0100
0010
0100
0000
0000
0001
0000
0100
0000
0010
0000
,  // measure 11
1000
0200
0000
0310
0002
0000
2003
0000
,  // measure 12
3001
0000
0100
0000
0010
0000
0100
0000
1000
0000
0100
0001
0100
0000
0010
0000
,  // measure 13
2010
0000
3001
0010
0001
0100
0010
1000
,  // measure 14
1200
0000
0310
0001
0010
0100
1000
0001
,  // measure 15
0201
0000
0310
0100
0001
0010
0100
1000
,  // measure 16
2001
0000
3010
1000
0100
0010
0001
0100
,  // measure 17
0020
0000
0000
0000
1030
0000
0001
0100
0001
0000
0100
0000
0010
0000
1000
0000
,  // measure 18
0200
0000
0000
0000
0310
0000
0001
1000
0001
0000
0010
0000
0100
0000
1000
0000
,  // measure 19
0002
0000
0000
0000
0103
0000
0010
1000
0010
0000
1000
0000
0100
0000
0010
0000
,  // measure 20
0001
0001
1000
1000
0001
0001
1000
1000
,  // measure 21
1010
0010
0100
0001
2000
0000
3001
0100
,  // measure 22
0002
0000
2003
0000
3001
0010
0100
1000
,  // measure 23
0010
0000
0100
0001
0100
0000
0010
1000
0010
0000
1000
0100
1000
0000
0001
0010
,  // measure 24
0001
1000
0000
0000
0000
0000
2100
0000
,  // measure 25
3001
0000
0000
0100
0001
0100
0001
0000
1000
0000
0000
0000
0001
0000
0000
0010
,  // measure 26
0100
0010
0100
0010
0000
0000
0100
0000
1000
0000
0010
0000
0200
0000
0000
0000
,  // measure 27
0301
0000
0000
1000
0100
1000
0100
0000
0010
0000
0000
0000
0001
0000
0000
1000
,  // measure 28
0001
1000
0001
1000
0000
0000
0010
0100
0010
0000
0100
0000
0001
0000
1000
0000
,  // measure 29
0010
0000
0100
0000
0001
1000
0001
0000
0100
0000
0010
0000
1000
0000
0100
0000
,  // measure 30
0010
0001
0010
0000
0011
0000
0000
0000
1001
0000
0000
0000
1100
0000
0100
0000
,  // measure 31
0010
0000
0001
0000
1000
0010
1000
0000
0001
0000
0010
0000
0100
0000
1000
0000
,  // measure 32
0001
0100
0001
0000
0101
0000
0000
0000
1001
0000
0000
0000
1100
0000
0100
0000
,  // measure 33
0010
0000
0001
0000
1000
0010
1000
0000
0001
0000
0010
0000
0100
0000
1000
0000
,  // measure 34
0001
0100
0001
0000
0101
0000
0000
0000
1010
0000
0000
0000
1001
0000
0001
0000
,  // measure 35
0010
0210
0000
0000
1300
0100
0010
0011
,  // measure 36
0000
0000
1001
0000
0000
0000
1000
0100
1000
0000
0010
0000
0100
0000
0100
0000
,  // measure 37
0001
2001
0000
3010
1000
0100
0010
0010
,  // measure 38
0001
2100
0000
3001
1000
0010
0100
0100
,  // measure 39
0001
1020
0000
0130
0001
1000
0100
0100
,  // measure 40
0010
1002
0000
0103
0010
1000
0001
0001
,  // measure 41
0010
0000
0100
1000
0100
0000
1000
0000
0010
0000
0010
0000
1000
0000
0100
0000
,  // measure 42
0010
0000
0001
1000
0001
0000
1000
0000
0010
0000
0010
0000
0100
0000
0001
0000
,  // measure 43
0010
0000
0001
0100
0001
0000
1000
0000
0010
0000
0010
0000
0110
0000
0100
0000
,  // measure 44
0101
0001
1001
1000
1100
0100
0120
0000
,  // measure 45
0031
0010
0200
0000
1300
0010
2000
0000
,  // measure 46
3002
0000
0000
0000
1003
0000
0100
0000
0020
0000
0000
0000
0031
0000
1000
0100
,  // measure 47
1000
0000
0001
0100
0001
0000
1000
0010
1000
0000
0001
0100
0020
0000
0000
0000
,  // measure 48
0030
0000
0000
0000
1001
0000
0011
0010
,  // measure 49
0100
0010
0001
1000
1100
0000
1010
1000
,  // measure 50
0010
0000
0100
0000
0001
1000
0001
1000
0010
0000
0000
0000
1010
0000
1000
0000
,  // measure 51
0100
0010
0001
1000
1001
0000
1010
0010
,  // measure 52
0100
0000
0001
0000
1000
0100
1000
0100
0010
0000
0000
0000
0011
0000
0010
0000
,  // measure 53
0100
1000
0001
0100
0101
0000
1010
0010
,  // measure 54
0100
0000
0001
0000
1000
0100
1000
0100
0010
0000
0000
0000
0001
1000
0020
0000
,  // measure 55
0100
0000
1030
0001
0020
0000
0100
0000
0031
1000
0020
0000
0100
0000
1030
0001
,  // measure 56
0020
0000
0100
0000
0031
1000
0020
0000
0100
0000
1030
0001
0020
0000
0100
0000
,  // measure 57
0031
1000
0020
0000
0100
0000
1030
0001
0020
0000
0100
0000
0031
1000
0020
0000
,  // measure 58
0100
0000
1030
0001
0010
0000
0001
0100
0010
0000
0000
0000
1001
0000
1000
0000
,  // measure 59
0100
0000
1000
0000
0001
0100
0001
0000
0100
0000
0010
0000
1000
0000
0000
0001
,  // measure 60
0010
0001
0010
0001
1000
0000
0010
0000
0100
0000
0001
0000
1001
0000
0001
0000
,  // measure 61
0010
0000
0001
0000
1000
0010
1000
0000
0010
0000
0100
0000
0001
0000
0000
1000
,  // measure 62
0100
1000
0100
1000
0001
0000
0100
0000
1010
0000
0000
0000
0000
0000
0000
0000
;

//---------------dance-double - ----------------
#NOTEDATA:;
#CHARTNAME:;
#STEPSTYPE:dance-double;
#DESCRIPTION:;
#CHARTSTYLE:;
#DIFFICULTY:Challenge;
#METER:8;
#RADARVALUES:0.556068,0.548572,0.282395,0.267131,0.202256,438.000000,37.000000,35.000000,0.000000,0.000000,0.000000,0.000000,0.000000,0.556068,0.548572,0.282395,0.267131,0.202256,438.000000,37.000000,35.000000,0.000000,0.000000,0.000000,0.000000,0.000000;
#CREDIT:Ben Speirs;
#NOTES:
00000000
00000000
00000000
00000000
,
00000000
00000000
00000000
00000000
,
00000000
00000000
00000000
00000000
,
00000000
00000000
00000000
00000000
,
00000000
00000000
00000000
00000000
,
00010200
00000000
00001300
00000010
00000200
00000000
00000301
00001000
,
00000020
00000000
00000130
00000001
00000010
00000100
00001000
00000010
,
00000200
00000000
00000301
00001000
00000200
00000000
00001300
00000100
,
00010100
00011000
00210000
00301000
,
00100000
00010000
01000000
00100000
20000000
00000000
30100000
10000000
,
00010000
00200000
00000000
00320000
00000000
20030000
00000000
30100000
,
01000000
00010000
10000000
00010000
01000000
00000000
02010000
00000000
,
03100000
00000000
10000000
00000000
01000000
00000000
00100000
00000000
00010000
00000000
10000000
00100000
10000000
00000000
00010000
00000000
,
00120000
00000000
10030000
00100000
01000000
00010000
00010000
00100000
,
00201000
00000000
00310000
00100000
00001000
00001000
00010000
00000100
,
00002100
00000000
00003010
00000100
00000010
00000010
00000100
00000001
,
00001002
00000000
00001003
00000010
00000100
00000100
00000001
00001000
,
00000020
00000000
00000000
00000000
00001030
00000000
00000001
00000010
00000100
00000000
00001000
00000000
00000010
00000000
00000010
00000000
,
00000200
00000000
00000000
00000000
00000310
00000000
00001000
00000100
00010000
00000000
00001000
00000000
00010000
00000000
00010000
00000000
,
00000200
00000000
00000000
00000000
00000310
00000000
00000001
00000100
00000010
00000000
00000100
00000000
00000001
00000000
00000001
00000000
,
00000100
00001000
00010000
00001000
00010000
00100000
00010000
00100000
,
10000000
01000000
00100000
00010000
20000000
00000000
30100000
01000000
,
00020000
00000000
20030000
00000000
30100000
01000000
00020000
00000000
,
10030000
00000000
01000000
00100000
01000000
00000000
00100000
00010000
00100000
00000000
00001000
00100000
00001000
00000000
00010000
00001000
,
00010000
00000100
00000000
00000000
00000000
00000000
00001002
00000000
,
00000103
00000000
00000000
00000001
00001000
00000001
00001000
00000000
00000010
00000000
00000000
00000000
00000100
00000000
00000000
00000001
,
00000010
00000001
00000010
00000001
00000000
00000000
00000100
00000000
00000010
00000000
00001000
00000000
00000200
00000000
00000000
00000000
,
00010300
00000000
00000000
00000100
00010000
00000100
00010000
00000000
00001000
00000000
00000000
00000000
00010000
00000000
00000000
00001000
,
00100000
00001000
00100000
00001000
00000000
00000000
00010000
00000000
00000100
00000000
00001000
00000000
00000010
00000000
00000100
00000000
,
00000001
00000100
00000010
00001000
00000100
00000010
00000001
00001000
,
00000010
00000100
00000101
00000000
00001100
00000000
00001001
00000001
,
00000100
00000010
00001000
00000100
00010000
00001000
00000100
00001000
,
00010000
00001000
00101000
00000000
00110000
00000000
10010000
10000000
,
00100000
01000000
00010000
00100000
10000000
00100000
00010000
01000000
,
00100000
10000000
10100000
00000000
10010000
00000000
00110000
00100000
,
00001000
00102000
00000000
00000000
00013000
00000100
00010000
00010100
,
00000000
00000000
00001001
00000000
00000000
00000000
00000010
00000100
00000010
00000000
00000100
00000000
00000001
00000000
00000001
00000000
,
00000100
00001020
00000000
00001030
00000100
00001000
00000001
00000001
,
00000010
00002001
00000000
00003010
00001000
00000100
00010000
00010000
,
00000100
00021000
00000000
00031000
00010000
00001000
00100000
00100000
,
00010000
00102000
00000000
00103000
00010000
01000000
00100000
00100000
,
10000000
00000000
00010000
01000000
00100000
00000000
01000000
00000000
00010000
00000000
00010000
00000000
01000000
00000000
00100000
00000000
,
10000000
00000000
01000000
10000000
00100000
00000000
01000000
00000000
00010000
00000000
00010000
00000000
00100000
00000000
00010000
00000000
,
01000000
00000000
00001000
00100000
00010000
00000000
00100000
00000000
00001000
00000000
00001000
00000000
00011000
00000000
00010000
00000000
,
00010100
00000100
00001100
00001000
00001010
00000010
00000110
00000100
,
00000001
00001000
00000020
00000000
00000130
00000001
00002000
00000000
,
00003200
00000000
00000000
00000000
00000310
00000000
00000001
00000000
00002000
00000000
00000000
00000000
00003010
00000000
00000100
00000010
,
00000100
00000000
00000001
00000100
00000001
00000000
00001000
00000100
00001000
00000000
00000100
00010000
00000100
00000000
00000000
00000000
,
00000000
00000000
00000000
00000000
00000000
00000000
00000000
00010000
00001000
00000000
00000000
00000000
00011000
00000000
00010000
00000000
,
00001000
00100000
00010000
01000000
00100000
10000000
01000000
00100000
,
00010000
00000000
10000000
00000000
00100000
01000000
00100000
01000000
00010000
00000000
00000000
00000000
01010000
00000000
01000000
00000000
,
00100000
10000000
01000000
00100000
00010000
01000000
00100000
01000000
,
00010000
00000000
00100000
00000000
00001000
00100000
00001000
00100000
00010000
00000000
00000000
00000000
00100000
00000000
00010000
00000000
,
01000000
00001000
00010000
00000100
00010000
00001000
00100000
00001000
,
00010000
00000000
00000100
00000000
00001000
00000010
00001000
00000010
00000100
00000000
00000000
00000000
00000001
00001000
00000010
00000000
,
00001000
00000000
00000001
00001000
00000010
00000000
00001000
00000000
00000001
00001000
00000010
00000000
00001000
00000000
00000001
00001000
,
00000010
00000000
00001000
00000000
00000001
00001000
00000010
00000000
00001000
00000000
00000001
00000100
00000010
00000000
00001000
00000000
,
00000001
00000100
00000010
00000000
00001000
00000000
00000001
00000100
00000010
00000000
00001000
00000000
00000001
00000100
00000010
00000000
,
00001000
00000000
00000100
00010000
00001000
00000000
00000000
00000000
00011000
00000000
00000000
00000000
00201000
00000000
00000000
00000000
,
00310000
00000000
00000000
10000000
00010000
10000000
00010000
00000000
10000000
00000000
00100000
00000000
01000000
00000000
00000000
00010000
,
01000000
00010000
01000000
00010000
00000000
00000000
01000000
00000000
00100000
00000000
10000000
00000000
21000000
00000000
00000000
00000000
,
30100000
00000000
00000000
10000000
01000000
10000000
01000000
00000000
10000000
00000000
00100000
00000000
01000000
00000000
00000000
00010000
,
00100000
00010000
00100000
00001000
00100000
00000000
00000100
00000000
00010100
00000000
00000000
00000000
00000000
00000000
00000000
00000000
;

//---------------dance-single - ----------------
#NOTEDATA:;
#CHARTNAME:;
#STEPSTYPE:dance-single;
#DESCRIPTION:;
#CHARTSTYLE:;
#DIFFICULTY:Medium;
#METER:6;
#RADARVALUES:0.388157,0.453168,0.190808,0.404512,0.000000,278.000000,25.000000,53.000000,0.000000,0.000000,0.000000,0.000000,0.000000,0.388157,0.453168,0.190808,0.404512,0.000000,278.000000,25.000000,53.000000,0.000000,0.000000,0.000000,0.000000,0.000000;
#CREDIT:Ben Speirs;
#NOTES:
0000
0000
0000
0000
,
0000
0000
0000
0000
,
0000
0000
0000
0000
,
0200
0000
0301
0000
1000
1000
0010
0000
,
1000
0000
0001
0010
0100
1000
0010
0000
,
0200
0000
0301
1000
0020
0000
1030
0001
,
0020
0000
0031
1000
0200
0000
1300
0000
,
0010
0000
0100
0001
2000
0000
3010
1000
,
0200
0000
0310
0001
0200
0000
0310
0000
,
0100
0000
0001
1000
0020
0000
1030
0001
,
0020
0000
0031
1000
0200
0000
1300
0000
,
0020
0000
0030
0200
0000
0300
0000
0000
,
0000
0101
0000
1100
0000
1001
0000
0000
,
2000
0000
3010
0000
1000
0100
0000
0010
,
0002
0000
1003
0000
0001
0100
0000
0010
,
2000
0000
3001
0000
1000
0001
0000
0100
,
0020
0000
1030
0000
0001
1000
0000
0001
,
0020
0000
0030
0001
0010
0001
0010
0010
,
0200
0000
0300
1000
0100
1000
0100
0100
,
2000
0000
3000
0010
1000
0010
1000
1000
,
0010
0100
0001
1000
,
1001
0000
1000
0100
1000
0000
0001
0100
,
0001
0000
1000
0000
0010
0100
0001
0000
,
2000
3200
0302
0023
,
1030
0001
0000
0000
0000
0000
2010
0000
,
3001
0000
0010
0010
0000
0000
0000
0000
,
0001
1000
0010
0100
0001
0000
0102
0000
,
1003
0000
0010
0010
0000
0000
0000
0000
,
1000
0010
0100
0001
1000
0000
0100
0000
,
1000
0000
0010
0000
0100
0000
0001
1000
,
0010
1010
1100
0101
,
1000
0000
0001
0000
0010
0001
0100
0000
,
0010
1010
0110
0101
,
1000
0000
0001
0000
0010
0001
1000
0000
,
0100
1100
0110
0011
,
0000
1000
0000
0000
0000
0000
0000
1010
,
0000
1001
0000
0101
0000
0000
0002
0000
,
0103
0000
0010
0100
0010
0000
2000
0000
,
3001
0000
1000
0100
1000
0000
0002
0000
,
0013
0000
0001
0100
0001
0000
2000
0000
,
3010
0000
0100
0001
0100
0000
0010
0000
,
0000
0101
0000
0000
0010
1000
0100
0000
,
0000
1100
0000
0000
1000
0001
0010
0000
,
0000
0011
0000
0000
0001
1000
0020
0000
,
0230
0302
1003
1001
,
1000
0100
1000
0000
0001
0100
0001
0000
,
1000
0000
0001
0010
0001
0000
2000
0000
,
3020
0032
0203
2300
,
0000
0000
0000
0000
3001
0000
1000
0100
,
1000
0100
1000
0001
0000
0000
0001
0100
,
0001
0000
0200
0000
0320
0000
0130
0001
,
0100
0001
0100
0010
0000
0000
0100
0001
,
0100
0000
0002
0000
1003
0000
0001
0010
,
0001
0010
0001
0100
0000
0000
0001
0000
,
1000
0010
1000
0000
0001
0000
0100
0020
,
0000
0130
0020
0000
0130
0020
0000
0130
,
0020
0000
0130
0020
0000
0130
0020
0000
,
0130
0020
0000
0130
0020
0000
0130
0020
,
0000
0130
0010
0000
0110
0000
2002
0000
,
0000
0000
0000
3003
,
1000
0100
0001
0020
,
0030
0000
0001
0100
0000
0000
0000
0010
,
0100
0001
1000
0100
1001
0000
0000
0000
;

//---------------dance-single - ----------------
#NOTEDATA:;
#CHARTNAME:;
#STEPSTYPE:dance-single;
#DESCRIPTION:;
#CHARTSTYLE:;
#DIFFICULTY:Easy;
#METER:3;
#RADARVALUES:0.209343,0.286211,0.183175,0.091588,0.000000,156.000000,24.000000,12.000000,0.000000,0.000000,0.000000,0.000000,0.000000,0.209343,0.286211,0.183175,0.091588,0.000000,156.000000,24.000000,12.000000,0.000000,0.000000,0.000000,0.000000,0.000000;
#CREDIT:Ben Speirs;
#NOTES:
0000
0000
0000
0000
,
0000
0000
0000
0000
,
0000
0000
0000
0000
,
1001
0000
1000
0001
,
0100
0000
0010
0000
,
0100
0001
1000
1000
,
0010
1000
0001
0000
,
0010
0001
1000
1000
,
0100
1000
0001
0000
,
0100
0001
1000
1000
,
0010
0100
0001
0000
,
1000
0000
0001
0000
,
0100
0010
1000
0000
,
2002
3003
0000
1000
,
0020
0030
0000
1000
,
0002
0003
0000
0010
,
0002
0003
0000
0100
,
0020
0030
1000
0001
,
0200
0300
0001
0010
,
0200
0300
1000
0010
,
0100
0100
0100
0100
,
2002
3003
0000
0000
,
1000
0001
0000
0000
,
0100
0100
0010
0010
,
1001
0000
0000
0010
,
0000
0010
1000
0000
,
0001
0010
0000
0001
,
0000
0100
0100
0000
,
0001
1000
0000
0010
,
1000
0001
0000
0010
,
0000
1001
1001
1001
,
0000
0001
0000
1000
,
0000
1001
1001
1001
,
0000
1000
0001
0100
,
0000
1001
1001
1001
,
0000
0100
0000
0010
,
0010
0010
0000
1000
,
0000
1001
0000
0001
,
0000
1001
0000
0100
,
0000
0110
0000
0010
,
0000
0110
0000
1000
,
0000
0010
0100
0001
,
0000
0100
0001
1000
,
0000
0100
1000
0010
,
0010
0010
0010
1001
,
0000
0000
0000
0001
,
0010
0000
0000
0001
,
0001
1000
1000
0010
,
0000
0000
0110
1001
,
0000
1000
0000
0010
,
0100
0010
0010
1000
,
0000
1000
0000
0001
,
0100
0001
0001
1000
,
0000
1000
0000
0001
,
0010
0001
0001
0100
,
0000
0100
0000
0100
,
0000
0100
0000
0010
,
0000
0010
0000
0010
,
0000
1001
1001
2002
,
0000
0000
0000
0000
,
0000
3003
0000
1000
,
0000
0010
0010
0000
,
0100
0001
0110
0000
;

//---------------dance-single - ----------------
#NOTEDATA:;
#CHARTNAME:;
#STEPSTYPE:dance-single;
#DESCRIPTION:;
#CHARTSTYLE:;
#DIFFICULTY:Beginner;
#METER:2;
#RADARVALUES:0.114485,0.166957,0.015265,0.000000,0.000000,103.000000,2.000000,0.000000,0.000000,0.000000,0.000000,0.000000,0.000000,0.114485,0.166957,0.015265,0.000000,0.000000,103.000000,2.000000,0.000000,0.000000,0.000000,0.000000,0.000000,0.000000;
#CREDIT:Ben Speirs;
#NOTES:
0000
0000
0000
0000
,
0000
0000
0000
0000
,
0000
0000
0000
0000
,
0001
0000
0000
0000
,
1000
0000
0000
0000
,
0010
0000
0010
0000
,
0010
0000
0000
0000
,
0100
0000
0100
0000
,
0100
0000
0000
0000
,
0001
0000
0001
0000
,
0001
0000
0000
0000
,
1000
0000
0000
0000
,
0010
0000
0000
0000
,
0000
1000
1000
0000
,
0000
0001
0001
0000
,
0000
0100
0100
0000
,
0000
0010
0010
0000
,
1000
0000
1000
0000
,
1000
0000
0000
0000
,
0001
0000
0001
0000
,
0001
0000
0000
0000
,
1001
0000
0000
0000
,
0100
0100
0000
0000
,
0010
0010
0010
0010
,
0010
0000
0000
1000
,
0000
1000
0000
0000
,
0001
0001
0000
0001
,
0000
0001
0000
0000
,
0100
0100
0000
0100
,
0000
0000
0000
0010
,
0000
0010
0000
1000
,
0000
0000
0000
1000
,
0000
1000
0000
0100
,
0000
0000
0000
0100
,
0000
0100
0000
0010
,
0000
0000
0000
0001
,
0000
0000
0000
0000
,
0010
0000
0000
0000
,
0100
0000
0000
0000
,
0001
0000
0000
0000
,
1000
0000
0000
0000
,
0000
0010
0010
0000
,
0000
1000
1000
0000
,
0000
0001
0000
0100
,
0100
0100
0100
0100
,
0000
0000
0000
0001
,
0001
0000
0000
1000
,
1000
1000
1000
1000
,
0000
0000
0000
1001
,
0000
0000
0000
0001
,
0001
0001
0000
0001
,
0000
0000
0000
0010
,
0010
0010
0000
0010
,
0000
0000
0000
0100
,
0100
0100
0000
1000
,
0000
1000
0000
1000
,
0000
1000
0000
1000
,
0000
1000
0000
1000
,
0000
1000
1000
1000
,
0000
0000
0000
0000
,
0000
0000
0000
0010
,
0000
0010
0010
0000
,
0100
0100
0100
0000
;
