#VERSION:0.82;
#TITLE:Say You Don't Want It;
#SUBTITLE:;
#ARTIST:One Night Only;
#TITLETRANSLIT:;
#SUBTITLETRANSLIT:;
#ARTISTTRANSLIT:;
#GENRE:EMMA WATSON?!;
#ORIGIN:;
#CREDIT:;
#BANNER:Say You Don't Want It.png;
#BACKGROUND:Say You Don't Want It-bg.png;
#PREVIEWVID:;
#JACKET:jacket.png;
#CDIMAGE:;
#DISCIMAGE:;
#LYRICSPATH:;
#CDTITLE:;
#MUSIC:Say You Don't Want It.ogg;
#OFFSET:0.689000;
#SAMPLESTART:44.442844;
#SAMPLELENGTH:13.714000;
#SELECTABLE:YES;
#DISPLAYBPM:133.000000;
#BPMS:0.000=133.000,
163.000=126.500,
164.000=133.000;
#STOPS:;
#DELAYS:;
#WARPS:;
#TIMESIGNATURES:0.000=4=4;
#TICKCOUNTS:0.000=4;
#COMBOS:0.000=1;
#SPEEDS:0.000=1.000=0.000=0;
#SCROLLS:0.000=1.000;
#FAKES:;
#LABELS:0.000=Song Start;
#BGCHANGES:4.000=Say You Don't Want It.avi=1.000=0=0=1=====,
99999=-nosongbg-=1.000=0=0=0 // don't automatically add -songbackground-
;
#KEYSOUNDS:;
#ATTACKS:
;

//---------------dance-single - ----------------
#NOTEDATA:;
#CHARTNAME:;
#STEPSTYPE:dance-single;
#DESCRIPTION:;
#CHARTSTYLE:;
#DIFFICULTY:Hard;
#METER:8;
#RADARVALUES:0.507561,0.552048,0.353877,0.141551,0.046004,432.000000,50.000000,20.000000,0.000000,0.000000,0.000000,0.000000,0.000000,0.507561,0.552048,0.353877,0.141551,0.046004,432.000000,50.000000,20.000000,0.000000,0.000000,0.000000,0.000000,0.000000;
#CREDIT:Ben Speirs;
#DISPLAYBPM:133.000000;
#NOTES:
0000
0000
0000
0000
,
0000
0000
0000
0000
,
0000
0000
0000
0000
,
0000
0000
0000
0000
,
0000
0000
0000
0000
,
0001
0100
0001
1000
0100
1000
0002
0000
,
0023
0100
0130
1001
,
1000
0100
1000
0001
0100
0001
2000
0000
,
3020
0100
0130
1001
,
2000
0000
3100
0010
0002
0000
0103
0010
,
1000
0001
1000
0001
0000
0000
0100
0000
,
0010
0010
1000
0001
0000
1001
0001
0000
,
0010
0010
0001
1000
0000
1001
1000
0000
,
0002
0000
0013
0100
2000
0000
3010
0100
,
0001
1000
0001
1000
0000
0000
0010
0000
,
0100
0100
0001
1000
0000
1001
1000
0000
,
0100
0100
1000
0001
0000
1001
0001
0000
,
0100
0001
0100
0001
0000
1000
1000
0100
,
0010
0001
0010
0001
0000
0100
0100
0001
,
1000
0010
1000
0010
0100
0001
1000
0000
,
0001
0010
0001
0010
0100
1000
0001
0100
,
0010
0000
0000
1000
0010
0000
1000
0000
0000
0000
0001
0000
0001
0000
0010
0000
,
0100
0000
0000
1000
0100
0000
1000
0000
0000
0000
0010
0000
0010
0000
1000
0000
,
0001
0000
0000
0100
0001
0000
0100
0000
0010
0000
1000
0000
0001
0000
0000
0000
,
1000
0000
0000
0100
1000
0000
0100
0000
0010
0000
0001
0000
1001
0000
0000
0000
,
0101
1000
0020
0000
0230
0000
0301
0010
,
0100
0010
0002
0000
2003
0000
3000
0101
,
0000
1000
0100
0010
0001
1000
0000
0101
,
0000
1000
0100
0010
0001
1000
0001
0000
,
1010
0001
0200
0000
0320
0000
1030
0100
,
0010
0100
2000
0000
3002
0000
0003
1010
,
0000
0001
0010
0100
1000
0001
0000
1010
,
0000
0001
0010
0100
1000
0001
1000
0000
,
0010
0100
0001
0100
1000
0100
0010
0100
,
0001
1000
0100
0010
0001
0100
0010
0000
,
0100
0010
1000
0010
0001
0010
0100
0010
,
1000
0001
0010
0100
1000
0010
0100
0000
,
0001
0100
0101
0000
1001
0000
0001
0010
,
0100
1000
1100
0000
1001
0000
0000
0110
,
0000
1000
0100
0010
0001
1000
0000
0110
,
0000
1000
0100
0010
0001
1000
0001
0000
,
0100
0000
0000
0100
0000
0000
0100
0000
0010
0000
0000
0000
1000
0000
0000
0000
,
0001
0000
0000
0001
0000
0000
0001
0000
0010
0000
0000
0000
0100
0000
0000
0000
,
1000
0000
0000
1000
0000
0000
1000
0000
0010
0000
0000
0000
0100
0000
0000
0000
,
0001
0000
0000
0001
0000
0000
0001
0000
1000
0000
0000
0000
0100
0000
0000
0000
,
0010
0000
0000
0001
0000
0000
1000
0000
0010
0000
0000
0000
0100
0000
0000
0000
,
0001
0000
0000
1000
0000
0000
0100
0000
0010
0000
0000
0000
0001
0000
0000
0000
,
1000
0000
0000
0010
0000
0000
1000
0000
0001
0000
0000
0000
0100
0000
0000
0000
,
0010
0100
0001
0010
0100
1000
0001
0000
,
1000
0100
1000
0000
0101
0000
1000
0100
,
0000
0100
1000
0000
0101
0000
0000
1001
,
0000
0001
0100
0000
0100
0010
0000
1001
,
0000
0001
0100
0000
0100
0010
1000
0001
,
0001
0010
0001
0000
1010
0000
0001
0010
,
0000
0010
0001
0000
1010
0000
0000
1001
,
0000
1000
0010
0000
0010
0100
0000
1001
,
0000
0000
1000
0000
0010
0000
0000
0000
0010
0000
0100
0000
0001
1000
0001
1000
,
0010
0100
0101
0000
1100
0000
0001
1000
,
0100
0010
0011
0000
1010
0000
0000
1001
,
0000
1000
0100
0010
0001
1000
0000
1001
,
0000
0001
0100
0010
1000
0001
0100
0000
,
0100
0010
1010
0000
0011
0000
1000
0001
,
0010
0100
1100
0000
0101
0000
0000
1001
,
0000
0001
0010
0100
1000
0001
0000
1001
,
0000
1000
0010
0100
0001
1000
0010
0000
,
1000
0100
0001
0100
1000
0100
0001
0100
,
1000
0010
0100
0001
1000
0001
1000
0000
,
0001
0010
1000
0010
0001
0010
1000
0010
,
0001
0100
0010
1000
0001
1000
0001
0000
,
0100
0001
0101
0000
1100
0000
1000
0100
,
0010
0001
0011
0000
1010
0000
0000
1001
,
0000
1000
0010
1000
0001
0100
0000
1001
,
0000
0001
0010
0001
1000
0100
1000
0000
,
0102
0000
1003
0000
0100
1000
0010
0000
,
2100
0000
3001
0000
1000
0010
0100
0101
,
0000
1000
0100
1000
0100
1000
0000
0101
,
0000
1000
0100
1000
0100
1000
0000
0000
,
0202
0000
0000
0000
,
0303
0000
0000
0000
;

//---------------dance-single - ----------------
#NOTEDATA:;
#CHARTNAME:;
#STEPSTYPE:dance-single;
#DESCRIPTION:;
#CHARTSTYLE:;
#DIFFICULTY:Medium;
#METER:5;
#RADARVALUES:0.324556,0.386434,0.134473,0.141551,0.000000,282.000000,19.000000,20.000000,0.000000,0.000000,0.000000,0.000000,0.000000,0.324556,0.386434,0.134473,0.141551,0.000000,282.000000,19.000000,20.000000,0.000000,0.000000,0.000000,0.000000,0.000000;
#CREDIT:Ben Speirs;
#DISPLAYBPM:133.000000;
#NOTES:
0000
0000
0000
0000
,
0000
0000
0000
0000
,
0000
0000
0000
0000
,
0000
0000
0000
0000
,
0000
0000
0000
0000
,
0002
0000
0000
2003
0000
0000
3020
0000
,
0230
0000
0300
0110
,
0002
0000
0000
2003
0000
0000
3200
0000
,
0320
0000
0030
0110
,
0001
0001
0000
0010
,
0100
0100
0000
0010
,
0001
1000
0001
1000
0000
0001
0000
0000
,
1000
0001
1000
0001
0000
0000
1000
0000
,
0010
0010
0000
0100
,
0001
0001
0000
0010
,
0100
1000
0100
1000
0000
0100
0000
0000
,
1000
0001
1000
0001
0000
0000
0000
0000
,
1010
0001
1000
0000
,
0101
1000
0001
0000
,
0010
0100
0010
0100
0000
0010
0000
0000
,
0100
0010
0100
0010
0000
0000
0000
0000
,
0011
0001
1000
0000
,
1010
1000
0001
0000
,
0100
0010
0100
0010
0000
0100
0000
0000
,
0010
0100
0010
0100
0000
0000
0000
0000
,
1001
0100
1000
0010
,
0100
0100
0001
0000
,
1000
0000
0001
0000
0100
0100
0001
0000
,
1000
0000
0001
0000
0100
0100
0001
0000
,
1100
0010
0001
1000
,
0010
0010
0100
0000
,
0001
0000
1000
0000
0010
0010
1000
0000
,
0001
0000
1000
0000
0010
0010
1000
0000
,
0110
0000
0001
1000
,
0100
0010
0001
0000
1000
0000
0000
0000
,
1100
0000
0001
0000
1000
0010
0100
0000
,
0001
1000
0010
0000
,
0100
0001
0100
0000
0101
0000
0000
0000
,
0001
1000
0001
0000
1001
0000
0000
0000
,
1000
0000
0100
0000
0010
0010
0000
0000
,
0001
0000
0100
0000
0010
0010
0000
0000
,
2000
3000
0100
1000
,
0002
0003
0100
0001
,
0020
0030
0100
0010
,
0002
0000
0003
0000
1000
0001
1000
0000
,
0010
0010
0100
0001
,
1000
0000
1000
0000
0100
0010
0001
0000
,
1000
1000
0010
0100
,
0001
0000
0001
0000
0010
0100
0010
0000
,
0001
0001
0001
0001
,
1000
1000
1000
1000
,
0010
0010
0010
0010
,
0100
0100
0100
0100
,
0001
1000
0001
0000
1000
0000
0001
1000
,
0000
1000
0001
0000
1000
0000
0001
1000
,
0000
1000
0001
0000
1000
0001
0000
1000
,
0000
0001
1000
0000
0001
1000
0000
0000
,
0110
0001
0010
0000
,
0110
0001
1000
0000
,
0010
0000
1000
0000
0100
0100
0000
0000
,
0010
0000
0001
0000
0100
0100
0000
0000
,
0110
1000
0100
0000
,
0110
1000
0100
0000
,
1000
0000
0001
0000
0100
0100
0000
0000
,
0001
0000
1000
0000
0100
0100
0000
0000
,
1000
0000
0001
0000
0010
0100
1000
0000
,
0020
0230
0301
0000
,
0100
0000
0001
0000
1000
0100
0010
0000
,
0002
2003
3010
0000
,
1000
0100
1000
0000
0101
0000
0000
0000
,
1000
0100
1000
0000
0101
0000
0000
0000
,
0001
0000
1000
0000
0010
0010
0100
0000
,
0001
0000
1000
0000
0010
0010
0100
0000
,
0002
0003
0010
0001
,
2000
3000
0100
1000
,
0001
0100
0001
0000
1000
1000
0000
0000
,
0001
0100
0001
0000
1000
1000
0000
0000
,
2002
0000
0000
0000
,
3003
0000
0000
0000
;

//---------------dance-single - ----------------
#NOTEDATA:;
#CHARTNAME:;
#STEPSTYPE:dance-single;
#DESCRIPTION:;
#CHARTSTYLE:;
#DIFFICULTY:Easy;
#METER:3;
#RADARVALUES:0.211315,0.276024,0.021233,0.056620,0.000000,198.000000,3.000000,8.000000,0.000000,0.000000,0.000000,0.000000,0.000000,0.211315,0.276024,0.021233,0.056620,0.000000,198.000000,3.000000,8.000000,0.000000,0.000000,0.000000,0.000000,0.000000;
#CREDIT:Ben Speirs;
#DISPLAYBPM:133.000000;
#NOTES:
0000
0000
0000
0000
,
0000
0000
0000
0000
,
0000
0000
0000
0000
,
0000
0000
0000
0000
,
0000
0000
0000
0000
,
0001
0000
1000
0010
,
0100
0000
0001
0000
,
1000
0000
0100
0010
,
0001
0000
1000
0000
,
0010
0010
0000
1000
,
0100
0100
0000
0010
,
0001
1000
0000
0001
,
1000
0001
0000
1000
,
0010
0010
0000
0100
,
0001
0001
0000
0010
,
0001
1000
0000
0001
,
1000
0001
0000
0100
,
0010
0010
0000
1000
,
0100
0100
0000
1000
,
0010
0100
0010
0000
,
0100
0010
0100
0000
,
0001
0001
0000
0010
,
0100
0100
0000
1000
,
0010
0100
0010
0000
,
0100
0010
0100
0000
,
1001
0000
0100
0000
,
1000
0001
0100
0000
,
0001
1000
0001
0000
,
1000
0001
1000
0000
,
0100
0000
0010
0000
,
0001
1000
0010
0000
,
1000
0001
1000
0000
,
0001
1000
0001
0000
,
1000
1000
0100
0100
,
1000
0100
1000
0000
,
0001
0001
0100
0100
,
0001
0100
0001
0000
,
1000
0000
0001
0000
,
0010
0001
0100
0000
,
0001
1000
0001
0000
,
1000
0001
1000
0000
,
0100
0000
0000
0010
,
0010
0000
0000
0001
,
0001
0000
0000
1000
,
1000
0000
0001
0000
,
0200
0300
0100
0000
,
0020
0030
0010
0000
,
2000
3000
1000
0000
,
0002
0003
0001
0000
,
1000
0000
0100
0000
,
0010
0000
0001
0000
,
0100
0100
0100
0000
,
0100
0100
0100
0000
,
0001
0000
0010
0000
,
0100
0000
1000
0000
,
0100
0100
0100
0000
,
0100
0100
0100
0000
,
1001
0000
0010
0000
,
0100
0001
1000
0000
,
0010
0100
0010
0000
,
0100
0010
0100
0000
,
0001
0000
1000
0000
,
0100
0010
0001
0000
,
0100
0010
0100
0000
,
0010
0100
0010
0000
,
1000
1000
0010
0010
,
1000
0010
1000
0000
,
0001
0001
0010
0010
,
0001
0010
0001
0000
,
0100
0000
0010
0000
,
1000
0000
0001
0000
,
1000
0100
0010
0000
,
0001
0100
0010
0000
,
2000
3000
0010
0000
,
0200
0300
0001
0000
,
1000
0100
1000
0000
,
0001
0100
0001
0000
,
2002
0000
0000
0000
,
3003
0000
0000
0000
;

//---------------dance-single - ----------------
#NOTEDATA:;
#CHARTNAME:;
#STEPSTYPE:dance-single;
#DESCRIPTION:;
#CHARTSTYLE:;
#DIFFICULTY:Beginner;
#METER:2;
#RADARVALUES:0.124363,0.190740,0.014155,0.000000,0.000000,121.000000,2.000000,0.000000,0.000000,0.000000,0.000000,0.000000,0.000000,0.124363,0.190740,0.014155,0.000000,0.000000,121.000000,2.000000,0.000000,0.000000,0.000000,0.000000,0.000000,0.000000;
#CREDIT:Ben Speirs;
#DISPLAYBPM:133.000000;
#NOTES:
0000
0000
0000
0000
,
0000
0000
0000
0000
,
0000
0000
0000
0000
,
0000
0000
0000
0000
,
0000
0000
0000
0000
,
0100
0000
0000
0000
,
0001
0000
0000
0000
,
1000
0000
0000
0000
,
0100
0000
0000
0000
,
1000
0000
1000
0000
,
0001
0000
0000
0000
,
0100
0100
0000
0000
,
0100
0100
0000
0000
,
0001
0000
0001
0000
,
1000
0000
0000
0000
,
0100
0100
0000
0000
,
0100
0100
0000
0000
,
1000
0000
1000
0000
,
0010
0000
0000
0000
,
1000
1000
0000
0000
,
1000
1000
0000
0000
,
0001
0000
0010
0000
,
0001
0000
0000
0000
,
0001
0001
0000
0000
,
0001
0001
0000
0000
,
1001
0000
0000
0000
,
0100
0000
0000
0000
,
0001
0001
0001
0000
,
0001
0001
0001
0000
,
1000
0000
0000
0000
,
0001
0000
0000
0000
,
0010
0010
0010
0000
,
0010
0010
0010
0000
,
0001
0000
0000
0000
,
1000
0000
1000
0000
,
0010
0000
0000
0000
,
0100
0000
0100
0000
,
0001
0000
0000
0000
,
1000
0000
0000
0000
,
0100
0100
0100
0000
,
0100
0100
0100
0000
,
0010
0000
0000
0000
,
0001
0000
0000
0000
,
1000
0000
0000
0000
,
0010
0000
0000
0000
,
0100
0100
0000
0000
,
0001
0001
0000
0000
,
1000
1000
0000
0000
,
0010
0010
0000
0000
,
1000
0000
0000
0000
,
1000
0000
0000
0000
,
0001
0000
0000
0000
,
0001
0000
0000
0000
,
0100
0000
0000
0000
,
0100
0000
0000
0000
,
0010
0000
0000
0000
,
0010
0000
0000
0000
,
1001
0000
0000
0000
,
1000
0000
0000
0000
,
0100
0100
0100
0000
,
0100
0100
0100
0000
,
0010
0000
0000
0000
,
0001
0000
0000
0000
,
1000
1000
1000
0000
,
1000
1000
1000
0000
,
0010
0000
0000
0000
,
0100
0000
0100
0000
,
0001
0000
0000
0000
,
1000
0000
1000
0000
,
0100
0000
0000
0000
,
0010
0000
0000
0000
,
0001
0001
0001
0000
,
0001
0001
0001
0000
,
0100
0000
0000
0000
,
0010
0000
0000
0000
,
1000
1000
1000
0000
,
1000
1000
1000
0000
,
0001
0000
0000
0000
;

//---------------dance-double - ----------------
#NOTEDATA:;
#CHARTNAME:;
#STEPSTYPE:dance-double;
#DESCRIPTION:;
#CHARTSTYLE:;
#DIFFICULTY:Challenge;
#METER:8;
#RADARVALUES:0.482284,0.523738,0.184016,0.205249,0.028310,422.000000,26.000000,29.000000,0.000000,0.000000,0.000000,0.000000,0.000000,0.482284,0.523738,0.184016,0.205249,0.028310,422.000000,26.000000,29.000000,0.000000,0.000000,0.000000,0.000000,0.000000;
#CREDIT:;
#DISPLAYBPM:133.000000;
#NOTES:
// measure 0
00000000
00000000
00000000
00000000
,  // measure 1
00000000
00000000
00000000
00000000
,  // measure 2
00000000
00000000
00000000
00000000
,  // measure 3
00000000
00000000
00000000
00000000
,  // measure 4
00000000
00000000
00000000
00000000
,  // measure 5
10000000
01000000
00010000
01000000
10000000
00100000
01000000
00010000
,  // measure 6
00200000
01000000
00010000
00301000
,  // measure 7
00100000
00001000
00010000
00000100
00001000
00000010
00000100
00000001
,  // measure 8
00002000
00000100
00003001
00001001
,  // measure 9
00000002
00000000
00000103
00000010
00002000
00000000
00003100
00010000
,  // measure 10
00001000
00010000
00001000
00010000
00000000
00000000
00101000
00000000
,  // measure 11
00100000
00100000
00010000
02000000
00000000
03100000
10000000
00000000
,  // measure 12
01000000
01000000
10000000
00200000
00000000
01300000
00010000
00000000
,  // measure 13
20000000
00000000
31000000
00100000
00020000
00000000
01030000
00010000
,  // measure 14
00100000
00001000
00010000
00001000
00000000
00000000
00011000
00000000
,  // measure 15
00010000
00000100
00001000
00000020
00000000
00000100
00000130
00000000
,  // measure 16
00000010
00000100
00000001
00002000
00000000
00000100
00003100
00000000
,  // measure 17
00001100
00000100
00000001
00001000
00000010
00000000
00001001
00000000
,  // measure 18
00000001
00000100
00000010
00001000
00000000
00000000
00000101
00000000
,  // measure 19
00000010
00001000
00000100
00010000
00010000
00001000
00100000
00010000
,  // measure 20
01000000
01000000
00100000
10000000
00010000
00000000
01000000
00000000
,  // measure 21
01010000
01000000
00100000
10000000
00000000
11000000
01000000
00000000
,  // measure 22
10000000
00100000
01000000
00010000
10000000
00000000
10010000
00000000
,  // measure 23
10000000
00100000
01000000
00010000
00100000
00001000
00010000
00000000
,  // measure 24
00000100
00000100
00001000
00000010
00000200
00000000
00000310
00000000
,  // measure 25
00000110
00000000
00000101
00000000
00001100
00000000
00000001
00000100
,  // measure 26
00001000
00010000
00001000
00000000
00011000
00000000
00000000
00001001
,  // measure 27
00000000
00000001
00000100
00001000
00010000
00001000
00000000
00011000
,  // measure 28
00000000
00001000
00010000
00100000
10000000
00010000
10000000
00000000
,  // measure 29
11000000
00000000
01000000
00100000
00010000
00000000
00100000
00010000
,  // measure 30
01000000
01000000
00100000
10000000
00010000
00000000
00100000
00000000
,  // measure 31
10010000
00000000
10000000
01000000
00010000
00000000
00001000
00010000
,  // measure 32
00001000
00000100
00000001
00001000
00000010
00000010
00000100
00000000
,  // measure 33
00002001
00000000
00000000
00000000
00000010
00000000
00000000
00000000
00000100
00003000
00000000
00000000
00000001
00000000
00000010
00000000
,  // measure 34
00000100
00001000
00000010
00000100
00000001
00001000
00000100
00000000
,  // measure 35
00020100
00000000
00001000
00000000
00030100
00010000
00001000
00100000
,  // measure 36
00010000
01000000
00100000
10000000
00010000
00000000
01000000
00000000
,  // measure 37
00100000
10000000
01010000
00000000
11000000
00000000
00100000
00100000
,  // measure 38
00010000
10000000
01010000
00000000
10100000
00000000
00010000
00100000
,  // measure 39
01000000
00100000
00010000
00100000
00001000
00001000
00010000
00000100
,  // measure 40
00000010
00000100
00001000
00000010
00000100
00000100
00000001
00001000
,  // measure 41
00000010
00000000
00000000
00000010
00000100
00000000
00000000
00000000
00000001
00000000
00000000
00000000
00001000
00000000
00000000
00000000
,  // measure 42
00000100
00000000
00000000
00000100
00010000
00000000
00000000
00000000
00001000
00000000
00000000
00000000
00100000
00000000
00000000
00000000
,  // measure 43
00010000
00000000
00000000
00010000
01000000
00000000
00000000
00000000
00100000
00000000
00000000
00000000
10000000
00000000
00000000
00000000
,  // measure 44
01000000
00000000
00000000
01000000
10000000
00000000
00100000
00000000
00100000
00000000
01000000
00000000
00010000
00000000
00000000
00000000
,  // measure 45
10000000
00000000
00000000
01000000
00000000
00000000
00100000
00000000
00010000
00000000
00100000
00000000
00001000
00000000
00000000
00000000
,  // measure 46
00010000
00000000
00000000
00000100
00000000
00000000
00001000
00000000
00000010
00000000
00000100
00000000
00000001
00000000
00000000
00000000
,  // measure 47
00000100
00000000
00000000
00000100
00000000
00000000
00000010
00000000
00001000
00000000
00000100
00000000
00010000
00000000
00000000
00000000
,  // measure 48
00001000
00000000
00100000
00000000
00010000
00000000
01000000
00000000
00100000
10000000
00100000
00000000
01000000
00000000
00010000
00000000
,  // measure 49
20000000
01000000
01000000
00010000
,  // measure 50
00010000
00000000
00100000
00000000
00100000
00000000
00010000
00010000
,  // measure 51
00010000
00000000
01000000
00000000
01000000
00000000
00010000
00010000
,  // measure 52
00010000
01000000
00010000
30010000
,  // measure 53
00020000
00000000
01000000
00000000
00100000
00000000
10000000
10000000
,  // measure 54
10000000
00000000
01000000
00000000
00100000
00000000
01000000
01000000
,  // measure 55
01000000
00000000
10000000
00000000
01000000
00000000
10000000
10000000
,  // measure 56
10000000
01000000
10030000
10010000
,  // measure 57
10000000
01000000
00010000
00001000
00000200
00000000
00000310
00000100
,  // measure 58
00000001
00000010
00001000
00010000
00200000
00000000
10300000
02000000
,  // measure 59
00000000
13000000
00200000
00000000
01300000
00020000
00000000
20030000
,  // measure 60
00000000
30010000
00100000
01000000
10000000
10000000
00100000
00000000
,  // measure 61
10000000
00100000
00010000
00001000
00000020
00000000
00000031
00000100
,  // measure 62
00001000
00010000
00100000
10000000
02000000
00000000
03100000
00020000
,  // measure 63
00000000
01030000
00002000
00000000
00013000
00000200
00000000
00001300
,  // measure 64
00000010
00000100
00000001
00000000
00000010
00000010
00000001
00000100
,  // measure 65
00000010
00001000
00000010
00000100
00000010
00000001
00000010
00000100
,  // measure 66
00000001
00000010
00000100
00001000
00000010
00000100
00001000
00000000
,  // measure 67
00010000
00001000
00010000
00100000
00010000
00001000
00000010
00001000
,  // measure 68
00010000
00100000
10000000
01000000
00010000
01000000
10000000
00100000
,  // measure 69
01000000
01000000
10000000
01000000
01020000
00000000
10030000
00100000
,  // measure 70
00010000
00100000
10000000
01000000
21000000
00000000
30010000
00100000
,  // measure 71
00100000
00010000
00100000
00001000
00010000
00000100
00001000
00000010
,  // measure 72
00000010
00000100
00000001
00000010
00000100
00000100
00001000
00000100
,  // measure 73
00020000
00001000
00100000
00001000
,  // measure 74
00031000
00000000
00000000
00000000
;
