#TITLE:Roar;
#SUBTITLE:;
#ARTIST:Katy Perry;
#TITLETRANSLIT:;
#SUBTITLETRANSLIT:;
#ARTISTTRANSLIT:;
#GENRE:Fucky Whistle;
#CREDIT:;
#BANNER:Roar.png;
#BACKGROUND:Roar-bg.png;
#LYRICSPATH:;
#CDTITLE:;
#MUSIC:Roar.ogg;
#OFFSET:0.006000;
#SAMPLESTART:106.660080;
#SAMPLELENGTH:15.533999;
#SELECTABLE:YES;
#BPMS:0.000000=90.000000
;
#STOPS:
;
#BGCHANGES:4.000=Roar.avi=1.000=0=0=1=====,
99999=-nosongbg-=1.000=0=0=0 // don't automatically add -songbackground-
;
#KEYSOUNDS:;
#ATTACKS:;

//---------------dance-single - ----------------
#NOTES:
     dance-single:
     :
     Hard:
     6:
     0.413765,0.479622,0.379284,0.241363,0.041376,330.000000,55.000000,35.000000,0.000000,0.000000,0.000000,0.413765,0.479622,0.379284,0.241363,0.041376,330.000000,55.000000,35.000000,0.000000,0.000000,0.000000:
0000
0000
0000
0000
,
0000
0000
0000
0000
,
1000
0100
1000
0100
0010
0001
1000
1000
,
0001
0100
0001
0100
0010
1000
0100
0100
,
0000
0010
0001
1000
0001
1000
0010
0000
,
0100
0010
1000
0001
1000
0001
0100
0000
,
0001
0010
0001
0010
0100
1000
0001
0001
,
1000
0010
1000
0010
0100
0001
0010
0010
,
0000
0100
1000
0001
1000
0001
0100
0000
,
0010
0100
0001
1000
0001
1000
0010
0000
,
1000
0100
1000
0000
0001
0100
0001
0000
,
0000
0000
0100
0000
0010
0000
1000
0001
1000
0000
0100
0000
0010
0000
0000
0000
,
0001
1000
0100
0000
1000
0001
0100
0000
,
0000
0000
0001
0000
1000
0000
0100
0010
0100
0000
1000
0000
0001
0000
0000
0000
,
1100
0100
0100
0000
0101
0100
0100
0000
,
0000
0000
0001
0000
1000
0000
0010
0100
0010
0000
1000
0000
0001
0000
0000
0000
,
0011
0010
0010
0000
1010
0010
0010
0000
,
0000
1000
0100
0001
0010
1000
1001
0000
,
0102
0000
1003
0100
1000
0001
0100
0010
,
0010
1000
1000
0002
0000
1003
0001
0200
,
0000
0310
1000
0002
0000
0103
0000
0001
,
1000
1000
0100
2000
3100
0020
0031
1000
,
2010
0000
3001
0010
0001
1000
0010
0100
,
0100
0001
0001
2000
0000
3001
1000
0020
,
0000
0130
0001
2000
0000
3010
0000
1000
,
0001
0001
0010
0002
0013
0200
1300
0001
,
0101
0000
0000
0000
1010
0000
1010
0000
1010
0000
1010
0000
0100
0010
0001
0000
,
0000
0000
0100
0000
1001
0000
1001
0000
1001
0000
1001
0000
0001
1000
0010
0000
,
0000
0000
0100
0000
0101
0000
0101
0000
0101
0000
0101
0000
0001
1000
0010
0000
,
0100
0001
0010
0200
1300
0020
0130
0001
,
1010
0000
0000
0000
0101
0000
0101
0000
0101
0000
0101
0000
0010
0100
1000
0000
,
0000
0000
0010
0000
1001
0000
1001
0000
1001
0000
1001
0000
1000
0001
0100
0000
,
0000
0000
0010
0000
1010
0000
1010
0000
1010
0000
1010
0000
1000
0001
0100
0000
,
0010
1000
0100
0020
0031
0200
0310
1000
,
0002
0000
0000
0000
,
0000
0000
2003
0000
,
3200
0000
0000
0000
,
0320
0000
0001
0001
0000
0000
0100
0100
,
0000
0000
0001
0001
0000
0000
0100
0100
,
0000
0000
0032
2000
0000
0000
0000
3003
,
0110
0000
0000
0000
,
1001
0001
0100
0120
0000
1030
0001
0100
,
0100
0010
1000
0100
0010
0001
1000
2010
,
0000
3001
0010
0012
0000
1003
0000
0001
,
0100
0010
1000
0200
0310
0002
1003
0010
,
1010
1000
0010
0210
0000
0301
1000
0010
,
0010
0100
0001
0010
0100
1000
0001
0102
,
0000
1003
0100
2100
0000
3001
0000
1000
,
0010
0100
0001
0020
0130
2000
3001
0100
,
0110
0000
0000
0000
0101
0000
1100
0000
0101
0000
1100
0000
0001
1000
0010
0000
,
0000
0000
0100
0000
0110
0000
1010
0000
0110
0000
1010
0000
0010
1000
0001
0000
,
0000
0000
0010
0000
0011
0000
0110
0000
0011
0000
0110
0000
0010
0001
1000
0000
,
0010
0100
0001
2000
3100
0020
0031
0200
,
0000
0000
0300
0000
;

//---------------dance-single - ----------------
#NOTES:
     dance-single:
     :
     Challenge:
     9:
     0.561538,0.608751,0.765464,0.172402,0.317220,434.000000,111.000000,25.000000,0.000000,0.000000,0.000000,0.561538,0.608751,0.765464,0.172402,0.317220,434.000000,111.000000,25.000000,0.000000,0.000000,0.000000:
0000
0000
0000
0000
,
0000
0000
0000
0000
,
1100
0000
0000
0000
0000
0000
0001
0000
0000
1000
0000
0000
0000
0000
0010
0100
0000
0010
0100
0000
0000
0000
0000
0000
,
0101
0000
0000
0000
0000
0000
1000
0000
0000
0001
0000
0000
0000
0000
0010
0100
0000
0010
0100
0000
0000
0000
0000
0000
,
1100
0000
0000
0100
0000
0000
0010
0000
0000
0001
0000
1000
0000
0000
0001
1000
0000
0000
0100
0000
0000
0000
0000
0000
,
0011
0000
0000
0010
0000
0000
0100
0000
0000
1000
0000
0001
0000
0000
1000
0001
0000
0000
0010
0000
0000
0000
0000
0000
,
1001
0000
0001
1000
0000
1000
0010
0000
0000
0100
0000
0000
0001
0000
0000
1000
0000
0100
0000
0000
0010
0001
0000
0000
,
1001
0000
1000
0001
0000
0001
0100
0000
0000
0010
0000
0000
1000
0000
0000
0001
0000
0010
0000
0000
0100
1000
0000
0000
,
0011
0000
0000
0010
0000
0000
0100
0000
0000
1000
0000
0001
0000
0000
1000
0001
0000
0000
0010
0000
0000
0000
0000
0000
,
1100
0000
0000
0100
0000
0000
0010
0000
0000
0001
0000
1000
0000
0000
0001
1000
0000
0000
0100
0000
0000
0000
0000
0000
,
0101
0000
0000
1010
0000
0000
1100
0000
0000
0001
0000
1000
0010
0000
0000
0101
0000
0000
1100
0000
0000
1001
0000
0000
,
0100
0000
0000
0010
0000
0000
1000
0000
1000
0100
0000
0100
0010
0000
0000
0001
0000
0000
1000
0000
0000
0010
0000
0100
,
0001
0000
0000
0101
0000
0000
1100
0000
0000
0001
0000
1000
0010
0000
0000
1010
0000
0000
0011
0000
0000
1000
0000
0000
,
0001
0000
0000
0100
0000
0000
0010
0000
0010
1000
0000
1000
0100
0000
0000
0010
0000
0000
0011
0000
0000
0000
0000
0000
,
1010
0000
0000
0101
0000
0000
0011
0000
0000
1000
0000
0001
0100
0000
0000
1010
0000
0000
0011
0000
0000
1001
0000
0000
,
0010
0000
0000
0100
0000
0000
0001
0000
0001
0010
0000
0010
0100
0000
0000
1000
0000
0000
0001
0000
0000
0100
0000
0010
,
1000
0000
0000
1010
0000
0000
0011
0000
0000
1000
0000
0001
0100
0000
0000
0101
0000
0000
1100
0000
0000
0001
0000
0000
,
1100
0101
0011
1010
1001
0110
1001
0000
,
0201
0000
0000
0000
0000
0000
0310
0000
0000
1000
0000
0000
0000
0000
0001
0100
0000
0001
0100
0000
0000
0010
0000
0000
,
1000
0000
0000
0100
0000
0000
0010
0000
0000
0002
0000
0000
0000
0000
1003
0100
0000
1000
0100
0000
0000
1002
0000
0000
,
0000
0000
0000
0013
0000
0000
0100
0000
0000
2001
0000
0000
0000
0000
3001
0100
0000
0010
1000
0000
0000
0001
0000
0000
,
1000
1000
0100
0011
0100
1010
0100
1001
,
1020
0000
0000
0000
0000
0000
0130
0000
0000
0001
0000
0000
0000
0000
1000
0010
0000
1000
0010
0000
0000
0100
0000
0000
,
0001
0000
0000
0010
0000
0000
0100
0000
0000
2000
0000
0000
0000
0000
3001
0010
0000
0001
0010
0000
0000
2001
0000
0000
,
0000
0000
0000
3100
0000
0000
0010
0000
0000
1002
0000
0000
0000
0000
1003
0010
0000
0100
0001
0000
0000
1000
0000
0000
,
0001
0001
0010
1100
0010
0101
0010
1001
,
1100
0000
0000
1000
0100
0010
0001
0000
0000
0011
0000
0000
1100
0000
0000
0011
0000
0000
0001
0010
0100
1000
0000
0000
,
0001
0000
0000
1000
0010
0100
0001
0000
0000
0101
0000
0000
1010
0000
0000
0101
0000
0000
0001
0100
0010
1000
0000
0000
,
0001
0000
0000
1000
0100
0010
0001
0000
0000
0011
0000
0000
1100
0000
0000
0011
0000
0000
0001
0010
0100
1000
0000
0000
,
0001
0100
0010
1020
0130
1002
0103
1001
,
0011
0000
0000
0001
0010
0100
1000
0000
0000
1100
0000
0000
0011
0000
0000
1100
0000
0000
1000
0100
0010
0001
0000
0000
,
1000
0000
0000
0001
0100
0010
1000
0000
0000
1010
0000
0000
0101
0000
0000
1010
0000
0000
1000
0010
0100
0001
0000
0000
,
1000
0000
0000
0001
0010
0100
1000
0000
0000
1100
0000
0000
0011
0000
0000
1100
0000
0000
1000
0100
0010
0001
0000
0000
,
1000
0010
0100
0201
0310
2001
3010
1001
,
0200
0000
0000
0000
,
0000
0000
0320
0000
,
2030
0000
0000
0000
0000
0000
0000
0000
0000
0000
0000
0000
0000
0000
0000
0000
0000
0000
0000
0000
0000
0000
0000
3000
,
0200
0000
0310
0010
0002
0000
0103
0100
,
0020
0000
1030
1000
0200
0000
0310
0010
,
0011
1100
0101
1010
1001
0110
1001
0110
,
0101
0000
0000
0000
,
1010
0000
0000
0010
0000
0000
0100
0000
0000
1001
0000
0000
0000
0000
0001
0010
0000
0100
1000
0000
0000
0101
0000
0000
,
1000
0000
0000
0010
0000
0000
0100
0000
0000
1001
0000
0000
0000
0000
1000
0100
0000
0010
0001
0000
0000
2100
0000
0000
,
0010
3000
0000
0100
0000
0000
0001
0000
0000
1001
0000
0000
0000
0000
1000
0100
0000
0010
0001
0000
0000
1000
0000
0000
,
0010
0010
0100
0101
0010
1001
0010
1100
,
0101
0000
0000
0100
0000
0000
0010
0000
0000
1001
0000
0000
0000
0000
1000
0100
0000
0010
0001
0000
0000
1010
0000
0000
,
0001
0000
0000
0100
0000
0000
0010
0000
0000
1001
0000
0000
0000
0000
0001
0010
0000
0100
1000
0000
0000
0012
0000
0000
,
0100
0003
0000
0010
0000
0000
1000
0000
0000
1001
0000
0000
0000
0000
0001
0010
0000
0100
1000
0000
0000
0001
0000
0000
,
0100
0100
0010
1010
0100
1001
0100
0011
,
1000
0000
0000
0001
0010
0100
1000
0000
0000
1100
0000
0000
0011
0000
0000
1100
0000
0000
1000
0100
0010
0001
0000
0000
,
1000
0000
0000
0001
0100
0010
1000
0000
0000
1010
0000
0000
0101
0000
0000
1010
0000
0000
1000
0010
0100
0001
0000
0000
,
1000
0000
0000
0001
1000
0001
0010
0000
0000
0110
0000
0000
1001
0000
0000
0110
0000
0000
1000
0001
1000
0010
0000
0000
,
0100
0001
1000
0200
0310
0002
1003
2200
,
0000
0000
3300
0000
;

//---------------dance-double - ----------------
#NOTES:
     dance-double:
     :
     Challenge:
     7:
     0.449230,0.479622,0.530998,0.275843,0.041376,339.000000,77.000000,40.000000,0.000000,0.000000,0.000000,0.449230,0.479622,0.530998,0.275843,0.041376,339.000000,77.000000,40.000000,0.000000,0.000000,0.000000:
// measure 0
00000000
00000000
00000000
00000000
,  // measure 1
00000000
00000000
00000000
00000000
,  // measure 2
00001010
00001000
00000010
00001000
00000100
00000010
00000001
00001000
,  // measure 3
00000001
00000100
00000001
00000100
00000010
00001000
00000100
00001000
,  // measure 4
00000100
00000100
00010000
00010000
00001000
00100000
00010000
00010000
,  // measure 5
00100000
00100000
00001000
00001000
00010000
00001000
00100000
00010000
,  // measure 6
00110000
00010000
01000000
00010000
00100000
01000000
10000000
00010000
,  // measure 7
10000000
00100000
10000000
00100000
01000000
00010000
00100000
00010000
,  // measure 8
00100000
00100000
00001000
00001000
00010000
00000100
00001000
00001000
,  // measure 9
00000100
00000100
00010000
00010000
00001000
00010000
00000100
00000100
,  // measure 10
00010100
00011000
00001100
00000000
00000101
00000110
00001010
00001001
,  // measure 11
00000000
00000000
00001000
00000000
00000001
00000000
00000100
00000010
00001000
00000000
00000001
00000000
00001000
00000000
00000000
00000000
,  // measure 12
00000110
00001010
00000011
00000000
00001001
00000110
00001001
00000000
,  // measure 13
00000100
00000000
00000010
00000000
00000010
00001000
00000100
00000000
00001100
00000000
00010100
00000000
00011000
00000000
00000000
00000000
,  // measure 14
00101000
00011000
00110000
00000000
10100000
01100000
01010000
10010000
,  // measure 15
00000000
00000000
00010000
00000000
10000000
00000000
00100000
01000000
00010000
00000000
10000000
00000000
00010000
00000000
00000000
00000000
,  // measure 16
01100000
01010000
11000000
00000000
10010000
01100000
10010000
00000000
,  // measure 17
10000000
01000000
01000000
00010000
00010000
00001000
00001000
00000000
,  // measure 18
00021000
00000000
00031000
00002000
00000000
00013000
00000000
00001000
,  // measure 19
00000100
00000001
00001000
00000002
00000000
00000013
00000001
00002000
,  // measure 20
00000000
00003010
00000100
00000020
00000000
00001030
00000000
00000001
,  // measure 21
00001000
00001000
00000100
00000020
00000031
00000200
00000310
00001000
,  // measure 22
00001001
00000000
00000100
00002100
00000000
00003001
00000000
00000100
,  // measure 23
00000100
00000010
00000010
00002000
00000000
00003100
00010000
00002000
,  // measure 24
00000000
00103000
00100000
00020000
00000000
10030000
00000000
10000000
,  // measure 25
00100000
00100000
01000000
00020000
10030000
02000000
03100000
00010000
,  // measure 26
11000000
00000000
00000000
00000000
01010000
00000000
01010000
00000000
01010000
00000000
01010000
00000000
10000000
01000000
00100000
00000000
,  // measure 27
00000000
00000000
00010000
00000000
00101000
00000000
00101000
00000000
00101000
00000000
00101000
00000000
00010000
00001000
00100000
00000000
,  // measure 28
00000000
00000000
00001000
00000000
00010100
00000000
00010100
00000000
00010100
00000000
00010100
00000000
00000100
00001000
00000010
00000000
,  // measure 29
00000100
00000001
00001000
00000200
00000310
00000002
00001003
00000001
,  // measure 30
00000011
00000000
00000000
00000000
00001010
00000000
00001010
00000000
00001010
00000000
00001010
00000000
00000001
00000010
00000100
00000000
,  // measure 31
00000000
00000000
00001000
00000000
00010100
00000000
00010100
00000000
00010100
00000000
00010100
00000000
00001000
00010000
00000100
00000000
,  // measure 32
00000000
00000000
00010000
00000000
00101000
00000000
00101000
00000000
00101000
00000000
00101000
00000000
00100000
00010000
01000000
00000000
,  // measure 33
00100000
10000000
00010000
00200000
01300000
20000000
30010000
01000000
,  // measure 34
00200000
00000000
00000000
00000000
,  // measure 35
00000000
00000000
20300000
00000000
,  // measure 36
30020000
00000000
00000000
00000000
,  // measure 37
00230000
00000000
00301000
00001000
00020000
00000000
00030100
00000100
,  // measure 38
00002000
00000000
00003001
00000001
00000200
00000000
00000310
00000010
,  // measure 39
00001000
00000100
00000010
00000001
00000100
00000010
00001000
00000100
,  // measure 40
00001100
00000000
00000000
00000000
,  // measure 41
00012000
00000000
00013000
00020000
00000000
00031000
00000000
00010000
,  // measure 42
00100000
10000000
00010000
20000000
00000000
31000000
10000000
00020000
,  // measure 43
00000000
01030000
00100000
02000000
00000000
03010000
00000000
10000000
,  // measure 44
00010000
00010000
00100000
02000000
13000000
00200000
01300000
00010000
,  // measure 45
10010000
00000000
00100000
00120000
00000000
10030000
00000000
00100000
,  // measure 46
00100000
01000000
01000000
00020000
00000000
00130000
00001000
00020000
,  // measure 47
00000000
00030100
00000100
00002000
00000000
00003001
00000000
00000001
,  // measure 48
00000100
00000100
00000010
00002000
00003001
00000020
00000130
00001000
,  // measure 49
00000011
00000000
00000000
00000000
00001010
00000000
00001010
00000000
00001010
00000000
00001010
00000000
00000001
00000010
00000100
00000000
,  // measure 50
00000000
00000000
00001000
00000000
00010100
00000000
00010100
00000000
00010100
00000000
00010100
00000000
00001000
00010000
00000100
00000000
,  // measure 51
00000000
00000000
00010000
00000000
00101000
00000000
00101000
00000000
00101000
00000000
00101000
00000000
00100000
00010000
01000000
00000000
,  // measure 52
00100000
10000000
00010000
00200000
01300000
20000000
30010000
02000000
,  // measure 53
00000000
00000000
03000000
00000000
;

//---------------dance-single - ----------------
#NOTES:
     dance-single:
     :
     Medium:
     4:
     0.279784,0.313599,0.096545,0.144818,0.000000,249.000000,14.000000,21.000000,0.000000,0.000000,0.000000,0.279784,0.313599,0.096545,0.144818,0.000000,249.000000,14.000000,21.000000,0.000000,0.000000,0.000000:
0000
0000
0000
0000
,
0000
0000
0000
0000
,
1001
0000
0100
0000
0001
1000
0010
0000
,
1001
0000
0010
0000
1000
0100
0010
0000
,
0002
0100
1003
0000
,
2000
0100
3001
0000
,
1100
0000
0100
0000
0010
0001
0100
0000
,
0101
0000
0100
0000
0010
1000
0100
0000
,
2000
0010
3001
0000
,
0002
0010
1003
0000
,
0001
0100
0001
0000
1000
0100
1000
0000
,
0000
0000
0001
0000
1000
0100
0010
0000
,
0001
0010
0001
0000
1000
0010
1000
0000
,
0000
0000
0001
0000
0100
0010
1000
0000
,
0001
0100
0001
0000
1000
0100
1000
0000
,
0000
0000
0001
0000
1000
0001
0010
0000
,
0001
1000
0001
0000
0100
0010
0100
0000
,
0000
0001
0001
1000
1000
0100
0100
0000
,
1001
0000
0100
0000
1000
0000
0001
0100
,
0100
0010
0010
1000
0001
0000
1000
0000
,
2100
3010
0102
1003
,
0001
0010
0100
2000
0000
3002
0000
0103
,
0100
0010
1000
0001
,
1000
0100
0010
0001
0001
0000
1000
0010
,
0010
0000
0100
0001
0001
0000
1000
0000
,
0100
1000
0100
0010
0001
0000
1000
0000
,
0110
0000
0001
0100
0001
0100
0001
0000
,
0100
0000
0001
0100
0001
0100
0001
0000
,
0100
0000
0001
0100
0001
0100
0001
0000
,
0100
0001
1000
0010
,
1010
0000
1000
0010
1000
0010
1000
0000
,
0010
0000
1000
0010
1000
0010
1000
0000
,
0010
0000
1000
0010
1000
0010
1000
0000
,
0010
1000
0001
0100
,
2002
0000
0000
0000
,
0000
3003
0020
0030
,
0200
0000
0000
0300
,
0002
1003
0200
0310
,
0002
1003
0020
0130
,
0001
0100
0001
0100
0010
1000
0010
1000
,
0100
0000
0000
0000
,
1001
0000
0010
0000
0001
0000
1000
0010
,
0010
0100
0100
0001
1000
0000
0001
0000
,
0012
0103
2010
3001
,
1000
0100
0010
0002
0000
2003
0000
3010
,
0010
0100
0001
1000
,
0001
0010
0100
1000
1000
0000
0001
0100
,
0100
0000
0010
1000
1000
0000
0001
0000
,
0010
0001
0010
0100
1000
0000
0001
0000
,
0110
0000
1000
0010
1000
0010
1000
0000
,
0010
0000
1000
0010
1000
0010
1000
0000
,
0010
0000
1000
0010
1000
0010
1000
0000
,
0010
0000
1000
0100
0010
0001
0100
0020
,
0000
0000
0030
0000
;

//---------------dance-single - ----------------
#NOTES:
     dance-single:
     :
     Easy:
     2:
     0.160580,0.221364,0.027584,0.151714,0.000000,137.000000,4.000000,22.000000,0.000000,0.000000,0.000000,0.160580,0.221364,0.027584,0.151714,0.000000,137.000000,4.000000,22.000000,0.000000,0.000000,0.000000:
0000
0000
0000
0000
,
0000
0000
0000
0000
,
0100
0000
0010
1000
,
0100
0000
0010
0001
,
0100
0100
0010
0000
,
1000
1000
0001
0000
,
1000
0000
0100
0010
,
0001
0000
0100
0010
,
1000
1000
0100
0000
,
0010
0010
0001
0000
,
1000
1000
0001
0001
,
0000
0100
0010
0000
,
1000
1000
0001
0001
,
0000
0010
0100
0000
,
1000
0100
0010
0001
,
0000
0100
0100
0000
,
0001
0010
0100
1000
,
0000
0010
0010
0000
,
2002
3003
0100
0000
,
1000
0100
0010
0000
,
0002
0003
2000
3000
,
0010
0100
0010
0100
,
0001
0000
1000
0000
,
0100
0010
0001
0000
,
2000
3000
0002
0003
,
0100
0010
0100
0010
,
0000
1000
1000
0100
,
0000
1000
1000
0100
,
0000
1000
1000
0100
,
0010
0000
0001
0000
,
0100
0000
0001
0001
,
0100
0000
0001
0001
,
0100
0000
0001
0001
,
0100
0010
1000
0000
,
0200
0000
0000
0000
,
0000
0300
0020
0030
,
0002
0000
0000
0003
,
0000
2000
3000
0002
,
0003
0200
0300
0020
,
0030
2002
0000
3003
,
1001
0000
0000
0000
,
2002
3003
0010
0000
,
0001
0010
0100
0000
,
2000
3000
0002
0003
,
0100
0010
0100
0010
,
1000
0000
0001
0000
,
0010
0100
1000
0000
,
0002
0003
2000
3000
,
0010
0100
0010
0100
,
0000
0001
0001
0010
,
0000
0001
0001
0010
,
0000
0001
0001
0010
,
0100
0000
1000
0010
,
0200
0000
0300
0000
;

//---------------dance-single - ----------------
#NOTES:
     dance-single:
     :
     Beginner:
     1:
     0.097530,0.126715,0.082753,0.000000,0.000000,87.000000,12.000000,0.000000,0.000000,0.000000,0.000000,0.097530,0.126715,0.082753,0.000000,0.000000,87.000000,12.000000,0.000000,0.000000,0.000000,0.000000:
0000
0000
0000
0000
,
0000
0000
0000
0000
,
0100
0000
0000
0000
,
0010
0000
0000
0000
,
1000
0000
1000
0000
,
0001
0000
0001
0000
,
0010
0000
0000
0000
,
0100
0000
0000
0000
,
1000
0000
1000
0000
,
0001
0000
0001
0000
,
0100
0100
0100
0100
,
0000
0000
0010
0000
,
1000
0000
1000
0000
,
0001
0000
0000
0000
,
0010
0010
0010
0010
,
0000
0000
0001
0000
,
0100
0000
0100
0000
,
0010
0000
0000
0000
,
1001
0000
0100
0000
,
0010
0000
1000
0000
,
0100
0000
0100
0000
,
0010
0000
0001
0001
,
0001
0000
1000
0000
,
0010
0000
0100
0000
,
0100
0000
0001
0000
,
1000
1000
1000
0000
,
1001
0000
0000
0000
,
1001
0000
0000
0000
,
1001
0000
0000
0000
,
0010
0000
0100
0000
,
1001
0000
0000
0000
,
1001
0000
0000
0000
,
1001
0000
0000
0000
,
0010
0000
0100
0000
,
0001
0000
0000
0000
,
0000
0000
0000
0000
,
1000
0000
0000
0000
,
0000
0100
0000
0100
,
0000
0010
0000
0010
,
0000
1001
0000
0000
,
0100
0000
0000
0000
,
1001
0000
0010
0000
,
0100
0000
0001
0000
,
0010
0000
0010
0000
,
0100
0000
1000
1000
,
1000
0000
0001
0000
,
0100
0000
0010
0000
,
0010
0000
1000
0000
,
0001
0001
0001
0000
,
1001
0000
0000
0000
,
1001
0000
0000
0000
,
1001
0000
0000
0000
,
0100
0000
0010
0000
;
