#TITLE:Photograph;
#SUBTITLE:;
#ARTIST:Ed Sheeran;
#TITLETRANSLIT:;
#SUBTITLETRANSLIT:;
#ARTISTTRANSLIT:;
#GENRE:DDR Extreme Burger King Code;
#CREDIT:;
#BANNER:Photograph.png;
#BACKGROUND:Photograph-bg.png;
#LYRICSPATH:;
#CDTITLE:;
#MUSIC:Photograph.ogg;
#OFFSET:-0.007000;
#SAMPLESTART:70.307152;
#SAMPLELENGTH:15.533999;
#SELECTABLE:YES;
#DISPLAYBPM:108.000000;
#BPMS:0.000000=108.000000
,189.500000=104.000000
,190.500000=108.000000
,224.000000=106.500000
,228.000000=108.000000
;
#STOPS:
;
#BGCHANGES:4.000=Photograph.avi=1.000=0=0=1=====,
99999=-nosongbg-=1.000=0=0=0 // don't automatically add -songbackground-
;
#KEYSOUNDS:;
#ATTACKS:;

//---------------dance-single - ----------------
#NOTES:
     dance-single:
     :
     Hard:
     6:
     0.368063,0.394822,0.167120,0.132304,0.000000,327.000000,24.000000,19.000000,0.000000,0.000000,0.000000,0.368063,0.394822,0.167120,0.132304,0.000000,327.000000,24.000000,19.000000,0.000000,0.000000,0.000000:
0000
0000
0000
0000
,
0000
0000
0000
0000
,
0000
0000
0000
0000
,
0000
0000
0000
0000
,
1000
0000
0000
0001
0000
0000
0100
0000
,
0100
0000
0000
0010
0000
0000
1000
0100
,
0010
0000
0000
0001
0000
0000
1000
0000
,
0010
0000
0000
0000
,
2000
0000
3001
0100
0001
0000
1100
0000
,
0001
0000
1000
0000
0010
1000
0100
0000
,
0020
0000
0031
1000
0010
0000
0011
0000
,
1000
0000
0001
1000
0010
0100
0001
0000
,
2000
0000
3100
0010
0001
0000
0100
0010
,
2000
0000
3001
0100
0010
0000
1000
0100
,
0010
0000
0001
1000
0000
0000
0110
0000
,
0001
0000
1000
0001
0100
0100
0010
1000
,
0200
0000
0310
0001
0000
1000
0010
0000
,
0100
0000
0001
1000
0001
0100
0010
0000
,
2000
0000
3100
0010
0000
0001
1000
0000
,
0101
0000
1000
0001
0010
0100
1000
0000
,
0002
0000
0013
0100
1000
0000
0010
0100
,
0002
0000
1003
0010
0100
0000
0001
0010
,
0100
0000
1000
0001
0000
0000
0110
0000
,
1000
0000
0001
1000
0010
0010
0100
0001
,
1000
0100
1000
0100
1000
0100
0001
0010
,
1000
0001
0100
0000
0010
1000
0001
0000
,
0100
0001
0100
0001
0100
0001
1000
0010
,
0001
0100
1000
0000
0010
1000
0100
0000
,
1000
0000
0001
0100
0010
0000
1000
0000
,
0001
0000
1000
0010
0100
0000
0001
0000
,
1000
0100
0010
0001
1000
0000
0010
0000
,
0202
0000
0000
0303
,
1001
0000
1000
1100
0002
0000
0103
0000
,
0010
1000
1000
0001
0001
0010
0001
1000
,
1100
0000
0001
1001
2000
0000
3010
0000
,
1000
0001
0001
0100
0100
0010
1000
0100
,
0110
0000
0010
0011
0002
0000
1003
0000
,
0001
0100
0100
0020
0000
1030
0100
0010
,
0001
0000
1000
0010
0100
0001
1000
0000
,
0001
0000
0100
0010
0010
1000
1000
0001
,
1001
0000
0001
0011
2000
0000
3010
0000
,
0100
0001
0001
1000
1000
0100
1000
0001
,
0011
0000
1000
1001
0002
0000
0103
0000
,
0001
1000
1000
0010
0010
0100
0001
0010
,
0110
0000
0100
1100
2000
0000
3001
0000
,
1000
0010
0010
0200
0000
0301
0010
0100
,
1000
0000
0001
0100
0010
1000
0001
0000
,
1000
1000
0010
0200
0000
0301
0010
0100
,
1100
0000
0001
0010
0010
0001
1001
0000
,
1000
0010
0001
0010
0100
0001
0010
0100
,
0110
0000
0100
1000
0010
0010
0100
0000
,
0001
0100
1000
0100
0010
1000
0100
0010
,
0011
0000
1000
0001
0001
0100
0010
0000
,
1000
0001
0001
0100
0010
1000
0010
0001
,
0010
0100
0001
0010
0100
1000
0010
0100
,
0001
1000
0100
0010
0001
1000
0010
0100
,
0001
0000
0000
0000
,
1000
0000
0000
0001
0000
0000
0010
0001
,
1000
0000
1100
0000
,
0001
0000
0000
1000
0000
0000
0100
0010
,
0001
0000
0101
0000
,
0001
0000
0000
1000
0000
0000
0100
0010
,
0001
0000
0000
0000
1000
0000
0001
0100
,
1000
0000
0000
0000
;

//---------------dance-double - ----------------
#NOTES:
     dance-double:
     :
     Challenge:
     6:
     0.365079,0.372888,0.104450,0.236754,0.000000,318.000000,15.000000,34.000000,0.000000,0.000000,0.000000,0.365079,0.372888,0.104450,0.236754,0.000000,318.000000,15.000000,34.000000,0.000000,0.000000,0.000000:
// measure 0
00000000
00000000
00000000
00000000
,  // measure 1
00000000
00000000
00000000
00000000
,  // measure 2
00000000
00000000
00000000
00000000
,  // measure 3
00000000
00000000
00000000
00000000
,  // measure 4
20000000
00000000
00000000
30100000
00000000
00000000
00100000
10000000
,  // measure 5
00020000
00000000
00000000
01030000
00000000
00000000
01000000
00001000
,  // measure 6
00020000
00000000
00000000
00030100
00000000
00000000
00000100
00001000
,  // measure 7
00000010
00000000
00000000
00000000
,  // measure 8
00002000
00000000
00003010
00000100
00000100
00000010
00002000
00000000
,  // measure 9
00003001
00000000
00000010
00000000
00000001
00000010
00000100
00001000
,  // measure 10
00000002
00000000
00000103
00000010
00000010
00000100
00000002
00000000
,  // measure 11
00001003
00000000
00001100
00000000
00000001
00000100
00000010
00002000
,  // measure 12
00000000
00003100
00000010
00000020
00000000
00000031
00001000
00000001
,  // measure 13
00001000
00000000
00000010
00000100
00000000
00000100
00000001
00001000
,  // measure 14
00000100
00000000
00010000
00000100
00000100
00010000
00001000
00000000
,  // measure 15
00110000
00000000
00001000
00001000
00100000
00010000
01000000
00000000
,  // measure 16
00020000
00000000
01030000
00100000
00100000
01000000
00020000
00000000
,  // measure 17
10030000
00000000
01000000
00000000
10000000
01000000
00100000
00010000
,  // measure 18
20000000
00000000
30100000
01000000
01000000
00100000
20000000
00000000
,  // measure 19
30010000
00000000
00110000
00000000
10000000
00100000
01000000
00020000
,  // measure 20
00000000
00130000
01000000
02000000
00000000
13000000
00010000
10000000
,  // measure 21
00010000
00000000
01000000
00100000
00000000
00100000
10000000
00010000
,  // measure 22
00100000
00000000
00001000
00100000
00100000
00001000
00010000
00000000
,  // measure 23
00001100
00000000
00010000
00010000
00000100
00001000
00000010
00000000
,  // measure 24
00001000
00000100
00001000
00000100
00001000
00000100
00010000
00010000
,  // measure 25
00001000
00000000
00100000
00100000
00000000
00001000
00010000
00001000
,  // measure 26
00100000
00010000
00100000
00010000
00100000
00010000
00100000
00100000
,  // measure 27
00001000
00000000
00010000
00001000
00000000
00001000
00010000
00000000
,  // measure 28
00002000
00000000
00003100
00000000
00000001
00001000
00000100
00000000
,  // measure 29
00000020
00000000
00000031
00000000
00001000
00000010
00000100
00000000
,  // measure 30
00000002
00000000
00002003
00000000
00003100
00010000
00001000
00000000
,  // measure 31
00020000
00000000
00000000
00030000
,  // measure 32
00101000
00010000
00010100
00001000
,  // measure 33
00010000
00001000
00100000
00200000
00000000
00310000
01000000
00100000
,  // measure 34
10000000
00100000
10020000
01030000
,  // measure 35
10000000
01000000
00100000
00020000
00000000
01030000
00100000
01000000
,  // measure 36
00010000
10000000
21000000
30010000
,  // measure 37
10000000
00100000
00100000
02000000
00000000
03010000
10000000
01000000
,  // measure 38
00100000
00000000
00010000
00100000
00001000
00001000
00010000
00000000
,  // measure 39
00001000
00010000
01000000
00010000
00001000
00000000
00011000
00000000
,  // measure 40
00010100
00001000
00101000
00010000
,  // measure 41
00001000
00010000
00000100
00000200
00000000
00001300
00000010
00000100
,  // measure 42
00000001
00000100
00002001
00003010
,  // measure 43
00000001
00000010
00000100
00002000
00000000
00003010
00000100
00000010
,  // measure 44
00001000
00000001
00000012
00001003
,  // measure 45
00000001
00000100
00000100
00000020
00000000
00001030
00000001
00000010
,  // measure 46
00000100
00000000
00001000
00000100
00010000
00010000
00001000
00000000
,  // measure 47
00010000
00001000
00000010
00002000
00000000
00013000
00100000
10000000
,  // measure 48
01000000
00000000
10000000
00100000
00200000
00000000
01300000
00000000
,  // measure 49
00010000
01000000
00100000
10000000
01000000
00100000
00010000
10000000
,  // measure 50
00100000
00000000
01000000
00010000
00020000
00000000
10030000
00000000
,  // measure 51
00010000
01000000
00001000
00010000
00010000
00000100
00001000
00000010
,  // measure 52
00000010
00000000
00000100
00000001
00000002
00000000
00001003
00000000
,  // measure 53
00001000
00000100
00000010
00000001
00000001
00000100
00000010
00001000
,  // measure 54
00001000
00000000
00000100
00010000
00001000
00001000
00010000
00000000
,  // measure 55
00000100
00001000
00000010
00000100
00000001
00001000
00000100
00010000
,  // measure 56
00001000
00000000
00000000
00000000
,  // measure 57
00100000
00000000
00000000
00010000
00000000
00000000
01000000
00100000
,  // measure 58
10000000
00000000
11000000
00000000
,  // measure 59
10000000
00000000
00000000
00010000
00000000
00000000
01000000
00010000
,  // measure 60
00100000
00000000
00101000
00000000
,  // measure 61
00001000
00000000
00000000
00010000
00000000
00000000
00000100
00001000
,  // measure 62
00000001
00000000
00000000
00000000
00000100
00000000
00000010
00001000
,  // measure 63
00000100
00000000
00000000
00000000
;

//---------------dance-single - ----------------
#NOTES:
     dance-single:
     :
     Medium:
     4:
     0.270576,0.350953,0.125340,0.355131,0.000000,203.000000,18.000000,51.000000,0.000000,0.000000,0.000000,0.270576,0.350953,0.125340,0.355131,0.000000,203.000000,18.000000,51.000000,0.000000,0.000000,0.000000:
0000
0000
0000
0000
,
0000
0000
0000
0000
,
0000
0000
0000
0000
,
0000
0000
0000
0000
,
2000
3000
0010
0100
,
0002
0003
1000
0100
,
0020
0030
0001
1000
,
2002
0000
0000
3003
,
0100
0001
1000
1100
,
0001
0000
0000
0000
1000
0100
0010
0000
,
0001
1000
0010
0110
,
1000
0000
0000
0000
0010
1000
0001
0000
,
0200
0310
1000
0000
,
0200
0000
0310
0000
0001
0000
1000
0100
,
1000
0010
0100
0110
,
0001
0000
0000
0000
0001
0100
0010
0000
,
2000
3020
2030
3010
,
0100
0000
0001
1000
0100
0010
0001
0000
,
0020
0032
0023
0032
,
1003
0000
0000
0000
0001
1000
0010
0000
,
0200
0010
0310
0000
,
0100
0001
1000
0100
,
0020
0100
0130
0000
,
0010
0001
1000
0000
,
0001
0100
0001
0100
0001
0100
0001
0000
,
1000
0000
0001
1001
,
1000
0100
1000
0100
1000
0100
1000
0000
,
0001
0000
1000
1001
,
0200
0310
1000
0000
,
0200
0310
0001
0000
,
2000
3001
1000
0010
,
0200
0000
0300
0000
,
2002
3003
0220
0330
,
0001
0100
1000
0010
,
2020
3030
0202
0303
,
0100
0001
1000
0100
,
2200
3300
0022
0033
,
0001
0000
0010
0000
1000
0000
0001
1000
,
0001
0000
0100
0010
,
1000
0000
0100
0010
,
0220
0330
2002
3003
,
1000
0010
0001
1000
,
2200
3300
0022
0033
,
1000
0001
0100
0010
,
0202
0303
2020
3030
,
0001
0000
1000
0000
0100
0000
0010
0001
,
1000
0000
0010
0100
,
0001
0000
1000
0000
0000
0001
0010
0100
,
2000
3000
0002
0003
,
0100
0000
0001
0000
1000
0000
0100
0010
,
0002
0003
2000
3000
,
0010
0000
1000
0000
0001
0000
0100
0010
,
2000
3000
0200
0300
,
0010
0000
0001
0000
1000
0000
0001
0100
,
0020
0030
1000
0001
,
1000
0100
1000
0100
0010
0001
0010
0001
,
0100
0000
0000
0000
,
0010
0000
0010
0000
,
1000
0000
1000
0000
,
0100
0000
0100
0000
,
0010
0000
0010
0000
,
0001
0000
0001
0000
,
0100
0000
0000
0000
0000
0000
0001
1000
,
0010
0000
0000
0000
;

//---------------dance-single - ----------------
#NOTES:
     dance-single:
     :
     Easy:
     2:
     0.124346,0.175476,0.104450,0.027853,0.000000,106.000000,15.000000,4.000000,0.000000,0.000000,0.000000,0.124346,0.175476,0.104450,0.027853,0.000000,106.000000,15.000000,4.000000,0.000000,0.000000,0.000000:
0000
0000
0000
0000
,
0000
0000
0000
0000
,
0000
0000
0000
0000
,
0000
0000
0000
0000
,
0100
0000
0000
0000
,
0010
0000
0000
0000
,
1000
0000
0000
0000
,
0001
0000
0000
0000
,
1000
0100
0010
0001
,
0100
0000
0000
0000
,
0001
0010
0100
1000
,
0010
0000
0000
0000
,
1000
0000
0001
0000
,
0100
0000
0100
0000
,
0010
0000
0000
0000
,
1000
0000
0000
0000
,
0001
0100
0010
1000
,
0010
0000
0000
0000
,
1000
0100
0010
0001
,
0010
0000
0000
0000
,
0001
0000
1000
0000
,
0010
0000
0100
0000
,
0001
0000
0000
0000
,
1000
0000
0000
0000
,
0100
0010
0100
0010
,
0010
0000
0000
0000
,
0001
1000
0001
1000
,
1000
0000
0000
0000
,
0020
0000
0030
0000
,
0200
0000
0300
0000
,
0002
0000
0003
0000
,
2000
0000
3000
0000
,
1001
0000
0100
0000
,
1000
0000
0001
0000
,
1001
0000
0100
0000
,
0010
0000
0010
0000
,
0110
0000
1000
0000
,
0100
0000
0100
0000
,
1001
0000
0000
0000
,
0100
0000
0000
0000
,
1001
0000
1000
0000
,
0010
0000
0100
0000
,
1001
0000
0001
0000
,
0010
0000
0010
0000
,
0110
0000
0100
0000
,
1000
0000
0001
0000
,
1001
0000
0000
0000
,
0100
0000
0000
0000
,
1001
0000
1001
0000
,
0100
0000
1000
0000
,
1001
0000
1001
0000
,
0001
0000
0100
0000
,
0110
0000
0110
0000
,
0010
0000
1000
0000
,
1001
0000
0000
0000
,
1000
0100
0010
0001
,
1000
0000
0000
0000
,
0001
0000
0000
0000
,
0100
0000
0100
0000
,
0010
0000
0000
0000
,
1000
0000
1000
0000
,
0100
0000
0000
0000
,
1000
0000
0001
0000
,
0100
0000
0000
0000
;

//---------------dance-single - ----------------
#NOTES:
     dance-single:
     :
     Beginner:
     1:
     0.081571,0.109673,0.027853,0.000000,0.000000,78.000000,4.000000,0.000000,0.000000,0.000000,0.000000,0.081571,0.109673,0.027853,0.000000,0.000000,78.000000,4.000000,0.000000,0.000000,0.000000,0.000000:
0000
0000
0000
0000
,
0000
0000
0000
0000
,
0000
0000
0000
0000
,
0000
0000
0000
0000
,
1000
0000
0000
0000
,
0001
0000
0000
0000
,
0100
0000
0000
0000
,
0100
0000
0000
0000
,
0010
0000
0000
0000
,
1000
0000
1000
0000
,
0100
0000
0000
0000
,
0010
0000
0010
0000
,
0001
0000
0000
0000
,
1000
0000
0000
0000
,
0010
0000
0000
0000
,
0100
0000
0000
0000
,
0001
0000
0001
0000
,
0010
0000
0000
0000
,
0100
0000
0100
0000
,
1000
0000
0000
0000
,
0010
0000
0000
0000
,
0100
0000
0000
0000
,
0001
0000
0000
0000
,
1000
0000
0000
0000
,
0100
0100
0100
0000
,
0100
0000
0000
0000
,
0010
0010
0010
0000
,
0010
0000
0000
0000
,
0001
0000
0000
0000
,
1000
0000
0000
0000
,
0010
0000
0000
0000
,
0100
0000
0000
0000
,
1001
0000
1000
0000
,
0100
0000
0000
0000
,
0010
0000
0010
0000
,
0001
0000
0000
0000
,
0100
0000
0100
0000
,
0010
0000
0000
0000
,
1000
0000
0000
0000
,
0001
0000
0000
0000
,
1001
0000
0001
0000
,
0100
0000
0000
0000
,
0010
0000
0010
0000
,
1000
0000
0000
0000
,
0100
0000
0100
0000
,
0010
0000
0000
0000
,
0001
0000
0000
0000
,
1000
0000
0000
0000
,
0110
0000
0010
0000
,
1000
0000
0000
0000
,
0100
0000
0100
0000
,
0010
0000
0000
0000
,
0001
0000
0001
0000
,
1000
0000
0000
0000
,
0010
0000
0000
0000
,
1000
0000
0001
0000
,
0100
0000
0000
0000
,
0010
0000
0000
0000
,
1000
0000
0000
0000
,
0001
0000
0000
0000
,
1000
0000
0000
0000
,
0100
0000
0000
0000
,
0010
0000
0000
0000
,
1001
0000
0000
0000
;
