#VERSION:0.82;
#TITLE:Pedestrian At Best;
#SUBTITLE:;
#ARTIST:Courtney Barnett;
#TITLETRANSLIT:;
#SUBTITLETRANSLIT:;
#ARTISTTRANSLIT:;
#GENRE:Clown Rock;
#ORIGIN:;
#CREDIT:;
#BANNER:Pedestrian At Best.png;
#BACKGROUND:Pedestrian At Best-bg.png;
#PREVIEWVID:;
#JACKET:jacket.png;
#CDIMAGE:;
#DISCIMAGE:;
#LYRICSPATH:;
#CDTITLE:;
#MUSIC:Pedestrian At Best.ogg;
#OFFSET:-0.464000;
#SAMPLESTART:35.715858;
#SAMPLELENGTH:13.714000;
#SELECTABLE:YES;
#BPMS:0.000=136.000;
#STOPS:;
#DELAYS:;
#WARPS:;
#TIMESIGNATURES:0.000=4=4;
#TICKCOUNTS:0.000=4;
#COMBOS:0.000=1;
#SPEEDS:0.000=1.000=0.000=0;
#SCROLLS:0.000=1.000;
#FAKES:;
#LABELS:0.000=Song Start;
#BGCHANGES:4.000=Pedestrian At Best.avi=1.000=0=0=1=====,
99999=-nosongbg-=1.000=0=0=0 // don't automatically add -songbackground-
;
#KEYSOUNDS:;
#ATTACKS:
;

//---------------dance-single - ----------------
#NOTEDATA:;
#CHARTNAME:;
#STEPSTYPE:dance-single;
#DESCRIPTION:;
#CHARTSTYLE:;
#DIFFICULTY:Hard;
#METER:8;
#RADARVALUES:0.570687,0.615806,0.263877,0.337177,0.036650,463.000000,36.000000,46.000000,0.000000,0.000000,0.000000,0.000000,0.000000,0.570687,0.615806,0.263877,0.337177,0.036650,463.000000,36.000000,46.000000,0.000000,0.000000,0.000000,0.000000,0.000000;
#CREDIT:Ben Speirs;
#NOTES:
0000
0000
0000
0000
,
0000
0000
0000
0000
,
0000
0000
0000
0000
,
0000
0000
0000
0000
,
2100
0000
3100
1000
0002
0000
0103
0001
,
2000
0000
3010
1000
0001
0010
0100
0000
,
0012
0000
0013
0001
2000
0000
3010
1000
,
0002
0000
0103
0001
1000
0100
0010
0000
,
1100
0000
0001
0100
1000
0000
0010
0001
,
0100
0000
1000
0100
0001
0000
0010
1000
,
0100
0000
0001
0100
1000
0000
0010
0001
,
0100
0000
1000
0100
0001
0010
1000
0000
,
0002
0000
0000
0103
0200
0000
0000
0310
,
0020
0000
0000
1030
0100
0010
0001
1000
,
2010
0000
0000
3001
0002
0000
0000
0103
,
0200
0000
0000
0310
1000
0001
0100
0000
,
1001
0000
0100
0010
0010
0000
1000
0100
,
0010
0001
0100
0010
1000
0001
0100
0000
,
0001
0000
1000
0100
0100
0000
1000
0010
,
0100
0001
1000
0100
0010
0001
1000
0000
,
0001
0010
0100
0010
0001
0100
0100
0001
,
1000
0100
1000
0001
1000
0010
0010
0100
,
0101
0000
1100
0000
0001
1000
0001
0000
,
1100
0000
0101
0000
1000
0001
1001
0000
,
1000
0100
0010
0100
1000
0010
0010
1000
,
0001
0010
0001
1000
0001
0100
0100
0010
,
1010
0000
0011
0000
1000
0001
1000
0000
,
0011
0000
1010
0000
0001
1000
0001
0000
,
1000
0100
1000
0100
0010
0010
0001
1000
,
0001
0100
0001
0100
0010
0010
1000
0001
,
0101
0000
1100
0000
0001
1000
0001
0000
,
1010
0000
0011
0000
1000
0001
1001
0000
,
0001
0010
0001
0010
0100
0100
1000
0001
,
1000
0010
1000
0010
0100
0100
0001
0000
,
1000
0100
0001
1000
0010
0001
0100
1000
,
0001
0010
1000
0100
0001
1000
0010
0001
,
0200
0000
0310
0100
0002
0000
0103
0001
,
2000
0000
3100
1000
0001
0010
0100
1000
,
0002
0000
0103
0010
2000
0000
3100
0010
,
0002
0000
1003
0010
0100
0001
0001
1000
,
1100
0001
0100
1000
,
0010
0001
0100
1000
,
0010
0001
0010
1000
,
0100
0001
0010
1000
,
0002
0000
0103
0010
2000
0000
3100
0000
,
0010
0001
1000
0000
0010
1000
0001
0000
,
0200
0000
0310
1000
0002
0000
0013
0000
,
0001
0000
1000
0100
0010
0001
0100
0000
,
2010
3001
0012
1003
,
2100
3001
0102
1003
,
0020
0000
0130
0001
2000
0000
3100
0010
,
0002
0000
1003
0010
1000
0001
0010
0000
,
1100
0000
0110
0000
0011
1000
0001
0000
,
0101
0000
0110
0000
1010
0001
0100
0000
,
0001
1000
0001
1000
0010
0100
0010
0100
,
0001
0010
0100
1000
0010
0100
0001
0000
,
1000
0000
0100
0000
1000
0000
0001
0000
0100
0000
0010
1000
0010
0000
0100
0000
,
0001
0000
1000
0000
0100
0000
0010
0000
0001
0000
1000
0010
1000
0000
0001
0000
,
0201
0000
0320
0000
1030
0001
1000
0100
,
0120
0000
0032
0000
1003
0100
1000
0001
,
0100
0000
0100
0000
0010
0000
1000
0000
0001
0000
0010
0100
0010
0000
0001
0000
,
1000
0000
0010
0000
0100
0000
0001
0000
1000
0000
0001
0100
0001
0000
1000
0000
,
2010
0000
3002
0000
0013
0100
1000
0010
,
0210
0000
0302
0000
1003
0100
0010
0000
,
0001
0000
1000
0000
0001
0000
1000
0000
0010
0000
0100
0010
0100
0000
0001
0000
,
1000
0000
0001
0000
1000
0000
0001
0000
1000
0000
0100
0010
0100
0000
0010
0000
,
0002
0000
1003
0100
1000
0100
1000
0000
,
0002
0000
0103
0010
0100
0010
0100
0000
,
0001
0000
0010
0000
0100
0000
1000
0000
0001
0000
1000
0010
1000
0000
0010
0000
,
1000
0000
0001
0000
0010
0000
0100
0000
1000
0000
0001
0100
0001
0000
1000
0000
,
0001
0010
1000
0001
0100
1000
0010
0001
,
1000
0100
0001
0010
1000
0001
0100
1000
,
0020
0000
0130
0010
2000
0000
3010
1000
,
0002
0000
0013
0001
1000
0100
0010
0001
,
0200
0000
0000
0000
0310
0000
1000
0100
2000
0000
0000
0000
3010
0000
0100
0001
,
0200
0000
0310
1000
0100
0010
0011
1010
,
0002
0000
0000
0003
0000
0000
0000
0000
;

//---------------dance-double - ----------------
#NOTEDATA:;
#CHARTNAME:;
#STEPSTYPE:dance-double;
#DESCRIPTION:;
#CHARTSTYLE:;
#DIFFICULTY:Challenge;
#METER:8;
#RADARVALUES:0.554980,0.528350,0.307857,0.447126,0.000000,427.000000,42.000000,61.000000,0.000000,0.000000,0.000000,0.000000,0.000000,0.554980,0.528350,0.307857,0.447126,0.000000,427.000000,42.000000,61.000000,0.000000,0.000000,0.000000,0.000000,0.000000;
#CREDIT:Ben Speirs;
#NOTES:
// measure 0
00000000
00000000
00000000
00000000
,  // measure 1
00000000
00000000
00000000
00000000
,  // measure 2
00000000
00000000
00000000
00000000
,  // measure 3
00000000
00000000
00000000
00000000
,  // measure 4
21000000
00000000
00000000
31000000
00020000
00000000
00030000
00010000
,  // measure 5
00002000
00000000
00003000
00001000
00000100
00000001
00000010
00000100
,  // measure 6
00002000
00000000
00003010
00000100
00000002
00000000
00000013
00000100
,  // measure 7
00002000
00000000
00003010
00001000
00000100
00000010
00000001
00000000
,  // measure 8
00000201
00000000
00000300
00000100
00002000
00000000
00003000
00001000
,  // measure 9
00020000
00000000
00030000
00010000
01000000
10000000
00010000
00000000
,  // measure 10
20100000
00000000
30010000
00100000
02000000
00000000
13000000
00100000
,  // measure 11
02000000
00000000
03010000
10000000
01000000
00100000
00010000
00000000
,  // measure 12
11000000
00000000
01000000
00100000
00010000
00000000
00100000
00001000
,  // measure 13
00010000
00000000
00001000
00010000
00000100
00000000
00001000
00000100
,  // measure 14
00000020
00000000
00000031
00000100
00000020
00000000
00000130
00000010
,  // measure 15
00002000
00000000
00003100
00001000
00000010
00000100
00000001
00000000
,  // measure 16
00000201
00000000
00000301
00000100
00000020
00000000
00000130
00000010
,  // measure 17
00002000
00000000
00003100
00010000
00002000
00000000
00103000
00010000
,  // measure 18
02000000
00000000
03100000
10000000
00020000
00000000
00130000
00010000
,  // measure 19
10000000
00100000
01000000
00010000
10000000
00000000
01010000
00000000
,  // measure 20
10000000
00100000
10000000
00010000
01000000
00100000
00100000
10000000
,  // measure 21
01000000
00100000
00010000
10000000
00100000
01000000
01000000
00010000
,  // measure 22
01010000
00000000
11000000
00000000
10000000
01000000
00010000
00000000
,  // measure 23
00011000
00000000
00011000
00000000
00001000
00000100
00000001
00000000
,  // measure 24
00001000
00000100
00001000
00000100
00000010
00000001
00000001
00000100
,  // measure 25
00000010
00000100
00000001
00000010
00000100
00001000
00001000
00000001
,  // measure 26
00000101
00000000
00000101
00000000
00000001
00000100
00001000
00000000
,  // measure 27
00011000
00000000
00011000
00000000
00001000
00010000
01000000
00000000
,  // measure 28
10000000
01000000
00100000
00010000
10000000
10000000
00100000
10000000
,  // measure 29
01000000
01000000
00100000
00100000
00010000
00010000
01000000
00010000
,  // measure 30
00110000
00011000
00001010
00011000
,  // measure 31
00110000
00000000
00011000
00000000
00001010
00000010
00000100
00000000
,  // measure 32
00000001
00000100
00001000
00000100
00000002
00000000
00001003
00000000
,  // measure 33
00000001
00000010
00000100
00001000
00000020
00000000
00020030
00000000
,  // measure 34
00030100
00010000
00001000
00100000
00000100
00010000
00001000
00100000
,  // measure 35
00000100
00010000
00001000
00100000
00000100
00010000
00001000
00100000
,  // measure 36
00020000
00000000
01030000
00100000
20000000
00000000
31000000
00100000
,  // measure 37
00020000
00000000
10030000
00100000
01000000
00010000
10000000
01000000
,  // measure 38
00200000
00000000
00310000
00100000
00002000
00000000
00013000
00000100
,  // measure 39
00002000
00000000
00003100
00001000
00000010
00000100
00000002
00000000
,  // measure 40
00002003
00000100
00000000
00000100
,  // measure 41
00000000
00000100
00000000
00003100
,  // measure 42
00000002
00000000
00000103
00001000
00020000
00000000
00031000
00010000
,  // measure 43
02000000
00000000
13000000
01000000
00100000
00010000
20000000
00000000
,  // measure 44
30200000
00010000
00000000
00010000
,  // measure 45
00000000
00010000
00000000
00010000
,  // measure 46
20300000
00000000
30100000
10000000
02000000
00000000
03100000
00010000
,  // measure 47
02000000
00000000
03010000
00100000
00001000
00010000
00000200
00000000
,  // measure 48
00002300
00000000
00003010
00000100
00000002
00000000
00001003
00000100
,  // measure 49
00020000
00000000
00031000
00010000
00000200
00000000
00000310
00000001
,  // measure 50
00000100
00000100
00000010
00001000
00000100
00000100
00010000
00001000
,  // measure 51
00200000
00000000
00310000
01000000
00100000
10000000
00010000
00000000
,  // measure 52
11000000
00000000
01000000
00100000
00010000
00000000
00110000
00000000
,  // measure 53
10100000
00000000
00010000
10000000
00100000
00000000
10010000
00000000
,  // measure 54
01010000
00011000
00101000
00011000
,  // measure 55
00010100
00010000
00001000
00010000
00000100
00001000
00000010
00000000
,  // measure 56
00000100
00000001
00000100
00000010
00001000
00000100
00000100
00000010
,  // measure 57
00000001
00001000
00000001
00001000
00000010
00000100
00000100
00000001
,  // measure 58
00000101
00000000
00000101
00000000
00000100
00001000
00010000
01000000
,  // measure 59
11000000
00000000
11000000
00000000
01000000
00100000
00010000
00000000
,  // measure 60
10000000
01000000
10000000
00010000
01000000
00100000
00100000
10000000
,  // measure 61
01000000
00100000
00010000
10000000
00100000
01000000
01000000
00010000
,  // measure 62
10010000
00000000
10010000
00000000
10000000
01000000
00010000
00001000
,  // measure 63
00011000
00000000
00011000
00000000
00001000
00000100
00000001
00001000
,  // measure 64
00001100
00000000
00000001
00000010
00000100
00001000
00000001
00000000
,  // measure 65
00001010
00000000
00000011
00000000
00001000
00000100
00000010
00000001
,  // measure 66
00000200
00000000
00000320
00000000
00001030
00000100
00020000
00000000
,  // measure 67
00032000
00000000
00203000
00000000
00310000
01000000
00200000
00000000
,  // measure 68
10300000
00100000
00010000
00100000
20000000
00000000
30010000
00000000
,  // measure 69
10000000
01000000
00100000
00010000
02000000
00000000
03002000
00000000
,  // measure 70
00103000
00001000
00010000
00000100
00100000
00001000
00010000
00000100
,  // measure 71
00100000
00001000
00010000
00000100
00100000
00001000
00010000
00000100
,  // measure 72
00002000
00000000
00000000
00000001
00003002
00000000
00000000
00000103
,  // measure 73
00000200
00000000
00000000
00001300
00010000
01000000
10000000
00010000
,  // measure 74
02000000
00000000
00000000
00100000
03200000
00000000
00000000
10300000
,  // measure 75
20000000
00000000
00000000
01000000
31000000
00100000
00010000
00101000
;

//---------------dance-single - ----------------
#NOTEDATA:;
#CHARTNAME:;
#STEPSTYPE:dance-single;
#DESCRIPTION:;
#CHARTSTYLE:;
#DIFFICULTY:Medium;
#METER:6;
#RADARVALUES:0.497388,0.528350,0.329847,0.740323,0.000000,329.000000,45.000000,101.000000,0.000000,0.000000,0.000000,0.000000,0.000000,0.497388,0.528350,0.329847,0.740323,0.000000,329.000000,45.000000,101.000000,0.000000,0.000000,0.000000,0.000000,0.000000;
#CREDIT:Ben Speirs;
#NOTES:
0000
0000
0000
0000
,
0000
0000
0000
0000
,
0000
0000
0000
0000
,
0000
0000
0000
0000
,
2000
0000
3000
0001
0002
0000
0003
0100
,
0200
0000
0300
0010
0020
0000
2030
0000
,
3002
0000
0003
0010
0020
0000
0030
0100
,
0200
0000
0300
1000
2000
0000
3020
0000
,
0230
0000
0301
1000
0002
0000
0203
0000
,
0320
0000
1030
0001
2000
0000
3200
0000
,
0320
0000
0030
0001
0002
0000
0003
1000
,
2000
0000
3000
0010
0020
0000
0130
0000
,
0002
0000
0103
0010
2000
0000
3002
0000
,
2003
0000
3100
0010
0002
0000
2003
0000
,
3020
0000
0030
0100
0200
0000
0300
0001
,
0002
0000
0003
1000
2000
0000
3200
0000
,
0320
0000
0031
1000
0200
0000
0310
0001
,
0200
0000
0310
1000
0002
0000
0013
0000
,
2002
0000
3003
0010
0020
0000
0030
0100
,
0200
0000
0302
0000
1003
0100
0010
0000
,
1100
0000
0101
0000
0000
1000
1000
0001
,
0101
0000
1100
0000
0000
0001
0001
1000
,
1010
0000
0011
0000
0000
0001
0001
1000
,
1010
0000
0011
0000
0000
0100
0100
0000
,
0001
0000
1001
0000
1000
0100
0100
0000
,
1000
0000
1001
0000
0001
0100
0100
0000
,
0020
0000
0030
0000
1000
0100
0010
0001
,
0200
0000
0300
0000
0010
1000
0001
0000
,
1100
0000
1100
0000
0100
0010
0001
0000
,
0101
0000
0101
0000
0100
0010
1000
0000
,
2020
0000
3030
0000
0001
0010
0100
0000
,
0022
0000
0033
0000
1000
0001
0100
0000
,
0001
1000
0001
1000
0020
0000
0030
0000
,
1000
0001
1000
0000
0200
0000
0320
0000
,
0031
0100
0020
0000
1030
0100
0020
0000
,
0031
0100
0020
0000
1030
0100
0020
0000
,
0032
0000
0003
1000
2000
0000
3000
0010
,
0020
0000
0030
0100
0200
0000
0302
0000
,
2003
0000
3000
0100
0200
0000
0300
0010
,
0020
0000
0030
0001
0002
0000
1003
0000
,
0020
0100
0000
0100
,
0000
0100
0000
0100
,
2030
0000
3100
0010
0002
0000
0103
0010
,
2000
0000
3100
0010
0002
0000
2003
0000
,
3020
0100
0000
0100
,
0000
0100
0000
0100
,
2030
0000
3100
0010
0002
0000
0103
0010
,
2000
0000
3100
0010
0002
0000
1003
0000
,
0001
0101
1000
1100
,
0001
0011
1000
1010
,
2002
0000
3003
0010
0200
0000
0300
0001
,
0020
0000
0030
0100
2000
0000
3001
0000
,
0101
0010
1100
0001
,
0011
1000
1010
0001
,
0201
0000
0310
1000
0200
0000
0310
0000
,
0001
1000
0001
1000
0010
0100
0001
0000
,
0011
0000
1010
0000
0000
0001
0001
1000
,
1010
0000
0011
0000
0000
1000
1000
0001
,
0101
0000
1100
0000
0000
1000
1000
0001
,
0101
0000
1100
0000
0000
0010
0010
0000
,
1000
0000
1001
0000
0001
0010
0010
0000
,
0001
0000
1001
0000
1000
0010
0010
0000
,
0200
0000
0300
0000
0001
0010
0100
1000
,
0020
0000
0030
0000
0100
0001
1000
0000
,
0011
0000
0011
0000
0010
0100
1000
0000
,
1010
0000
1010
0000
0010
0100
0001
0000
,
0202
0000
0303
0000
1000
0100
0010
0000
,
2200
0000
3300
0000
0001
1000
0010
0000
,
1000
0001
1000
0001
0200
0000
0300
0000
,
0001
1000
0001
0000
0020
0000
0230
0000
,
1300
0010
0200
0000
0301
0010
0200
0000
,
1300
0010
0200
0000
0301
0010
0200
0000
,
1300
0000
0000
0001
0200
0000
0300
0001
,
2000
0000
3000
0001
0020
0000
0031
0000
,
2002
0000
3003
1000
0020
0000
0030
1000
,
0002
0000
0003
1000
0200
0000
0310
0011
;

//---------------dance-single - ----------------
#NOTEDATA:;
#CHARTNAME:;
#STEPSTYPE:dance-single;
#DESCRIPTION:;
#CHARTSTYLE:;
#DIFFICULTY:Easy;
#METER:4;
#RADARVALUES:0.262830,0.360907,0.117279,0.278537,0.000000,197.000000,16.000000,38.000000,0.000000,0.000000,0.000000,0.000000,0.000000,0.262830,0.360907,0.117279,0.278537,0.000000,197.000000,16.000000,38.000000,0.000000,0.000000,0.000000,0.000000,0.000000;
#CREDIT:Ben Speirs;
#NOTES:
0000
0000
0000
0000
,
0000
0000
0000
0000
,
0000
0000
0000
0000
,
0000
0000
0000
0000
,
1000
0000
0010
0000
,
0100
0000
0001
0000
,
1000
0010
0100
0001
,
1000
0010
0100
0001
,
1000
0000
0100
0000
,
0010
0000
0001
0000
,
1000
0100
0010
0001
,
1000
0100
0010
0001
,
1000
0000
0001
0000
,
0100
0000
0010
0000
,
1000
0001
0100
0010
,
1000
0001
0100
0010
,
1000
0000
0010
0000
,
0100
0000
0001
0000
,
1000
0010
0100
0001
,
1000
0010
0100
0001
,
2000
3000
0100
0010
,
0002
0003
0100
0001
,
2000
3000
0010
1000
,
0002
0003
0010
0001
,
0100
0100
0020
0030
,
1000
1000
0200
0300
,
2002
3003
0010
0000
,
2002
3003
0100
0000
,
0001
0100
0010
0000
,
1000
1000
0001
0001
,
0020
0030
0001
1000
,
0200
0000
0300
0000
,
1001
0000
0010
0000
,
1000
0100
0010
0000
,
0001
1000
0001
1000
,
0001
1000
0001
1000
,
0020
0030
0020
0030
,
0020
0030
1000
0001
,
0200
0300
0200
0300
,
0200
0300
0100
0001
,
0000
1000
0000
1000
,
0000
1000
0000
1000
,
0020
0030
0200
0300
,
0020
0030
0100
0100
,
0000
0001
0000
0001
,
0000
0001
0000
0001
,
0020
0030
0200
0300
,
0020
0030
0100
0100
,
2000
3000
0002
0003
,
0200
0000
0000
0300
,
0010
0010
1000
1000
,
0001
0001
0100
0000
,
0002
0003
2000
3000
,
0200
0000
0000
0300
,
1000
1000
0001
0001
,
1000
0001
0100
0010
,
2000
3000
0010
0100
,
0002
0003
1000
0000
,
1001
1001
0000
0000
,
1001
1001
0000
0000
,
0001
0100
0010
0010
,
1000
0100
0010
0000
,
1001
1001
0000
0000
,
1001
1001
0000
0000
,
1000
0100
1000
0000
,
0001
0001
0100
0000
,
1001
1001
0000
0000
,
1001
1001
0000
0000
,
0010
0010
1000
0000
,
0100
0100
0010
0000
,
0001
1000
0001
1000
,
0001
1000
0001
1000
,
0020
0030
0020
0030
,
0020
0030
1000
0001
,
0200
0300
0200
0300
,
0200
0300
0001
1001
;

//---------------dance-single - ----------------
#NOTEDATA:;
#CHARTNAME:;
#STEPSTYPE:dance-single;
#DESCRIPTION:;
#CHARTSTYLE:;
#DIFFICULTY:Beginner;
#METER:2;
#RADARVALUES:0.136127,0.194335,0.021990,0.000000,0.000000,127.000000,3.000000,0.000000,0.000000,0.000000,0.000000,0.000000,0.000000,0.136127,0.194335,0.021990,0.000000,0.000000,127.000000,3.000000,0.000000,0.000000,0.000000,0.000000,0.000000,0.000000;
#CREDIT:Ben Speirs;
#NOTES:
0000
0000
0000
0000
,
0000
0000
0000
0000
,
0000
0000
0000
0000
,
0000
0000
0000
0000
,
0001
0000
0000
0000
,
1000
0000
0000
0000
,
0010
0000
0010
0000
,
0100
0000
0001
0000
,
1000
0000
0000
0000
,
0001
0000
0000
0000
,
0010
0000
0010
0000
,
0100
0000
0010
0000
,
0001
0001
0000
0000
,
1000
1000
0000
0000
,
0010
0000
0010
0000
,
0100
0000
0010
0000
,
1000
1000
0000
0000
,
0001
0001
0000
0000
,
0010
0000
0010
0000
,
0100
0000
0010
0000
,
0001
0001
0000
0000
,
1000
1000
0000
0000
,
0010
0010
0000
0000
,
0010
0010
0000
0000
,
1000
1000
0000
0000
,
0001
0001
0000
0000
,
0010
0010
0000
0000
,
0010
0010
0000
0000
,
0001
0000
1000
0000
,
0001
0000
1000
0000
,
0100
0100
0000
0000
,
0100
0100
0000
0000
,
1000
0000
0001
0000
,
1000
0000
0001
0000
,
0100
0100
0000
0000
,
0100
0100
0000
0000
,
1001
0000
0000
0000
,
1000
0000
0000
0000
,
0001
0000
0000
0000
,
0100
0000
0000
0000
,
0000
0010
0000
0010
,
0000
0010
0000
0000
,
1000
0000
1000
0000
,
0001
0000
0001
0000
,
0000
0100
0000
0100
,
0000
0100
0000
0000
,
0001
0000
0001
0000
,
1000
0000
1000
0000
,
0010
0000
0000
0000
,
0100
0000
0000
0000
,
0001
0001
0000
0000
,
0001
0001
0000
0000
,
0100
0000
0000
0000
,
0010
0000
0000
0000
,
1000
1000
0000
0000
,
1000
1000
0000
0000
,
1001
0000
0000
0000
,
0100
0000
0000
0000
,
0010
0010
0000
0000
,
0010
0010
0000
0000
,
1000
1000
0000
0000
,
0001
0001
0000
0000
,
0100
0100
0000
0000
,
0100
0100
0000
0000
,
0001
0000
0001
0000
,
1000
0000
0000
0000
,
0010
0010
0010
0000
,
0010
0010
0010
0000
,
1000
0000
0000
0000
,
0001
0000
0001
0000
,
0100
0100
0000
0000
,
0100
0100
0000
0000
,
1001
0000
0000
0000
,
0010
0000
0010
0000
,
1000
0000
0000
0000
,
0100
0000
0010
0010
;
