#TITLE:Paris;
#SUBTITLE:;
#ARTIST:The Chainsmokers;
#TITLETRANSLIT:;
#SUBTITLETRANSLIT:;
#ARTISTTRANSLIT:;
#GENRE:House;
#CREDIT:;
#BANNER:Paris.png;
#BACKGROUND:Paris-bg.png;
#LYRICSPATH:;
#CDTITLE:;
#MUSIC:Paris.ogg;
#OFFSET:0.003000;
#SAMPLESTART:114.037285;
#SAMPLELENGTH:14.474003;
#SELECTABLE:YES;
#BPMS:0.000000=100.000000
;
#STOPS:
;
#BGCHANGES:4.000=Paris.avi=1.000=0=0=1=====,
99999=-nosongbg-=1.000=0=0=0 // don't automatically add -songbackground-
;
#KEYSOUNDS:;
#ATTACKS:;

//---------------dance-single - ----------------
#NOTES:
     dance-single:
     :
     Hard:
     7:
     0.360085,0.393843,0.168978,0.098571,0.073928,320.000000,24.000000,14.000000,0.000000,0.000000,0.000000,0.360085,0.393843,0.168978,0.098571,0.073928,320.000000,24.000000,14.000000,0.000000,0.000000,0.000000:
0000
0000
0000
0000
,
0000
0000
0000
0000
,
0000
0000
0000
0000
,
0000
0000
0000
0000
,
2010
0001
0100
3100
,
0002
0000
0100
0000
0103
0000
0100
0001
,
0010
0000
0010
0001
1000
0000
1000
0001
,
0100
0100
0010
1000
0001
0000
0100
0000
,
0102
1000
0010
0013
,
2000
0000
0010
0000
3010
0000
0010
1000
,
0100
0000
0100
1000
0001
0000
0001
1000
,
0010
0010
0100
0001
1000
0000
0010
0100
,
0001
0101
1100
0001
,
1000
0000
0000
0010
0100
0000
0000
0001
1000
0000
0000
0000
0010
0000
1000
0000
,
0100
0100
1000
0010
0100
0100
0001
0000
,
0100
0001
1000
0001
0010
0000
0001
1000
,
1000
1010
0011
1000
,
0001
0000
0000
0100
0010
0000
0000
1000
0001
0000
0000
0000
0100
0000
0001
0000
,
0010
0010
0001
0100
0010
0010
1000
0000
,
0010
1000
0001
1000
0100
0000
1001
1000
,
0010
0100
0001
0100
0020
0000
1030
0100
,
0010
0100
2000
0000
3001
0100
0010
0100
,
0002
0000
1003
0010
0100
0010
2000
0000
,
3001
0000
1000
0000
0010
0000
0100
0000
0001
1000
0000
0000
0010
0000
0000
0000
,
1001
0000
0000
0000
1000
0000
0010
0000
0010
0100
0000
0000
0001
0000
0000
0000
,
1000
0000
0000
0000
0001
0000
0010
0000
0010
0100
0000
0000
1000
0000
0001
0000
,
0100
0000
0000
0000
0010
0000
1000
0000
0001
1000
0000
0000
0010
0000
1000
0000
,
0100
0000
0100
0000
0010
0000
0010
0000
0001
1000
0000
0000
0010
0000
1000
0000
,
0001
0100
1000
0100
0002
0000
1003
0010
,
0001
0010
2000
0000
3001
0100
1000
0100
,
0002
0000
1003
0100
0001
0100
2000
0000
,
3010
0000
1000
0000
0100
0000
0010
0000
0001
1000
0000
0000
0010
0000
0000
0000
,
1000
0100
0001
0010
,
0010
0000
0000
0000
0001
0000
0000
0000
1000
0001
0000
0000
0000
0000
0000
0000
,
1000
0000
0010
0000
0100
0100
0100
0000
,
0001
0001
0001
0000
1000
0000
0000
0000
,
0001
0010
1000
0100
,
0100
0000
0000
0000
1000
0000
0000
0000
0001
1000
0000
0000
0000
0000
0000
0000
,
0001
0000
0100
0000
0010
0010
0010
0000
,
1000
1000
1000
0000
0001
0000
0000
0000
,
1100
0101
2100
3001
,
1000
0010
0100
0000
0001
1000
0010
0000
,
1010
0011
2010
3001
,
1000
0001
0100
0000
0001
1000
0100
0000
,
0010
0010
0100
0010
0001
0001
0100
0000
,
0001
0001
0100
0001
1000
1000
0100
0000
,
1000
0100
1010
0000
0001
0100
0011
0000
,
1000
0001
0110
0000
0001
1000
0110
0100
,
1001
0000
0001
0000
0100
0000
0010
0000
1000
0100
0000
0000
1000
0000
0001
0000
,
0100
0000
0100
0000
0010
0000
1000
0000
0001
0010
0000
0000
0001
0000
0100
0000
,
0001
0000
0001
0000
0100
0000
0010
0000
1000
0100
0000
0000
1000
0000
0010
0000
,
0100
0000
0100
0000
0001
0000
0001
0000
1000
0100
0000
0000
1100
0000
0001
0000
,
1000
0000
0101
0100
0110
0010
1010
0000
,
0001
0000
1000
0000
0010
0000
0100
0000
0001
1000
0000
0000
0001
0000
1000
0000
,
1100
0000
0100
0000
0010
0000
0001
0000
1000
0001
1000
0000
0010
0000
0000
0000
,
1000
0000
0010
0000
0100
0000
0001
0000
0100
0010
0100
0000
0001
0100
0000
0010
;

//---------------dance-single - ----------------
#NOTES:
     dance-single:
     :
     Challenge:
     9:
     0.511964,0.630149,0.133775,0.028163,0.503415,486.000000,19.000000,4.000000,0.000000,0.000000,0.000000,0.511964,0.630149,0.133775,0.028163,0.503415,486.000000,19.000000,4.000000,0.000000,0.000000,0.000000:
0000
0000
0000
0000
,
0000
0000
0000
0000
,
0000
0000
0000
0000
,
0000
0000
0000
0000
,
1000
0000
0000
0000
0001
0000
0000
0000
0100
0001
1000
0001
1000
0001
1000
0010
,
0100
0000
0001
0100
0010
0000
1000
0100
,
1000
0000
0010
0100
0010
0000
0100
0000
0001
0000
0000
0000
0100
0000
0001
0000
,
1000
0000
0010
1000
0010
0000
1000
0000
0001
0000
0010
0000
0001
0010
0100
1000
,
0001
0000
0000
0000
1000
0000
0000
0000
0010
1000
0001
1000
0001
1000
0001
0100
,
0010
0000
1000
0010
0100
0000
0001
0010
,
0001
0000
0100
0010
0100
0000
0010
0000
1000
0000
0000
0000
0010
0000
1000
0000
,
0001
0000
0100
0001
0100
0000
0001
0000
1000
0000
0100
0000
1000
0100
0010
0001
,
1000
0000
0100
1000
0100
0000
1000
0100
1000
0000
0000
0000
1001
0000
0000
0000
,
1000
0000
0010
0000
0100
0000
0000
0001
1000
0001
0000
0000
0100
0000
0001
0000
,
1000
0000
0001
0000
0010
0000
0001
0000
1000
0100
1000
0000
0010
0000
0100
0000
,
0001
0000
1000
0000
0010
0000
0100
0000
0001
1000
0001
0000
0100
0000
0000
0000
,
0001
0000
0010
0001
0010
0000
0001
0010
0001
0000
0000
0000
1001
0000
0000
0000
,
0001
0000
0100
0000
0010
0000
0000
1000
0001
1000
0000
0000
0010
0000
1000
0000
,
0001
0000
1000
0000
0100
0000
1000
0000
0001
0010
0001
0000
0100
0000
0010
0000
,
1000
0000
0001
0000
0100
0000
0010
0000
1000
0001
1000
0000
1010
0010
0100
0001
,
1000
0100
1100
0100
1000
0000
1010
0010
,
0100
0001
1001
0000
0001
0010
0110
0100
,
1000
0000
0010
1000
1010
1000
0001
0000
,
0100
0000
0001
0000
1000
0000
0010
0000
0100
0010
0100
0001
0010
0100
1000
0001
,
0200
0000
0000
0000
0310
0000
1000
0000
0001
0100
0000
0100
0010
1000
0001
1000
,
0000
0001
0000
0000
1000
0000
0100
0000
1000
0001
0000
0000
0100
0001
0100
0001
,
0000
1000
0000
0000
0010
0000
1000
0000
0001
0010
0000
0010
0001
1000
0001
1000
,
0010
0000
0100
0000
0001
0000
1000
0000
0100
1000
0100
0000
1000
0100
0010
0001
,
1000
0000
0100
0000
1100
0000
0100
0000
1000
0010
0000
0010
0100
0000
0001
0000
,
1000
0000
0010
0000
0110
0000
0100
0000
0001
0010
0000
0010
0100
0000
1000
0000
,
0010
0000
1000
0000
1001
0000
0001
0000
0010
0001
0000
0001
1000
0000
0010
0100
,
0010
0000
1000
0000
0001
0000
0010
0000
0001
1000
0001
0000
1000
0000
0010
0000
,
1010
0100
0001
1000
,
0001
0000
0000
1000
0100
0000
0000
1000
0001
1000
0000
0000
0000
0000
0001
0000
,
0100
0000
0100
0000
0010
0000
1000
0000
0001
1000
0001
0000
1000
0000
0100
0000
,
0010
0000
0010
0000
0001
0000
1000
0000
0010
1000
0010
0000
0100
0000
0000
0000
,
0001
0100
0010
0010
,
1000
0000
0000
0001
0010
0000
0000
0001
1000
0001
0000
0000
0000
0000
0100
0000
,
0010
0000
1000
0000
0001
0000
0010
0000
0001
1000
0000
0010
0000
0000
1000
0000
,
0001
0000
0100
0000
0010
0000
1000
0000
0001
1000
0001
1000
0100
0010
0001
1000
,
0010
0000
0000
0010
0100
0000
0000
0100
0001
0000
0000
0001
2000
0000
0000
0000
,
3010
0000
1000
0000
0100
0000
0010
0000
0001
1000
0001
0000
0100
0000
0010
0000
,
1000
0000
0000
1000
0001
0000
0000
0001
0020
0000
0000
0000
0032
0000
0000
0000
,
0103
0000
0001
0000
1000
0000
0010
0000
0100
0000
0001
1000
0001
1000
0010
0100
,
0001
0000
0100
0010
0100
0000
0001
0000
1000
0000
0010
0100
0010
0000
1000
0000
,
0001
0000
0010
0100
0010
0000
0001
0000
1000
0000
0010
0100
0010
1000
0010
1000
,
0100
0000
1000
0000
0010
0100
0010
0100
0001
0000
1000
0000
0001
0000
0010
0000
,
0001
1000
1010
0000
0001
0100
0100
0000
0010
0000
1000
0010
0100
0001
1000
0100
,
0010
0001
1000
0001
0000
1000
0100
1000
0000
0001
1000
0001
0000
0100
0001
0100
,
0000
0001
1000
0001
0000
1000
0010
1000
0000
0001
0010
0001
0000
1000
0100
1000
,
0001
0100
0010
0100
0000
0001
0100
0001
0000
1000
0010
1000
0000
0001
0010
0001
,
1000
0000
1100
0000
0001
0000
0101
0000
0100
0010
1000
0000
0001
0010
0001
0000
,
1000
0010
1000
0010
0100
0010
0100
0010
0100
0001
0100
0001
1000
0000
0010
0000
,
0100
0000
0101
0000
0010
0000
1010
0000
1000
0001
0010
0000
1001
0000
0000
0000
,
0001
1000
0100
1000
0001
0100
0001
1000
0100
1000
0001
0100
0001
1000
0010
0100
,
0001
0010
0001
1000
0010
1000
0001
0010
0001
1000
0010
1000
0001
0010
0000
1001
;

//---------------dance-double - ----------------
#NOTES:
     dance-double:
     :
     Challenge:
     9:
     0.514982,0.571072,0.119693,0.091530,0.485813,482.000000,17.000000,13.000000,0.000000,0.000000,0.000000,0.514982,0.571072,0.119693,0.091530,0.485813,482.000000,17.000000,13.000000,0.000000,0.000000,0.000000:
00000000
00000000
00000000
00000000
,
00000000
00000000
00000000
00000000
,
00000000
00000000
00000000
00000000
,
00000000
00000000
00000000
00000000
,
20000000
00000000
00000000
00000000
00100000
00000000
00000000
00000000
30010000
01000000
00100000
01000000
00100000
01000000
00100000
10000000
,
00010000
00000000
00100000
00010000
01000000
00000000
00100000
01000000
,
00010000
00000000
00100000
00010000
00100000
00000000
00001000
00000000
00010000
00000000
00000000
00000000
00001000
00000000
00010000
00000000
,
00000100
00000000
00001000
00000010
00001000
00000000
00000001
00000000
00000100
00000000
00000000
00000000
00000001
00000010
00000100
00001000
,
00000002
00000000
00000000
00000000
00000100
00000000
00000000
00000000
00001003
00000010
00000100
00000010
00000100
00000010
00000100
00000001
,
00001000
00000000
00000100
00001000
00000010
00000000
00000100
00000010
,
00001000
00000000
00000100
00001000
00000100
00000000
00010000
00000000
00001000
00000000
00000000
00000000
00010000
00000000
00001000
00000000
,
00100000
00000000
00010000
01000000
00010000
00000000
10000000
00000000
00100000
00000000
00000000
00000000
10000000
00000000
00010000
00000000
,
01000000
00000000
00010000
01000000
00010000
00000000
01000000
00010000
01000000
00000000
00010000
10000000
00200000
00000000
00000000
00000000
,
10300000
00000000
01000000
00000000
00100000
00000000
00010000
00100000
00010000
00000000
00100000
00000000
00001000
00000000
00000000
00000000
,
00010000
00000000
00001000
00000000
00010000
00000000
00000100
00000000
00001000
00000010
00001000
00000000
00000100
00000000
00000010
00000000
,
00000001
00000000
00001000
00000000
00000010
00000000
00000100
00000000
00000001
00001000
00000000
00000000
00000010
00000000
00000100
00000000
,
00000001
00000000
00000100
00000001
00000100
00000000
00000001
00000100
00000001
00000000
00000100
00000010
00001000
00000000
00000000
00000000
,
00000010
00000000
00001000
00000000
00000100
00000000
00001000
00000001
00001000
00000001
00000000
00000000
00001000
00000000
00000010
00000000
,
00000100
00000000
00000001
00000000
00001000
00000000
00000100
00000000
00010000
00001000
00000000
00100000
00000000
00000000
00001000
00000000
,
00100000
00000000
00010000
00000000
01000000
00000000
00100000
00000000
10000000
00010000
00000000
00000000
10010000
10000000
00100000
01000000
,
00010000
00100000
00110000
00010000
00100000
00000000
00110000
00010000
,
00100000
00001000
00101000
00000000
00001000
00010000
00011000
00010000
,
00000100
00000000
00010100
00000100
00001000
00000010
00001010
00000000
,
00000010
00000000
00001000
00000000
00000001
00000000
00000100
00000000
00000001
00001000
00000010
00000100
00000001
00001000
00000100
00000010
,
00000002
00000000
00000000
00000000
00000103
00000000
00000010
00000000
00001000
00000100
00000000
00000100
00001000
00000010
00000100
00000010
,
00000100
00000001
00000000
00000000
00000100
00000000
00000010
00000000
00001000
00000100
00000000
00000100
00010000
00001000
00010000
00001000
,
00010000
00001000
00000000
00000000
00100000
00000000
00001000
00000000
01000000
00010000
00000000
00010000
10000000
00100000
10000000
00100000
,
01000000
00000000
00010000
00000000
10000000
00000000
01000000
00000000
00100000
00010000
01000000
00000000
00100000
10000000
01000000
00000000
,
11000000
00000000
00010000
00000000
01010000
00000000
01000000
00000000
00100000
10000000
00000000
10000000
01000000
00000000
00100000
00000000
,
00010000
00000000
01000000
00000000
01010000
00000000
00100000
00000000
10000000
00010000
00000000
00010000
00100000
00000000
00001000
00000000
,
00010000
00000000
00001000
00000000
00101000
00000000
00100000
00000000
00010000
01000000
00000000
01000000
00010000
00000000
00100000
00000000
,
00001000
00000000
00010000
00000000
00000100
00000000
00001000
00000000
00000010
00000100
00000001
00000000
00000100
00000010
00001000
00000100
,
00000020
00000032
00002003
00003200
,
00010300
00000000
00000000
00000100
00010000
00000000
00000000
00001000
00010000
00001000
00000000
00000000
00000000
00000000
00000000
00000000
,
00010000
00000000
00001000
00000000
00100000
00000000
00010000
00000000
01000000
00010000
00000000
10000000
00000000
00000000
00100000
00000000
,
10000000
00000000
01000000
00000000
00100000
00000000
00010000
00000000
10000000
00100000
00000000
00000000
00000000
00000000
01000000
00000000
,
02000000
03020000
20030000
32000000
,
13000000
00000000
00000000
00010000
00100000
00000000
00000000
00010000
01000000
00010000
00000000
00000000
00000000
00000000
01000000
00000000
,
00010000
00000000
00100000
00000000
00001000
00000000
00010000
00000000
00000100
00001000
00000000
00000010
00000000
00000000
00000100
00000000
,
00000100
00000000
00000010
00000000
00001000
00000000
00000001
00000000
00001000
00000100
00000010
00000001
00001000
00000010
00000100
00000001
,
00002000
00000000
00003010
00000100
00000001
00000100
00000010
00001000
,
00000100
00000000
00000010
00000000
00000001
00000000
00001000
00000000
00000010
00000000
00000100
00001000
00000100
00001000
00000100
00001000
,
00000100
00000001
00001000
00000100
00010000
00001000
00000100
00001000
,
00010000
00000000
00001000
00000000
00100000
00000000
00010000
00000000
01000000
00100000
10000000
00100000
10000000
00100000
10000000
00100000
,
01000000
00000000
00010000
01000000
00010000
00000000
00100000
00000000
00010000
00000000
10000000
01000000
10000000
00000000
00100000
00000000
,
01000000
00000000
00010000
10000000
00010000
00000000
01000000
00000000
00100000
00000000
10000000
01000000
00100000
00010000
10000000
00100000
,
01000000
00000000
00010000
01000000
00010000
00000000
10000000
00010000
10000000
00000000
01000000
10000000
01000000
00000000
10000000
00010000
,
01000000
00000000
10010000
00000000
00000000
00100000
00100000
00000000
11000000
00000000
00010000
00000000
10000000
01000000
00100000
00010000
,
01000000
00000000
00010000
01000000
00000000
00010000
10000000
00010000
00000000
10000000
01000000
10000000
00000000
00010000
01000000
00010000
,
10000000
00000000
00100000
01000000
00000000
00010000
01000000
00010000
00000000
00100000
00001000
00100000
00000000
00001000
00010000
00001000
,
00010000
00000000
00000100
00001000
00000000
00001000
00000010
00000100
00000000
00000100
00000001
00001000
00000000
00001000
00000100
00000010
,
00000001
00000000
00001001
00000000
00001000
00000000
00001001
00000000
00000001
00000010
00000100
00000000
00001000
00000010
00000100
00000000
,
00000001
00000100
00000010
00000100
00000010
00001000
00000010
00001000
00000100
00001000
00000100
00001000
00010100
00000000
00000000
00000000
,
00010000
00000100
00010000
00000000
00001000
00010000
00001000
00000000
00100000
00001000
00100000
00000000
00010000
00000000
10000000
00000000
,
00100000
01000000
00010000
01000000
00000000
01000000
00100000
01000000
00000000
01000000
10000000
01000000
00000000
01000000
00100000
10000000
,
01000000
00000000
00100000
00000000
00010000
10000000
01000000
00000000
10000000
00010000
01000000
00000000
00100000
10000000
00000000
00110000
;

//---------------dance-single - ----------------
#NOTES:
     dance-single:
     :
     Medium:
     5:
     0.257491,0.275382,0.091530,0.049285,0.000000,236.000000,13.000000,7.000000,0.000000,0.000000,0.000000,0.257491,0.275382,0.091530,0.049285,0.000000,236.000000,13.000000,7.000000,0.000000,0.000000,0.000000:
0000
0000
0000
0000
,
0000
0000
0000
0000
,
0000
0000
0000
0000
,
0000
0000
0000
0000
,
0020
0030
0100
0001
,
1000
0000
0010
1000
0001
0000
0010
0000
,
0002
0100
0103
0001
,
2000
0100
3100
1000
,
2002
3003
1000
0010
,
0100
0000
0001
0100
0010
0000
0100
0000
,
0020
1000
1030
0001
,
0200
0001
0301
0000
,
0001
1000
0100
1001
,
0010
0000
0001
1000
0010
0000
0000
0000
,
1000
0010
1000
0000
0001
0010
0001
0000
,
1000
0001
0100
0000
,
0001
1000
0100
0100
,
1000
0000
0001
1000
0010
0000
0000
0000
,
0100
0010
0100
0010
1000
0000
0001
0000
,
0010
0001
0010
0001
1000
0000
1100
0000
,
0001
0000
0100
0100
0001
0000
1000
0000
,
0010
0010
1000
0000
0001
0000
0010
0010
,
0001
0000
1000
0000
0100
0100
1000
0000
,
0010
0000
1000
0001
0100
0000
0010
0000
,
1001
0000
0000
0000
1000
0000
0010
1000
,
0100
0000
0000
0000
1000
0000
0010
0100
,
0001
0000
0000
0000
0100
0000
0001
1000
,
0010
0000
0100
0000
0001
1000
0010
0000
,
1001
0000
1000
0100
1000
0000
0010
0000
,
0100
0001
0100
0000
0001
0000
1000
0001
,
1000
0000
0001
0000
0010
0001
0010
0000
,
0100
0100
0010
0010
0001
0000
1000
0000
,
1100
0100
0001
0001
,
0100
0100
1000
0000
,
0010
1000
0100
0000
,
0010
0001
0100
0000
,
0001
0010
0001
1000
,
0010
0010
0010
0000
,
1000
0100
1000
0000
,
0001
1000
0001
0000
,
0100
0010
1000
0001
,
1000
0100
0010
0000
0001
1000
0010
0000
,
0100
0001
0100
0100
,
0010
1000
0100
0000
1000
0001
0010
0000
,
0001
0101
1000
1100
,
0001
0011
1000
1010
,
0001
0100
1000
0000
1000
0100
0001
0000
,
0010
0001
0100
0010
1000
0000
0100
0000
,
1000
0100
1000
0100
0010
0000
0010
0000
,
0001
0100
0001
0100
0010
0000
0000
0000
,
0100
0001
1000
0000
0010
0000
1001
0000
,
1000
0100
1000
0000
0001
0010
0001
0000
,
0100
0110
0010
0110
,
0100
0001
0010
0100
1000
0000
0000
0000
,
0001
1000
0001
0000
1000
0001
1000
0000
,
0010
0000
0100
0000
0010
0000
1000
0001
;

//---------------dance-single - ----------------
#NOTES:
     dance-single:
     :
     Easy:
     2:
     0.156908,0.215888,0.021122,0.070408,0.000000,143.000000,3.000000,10.000000,0.000000,0.000000,0.000000,0.156908,0.215888,0.021122,0.070408,0.000000,143.000000,3.000000,10.000000,0.000000,0.000000,0.000000:
// measure 0
0000
0000
0000
0000
,  // measure 1
0000
0000
0000
0000
,  // measure 2
0000
0000
0000
0000
,  // measure 3
0000
0000
0000
0000
,  // measure 4
0200
0300
0001
0000
,  // measure 5
2000
3000
0010
0000
,  // measure 6
1000
1000
0100
0000
,  // measure 7
1000
1000
0001
0000
,  // measure 8
0002
0003
0100
0000
,  // measure 9
0020
0030
1000
0000
,  // measure 10
0001
0001
0100
0000
,  // measure 11
0001
0001
0010
0000
,  // measure 12
0001
1000
0100
0100
,  // measure 13
1000
0001
0100
0000
,  // measure 14
0001
1000
0010
0000
,  // measure 15
0100
0100
0010
0000
,  // measure 16
1000
0001
0100
0100
,  // measure 17
0001
1000
0100
0000
,  // measure 18
1000
0010
0010
0000
,  // measure 19
0001
0000
1000
1001
,  // measure 20
0001
0100
0000
1000
,  // measure 21
0100
0000
0001
0010
,  // measure 22
0000
1000
0010
0000
,  // measure 23
0100
0100
0100
0000
,  // measure 24
1001
0000
1000
0000
,  // measure 25
0010
0010
0100
0000
,  // measure 26
0001
0000
1000
0000
,  // measure 27
0001
0001
0010
0000
,  // measure 28
0001
0001
0000
1000
,  // measure 29
1000
0000
0010
0100
,  // measure 30
0000
0100
0010
0000
,  // measure 31
1000
0001
1000
0000
,  // measure 32
0010
0000
0100
0000
,  // measure 33
0001
0000
1000
0000
,  // measure 34
0010
0000
0010
0000
,  // measure 35
0100
0100
0100
0000
,  // measure 36
0001
0000
1000
0000
,  // measure 37
0010
0000
0010
0000
,  // measure 38
1000
0000
0100
0000
,  // measure 39
0010
0010
0010
0000
,  // measure 40
0002
0003
0001
0000
,  // measure 41
2000
3000
1000
0000
,  // measure 42
0020
0030
0010
0010
,  // measure 43
0200
0300
0100
0000
,  // measure 44
0001
0000
1000
0000
,  // measure 45
0010
1000
0001
0000
,  // measure 46
0010
0001
0100
0000
,  // measure 47
0010
0100
0001
1000
,  // measure 48
2002
3003
1000
0001
,  // measure 49
0010
0000
0001
0100
,  // measure 50
0100
0000
0010
0000
,  // measure 51
1000
0100
1000
0000
,  // measure 52
0001
1000
0010
0010
,  // measure 53
0100
0100
0100
0000
,  // measure 54
0001
1000
0100
0010
,  // measure 55
0001
0001
0001
1000
;

//---------------dance-single - ----------------
#NOTES:
     dance-single:
     :
     Beginner:
     1:
     0.093542,0.157009,0.028163,0.000000,0.000000,89.000000,4.000000,0.000000,0.000000,0.000000,0.000000,0.093542,0.157009,0.028163,0.000000,0.000000,89.000000,4.000000,0.000000,0.000000,0.000000,0.000000:
// measure 0
0000
0000
0000
0000
,  // measure 1
0000
0000
0000
0000
,  // measure 2
0000
0000
0000
0000
,  // measure 3
0000
0000
0000
0000
,  // measure 4
0001
0000
0000
0000
,  // measure 5
1000
0000
0000
0000
,  // measure 6
0010
0000
0010
0000
,  // measure 7
0100
0000
0001
0000
,  // measure 8
1000
0000
0000
0000
,  // measure 9
0001
0000
0000
0000
,  // measure 10
0010
0000
0010
0000
,  // measure 11
0001
0000
0100
0000
,  // measure 12
0010
0010
0010
0000
,  // measure 13
0010
0000
0000
0000
,  // measure 14
1000
0000
0000
0000
,  // measure 15
0001
0000
0000
0000
,  // measure 16
0100
0100
0100
0000
,  // measure 17
0100
0000
0000
0000
,  // measure 18
0001
0000
0000
0000
,  // measure 19
1000
0000
0000
1001
,  // measure 20
0000
1000
0000
0000
,  // measure 21
0000
0001
0000
0000
,  // measure 22
0000
0100
0000
0000
,  // measure 23
0010
0010
0010
0000
,  // measure 24
0110
0000
0000
0100
,  // measure 25
0100
0000
0000
0001
,  // measure 26
0001
0000
0000
1000
,  // measure 27
1000
0000
0000
0000
,  // measure 28
0010
0000
0000
0100
,  // measure 29
0000
0000
0001
0000
,  // measure 30
0000
1000
0000
0000
,  // measure 31
0010
0010
0010
0000
,  // measure 32
0010
0000
0000
0000
,  // measure 33
1000
0000
0000
0000
,  // measure 34
0001
0000
0000
0000
,  // measure 35
0001
0000
0000
0000
,  // measure 36
0100
0000
0000
0000
,  // measure 37
0001
0000
0000
0000
,  // measure 38
1000
0000
0000
0000
,  // measure 39
1000
0000
0000
0000
,  // measure 40
0010
0010
0010
0000
,  // measure 41
0010
0000
0000
0000
,  // measure 42
0100
0100
0100
0100
,  // measure 43
0100
0000
0000
0000
,  // measure 44
0001
0001
0001
0000
,  // measure 45
0001
0000
0000
0000
,  // measure 46
1000
1000
1000
1000
,  // measure 47
1000
0000
0001
0000
,  // measure 48
1001
0000
0000
0000
,  // measure 49
0010
0000
0000
1000
,  // measure 50
1000
0000
0000
0000
,  // measure 51
0001
0001
0001
0000
,  // measure 52
1001
0000
1000
0000
,  // measure 53
0010
0010
0010
0000
,  // measure 54
0010
0000
0000
0000
,  // measure 55
0100
0100
0100
0100
;
