#VERSION:0.82;
#TITLE:Odds Are;
#SUBTITLE:;
#ARTIST:Barenaked Ladies;
#TITLETRANSLIT:;
#SUBTITLETRANSLIT:;
#ARTISTTRANSLIT:;
#GENRE:Alternative;
#ORIGIN:;
#CREDIT:;
#BANNER:Odds Are.png;
#BACKGROUND:Odds Are-bg.png;
#PREVIEWVID:;
#JACKET:jacket.png;
#CDIMAGE:;
#DISCIMAGE:;
#LYRICSPATH:;
#CDTITLE:;
#MUSIC:Odds Are.ogg;
#OFFSET:-0.005000;
#SAMPLESTART:29.978920;
#SAMPLELENGTH:13.714000;
#SELECTABLE:YES;
#BPMS:0.000=96.000;
#STOPS:;
#DELAYS:;
#WARPS:;
#TIMESIGNATURES:0.000=4=4;
#TICKCOUNTS:0.000=4;
#COMBOS:0.000=1;
#SPEEDS:0.000=1.000=0.000=0;
#SCROLLS:0.000=1.000;
#FAKES:;
#LABELS:0.000=Song Start;
#BGCHANGES:2.000=Odds Are.avi=1.000=0=0=1=====,
99999=-nosongbg-=1.000=0=0=0 // don't automatically add -songbackground-
;
#KEYSOUNDS:;
#ATTACKS:
;

//---------------dance-single - ----------------
#NOTEDATA:;
#CHARTNAME:;
#STEPSTYPE:dance-single;
#DESCRIPTION:;
#CHARTSTYLE:;
#DIFFICULTY:Hard;
#METER:5;
#RADARVALUES:0.271921,0.311735,0.028731,0.136474,0.000000,242.000000,4.000000,19.000000,0.000000,0.000000,0.000000,0.000000,0.000000,0.271921,0.311735,0.028731,0.136474,0.000000,242.000000,4.000000,19.000000,0.000000,0.000000,0.000000,0.000000,0.000000;
#CREDIT:Ben Speirs;
#NOTES:
0000
0000
0000
0000
,
0000
0000
0000
0000
,
0001
0001
0100
0000
0001
0000
1000
0000
,
0010
0010
1000
0000
0100
0000
0100
0000
,
1000
0100
1000
0100
1000
1000
0100
0000
,
1000
0000
0010
1000
0001
0000
0000
0000
,
0001
0100
0001
0100
0001
0001
0100
0000
,
0001
0000
0100
0010
1000
0000
0000
0000
,
0001
0000
0010
0001
0100
0000
0001
0000
,
1000
0000
0010
1000
0100
0000
0000
0000
,
1000
0000
0001
0000
1000
0100
0010
0000
,
0001
0000
1000
0001
0100
0000
0000
0000
,
0001
0100
0010
2000
0000
0000
3001
0010
,
0100
2000
0000
0000
0001
0000
3001
0000
,
1000
0000
0001
0000
0100
0100
0100
0000
,
0010
0010
0010
0000
1000
0000
0000
0000
,
0001
0010
0100
2000
0000
0000
3001
0100
,
0010
2000
0000
0000
0001
0000
3001
0000
,
0100
0000
0001
0000
0010
0010
0010
0000
,
0100
0100
0100
0000
1000
0000
0000
0000
,
0001
0000
0010
0000
0001
1000
0001
0000
,
1000
0000
0000
0000
0010
1000
0001
0100
,
0100
0000
0001
0000
1000
0000
0010
1000
,
0100
0000
0000
0000
1000
0100
1000
0000
,
0002
0013
0001
1000
,
2000
3010
1000
0001
,
0100
0100
0000
0000
0001
1000
0001
0000
,
0010
0010
0000
0000
0001
0000
1000
0000
,
0020
0100
1000
0130
,
0200
0001
0020
0330
,
0002
0100
0010
0100
,
2003
0010
0200
3300
,
0001
1000
0001
0000
1000
0000
0100
0000
,
1000
0010
0100
0000
0001
0000
1000
0000
,
0001
0001
1000
0000
1000
1000
0001
0000
,
1000
0100
0010
0001
0100
0000
0000
0000
,
0001
1000
0010
0200
0000
0000
0301
1000
,
0010
0200
0000
0000
0001
0000
0301
0000
,
1000
0000
0001
0000
0010
0010
0010
0000
,
0001
0001
0001
0000
0100
0000
0000
0000
,
0001
1000
0100
0020
0000
0000
0130
1000
,
0001
0020
0000
0000
0100
0000
0130
0000
,
0010
0000
0001
0000
1000
1000
1000
0000
,
0001
0001
0001
0000
0100
0000
0000
0000
,
0001
0100
0001
0010
0001
0000
1000
0100
,
1000
0010
1000
0000
1001
0000
1001
0000
,
0002
0003
0100
0100
,
0010
1000
0001
0000
,
1000
0010
1000
0100
1000
0000
0001
0010
,
0001
0100
0001
0000
1001
0000
1001
0000
,
2000
3000
0010
0010
,
0100
0001
1000
0000
,
0001
0001
0100
0000
0001
0000
1000
0000
,
0010
0010
1000
0200
0000
0000
0000
0000
,
0000
0300
0000
0000
;

//---------------dance-single - ----------------
#NOTEDATA:;
#CHARTNAME:;
#STEPSTYPE:dance-single;
#DESCRIPTION:;
#CHARTSTYLE:;
#DIFFICULTY:Challenge;
#METER:8;
#RADARVALUES:0.559234,0.526052,0.165205,0.172388,0.646454,498.000000,23.000000,24.000000,0.000000,0.000000,0.000000,0.000000,0.000000,0.559234,0.526052,0.165205,0.172388,0.646454,498.000000,23.000000,24.000000,0.000000,0.000000,0.000000,0.000000,0.000000;
#CREDIT:Ben Speirs;
#NOTES:
0000
0000
0000
0000
,
0000
0000
0000
0000
,
1000
0100
1000
0000
0001
0000
0000
0000
0001
0010
0001
0010
0001
0100
0001
0000
,
0100
0010
0100
0000
0001
0000
0000
0000
0101
0000
0000
0000
1100
0000
0000
0000
,
0001
0000
0001
0000
1000
0000
0010
0100
0001
0000
0001
0000
0100
0010
0100
0010
,
1000
0000
0001
1000
0001
0000
1000
0000
0100
0000
0010
0000
0001
0000
1000
0010
,
1000
0000
1000
0000
0001
0010
0001
1000
0001
0000
0001
0000
0100
0001
0100
0001
,
1000
0001
1000
0100
1000
0000
0010
1000
0010
0000
1000
0000
0001
0000
1000
0000
,
0010
0100
0001
0100
0010
0000
1000
0000
0001
0010
0001
0010
0100
0000
1000
0000
,
0010
1000
0100
1000
0010
0000
0100
0000
0001
1000
0001
1000
0010
0000
0100
0000
,
0001
0010
0000
0100
1000
0000
0001
1000
0001
1000
0010
0100
0001
1000
0001
1000
,
0010
0100
0001
1000
0200
0000
0310
0000
,
0001
0000
0010
0001
1000
0000
0020
0000
0130
0000
1000
0000
0010
0000
1000
0100
,
1000
0002
0103
1000
1001
0000
1001
0000
,
1000
0100
0000
1000
0000
0001
1000
0001
1000
0001
0000
1000
0000
0001
0000
0100
,
0000
0001
1000
0001
1000
0001
0000
1000
0000
0010
1000
0000
0001
0000
0000
0000
,
1000
0000
0100
1000
0001
0000
0200
0000
0310
0000
0001
0000
0100
0000
0001
0010
,
0001
2000
3010
0001
1001
0000
1001
0000
,
0001
0010
0000
0001
0000
1000
0001
1000
0001
1000
0000
0001
0000
1000
0000
0010
,
0000
1000
0001
1000
0001
1000
0000
0001
0000
0100
0001
0000
1000
0000
0010
0000
,
0100
0000
0001
0100
0001
0000
1000
0001
1000
0000
0100
1000
0100
0000
1000
0000
,
0020
0000
0000
0000
0130
0000
0010
0000
1000
0010
0100
0000
0001
0010
0100
0000
,
1000
0000
0100
1000
0100
0000
1000
0001
1000
0000
0001
0010
0001
0000
1000
0001
,
2000
0000
3001
1000
0010
0100
0001
0000
,
1000
0100
1000
0000
0001
0000
0000
0000
0001
0100
0001
0100
0010
0100
0010
0100
,
0010
1000
0010
0000
1000
0000
0000
0000
1000
0100
1000
0100
0010
0100
0010
0100
,
0010
0001
0010
0000
0001
0000
0000
0000
0001
0100
0001
0100
0010
0100
0010
0100
,
0010
1000
0010
0000
1000
0000
0000
0000
1001
0000
0000
0000
1001
0000
0000
0000
,
0002
0000
0000
0000
1003
0000
0010
0100
0020
0000
0000
0000
1030
0000
0100
1000
,
0100
0000
1000
0000
0010
0000
0100
0000
0001
0000
0000
0000
1000
0000
0100
1000
,
0200
0000
0000
0000
1300
0000
0001
1000
0002
0000
0000
0000
0103
0010
0100
0010
,
0100
0000
0001
0000
1000
0000
0010
1000
0010
0000
0000
0000
0100
0000
0000
0000
,
0001
0010
0001
0010
0100
0000
0000
0000
1000
0100
1000
0100
0010
0000
0000
0000
,
0001
1000
0001
1000
0010
0000
0000
0000
1000
0010
1000
0010
0100
0000
0000
0000
,
0001
1000
0001
0000
1000
0100
1000
0000
0001
0010
0100
1000
0001
1000
0001
0100
,
0010
1000
0001
0000
1000
0000
0010
1000
0002
0000
0000
0000
0103
0000
0000
0000
,
0101
0000
0100
0010
1000
0000
0200
0000
1300
0000
0010
0000
1000
0000
0100
0010
,
0001
0200
0301
1000
1010
0000
0011
0000
,
1000
0001
0000
1000
0000
0010
0100
0010
0100
0010
0000
1000
0000
0001
0000
1000
,
0000
0010
0100
0010
0100
0010
0000
1000
0000
0001
0010
0000
0001
0000
1000
0000
,
1010
0000
0010
0100
0001
0000
0020
0000
0031
0000
0100
0000
0001
0000
0010
0100
,
1000
0020
1030
0001
0101
0000
1100
0000
,
0001
1000
0000
0001
0000
0100
0010
0100
0010
0100
0000
0001
0000
1000
0000
0001
,
0000
0100
0010
0100
0010
0100
0000
0001
0000
1000
0100
0000
1000
0000
0001
0010
,
0001
0011
0110
2100
0000
3001
1000
1010
,
0110
0102
0000
1003
0020
0000
0230
0000
,
0301
0010
0000
0100
0000
1000
0100
1000
0100
1000
0000
0100
0000
1000
0000
0010
,
0000
0100
0001
0100
0001
0100
0000
0001
0000
1000
0010
0000
0100
0000
0001
0100
,
0001
0000
0101
0000
0110
0000
1002
0000
0000
0000
1003
0100
1000
0000
0100
0010
,
0100
0000
0010
0001
0010
0000
0001
0000
0200
0000
0000
0000
0320
0000
0000
0000
,
1030
0010
0000
0100
0000
0001
1000
0001
1000
0001
0000
1000
0000
0010
0000
0100
,
0000
0001
1000
0001
1000
0001
0000
1000
0000
0001
0010
0000
0100
1000
0100
0000
,
1000
0001
1000
0000
0010
0000
0000
0000
1000
0010
1000
0010
0100
0010
0100
0010
,
0100
0001
1000
0100
0010
0001
0200
0000
0000
0000
0000
0000
0000
0000
0000
0000
,
0000
0300
0000
0000
;

//---------------dance-double - ----------------
#NOTEDATA:;
#CHARTNAME:;
#STEPSTYPE:dance-double;
#DESCRIPTION:;
#CHARTSTYLE:;
#DIFFICULTY:Challenge;
#METER:8;
#RADARVALUES:0.535634,0.506569,0.150839,0.107742,0.653637,486.000000,21.000000,15.000000,0.000000,0.000000,0.000000,0.000000,0.000000,0.535634,0.506569,0.150839,0.107742,0.653637,486.000000,21.000000,15.000000,0.000000,0.000000,0.000000,0.000000,0.000000;
#CREDIT:Ben Speirs;
#NOTES:
00000000
00000000
00000000
00000000
,
00000000
00000000
00000000
00000000
,
00010000
00000100
00010000
00000000
00000100
00000000
00000000
00000000
00010000
00001000
00010000
00001000
00100000
00001000
00100000
00000000
,
00010000
00100000
00010000
00000000
00100000
00000000
00000000
00000000
10010000
00000000
00000000
00000000
10010000
00000000
00000000
00000000
,
10000000
00000000
10000000
00000000
01000000
00000000
00100000
00010000
01000000
00000000
01000000
00000000
00010000
00100000
00010000
00100000
,
00001000
00000000
00010000
00001000
00010000
00000000
00000100
00000000
00001000
00000000
00000000
00000000
00000010
00000000
00001000
00000001
,
00000100
00000000
00000100
00000000
00000001
00001000
00000001
00001000
00000010
00000000
00000010
00000000
00001000
00000100
00001000
00000100
,
00010000
00000000
00001000
00010000
00001000
00000000
00100000
00001000
00100000
00000000
00010000
00000000
01000000
00000000
00000000
00000000
,
00100000
10000000
00100000
10000000
01000000
00000000
10000000
00000000
00100000
01000000
00010000
01000000
00100000
00000000
10000000
00000000
,
00010000
00100000
00001000
00100000
00010000
00000000
01000000
00000000
00010000
00000000
00100000
00000000
00001000
00000000
00000000
00000000
,
00010000
00001000
00010000
00000000
00000100
00010000
00000100
00000000
00001000
00000100
00001000
00000100
00001000
00000010
00000100
00000010
,
00001000
00000000
00000010
00000000
00000100
00000000
00000001
00001000
00000001
00000000
00000000
00000000
00000000
00000000
00000000
00000000
,
00000101
00000000
00000100
00000010
00001000
00000000
00000100
00000000
00010000
00000000
00001000
00010000
00001000
00000000
00100000
00010000
,
00100000
00000000
00001000
00100000
00010000
00000000
01000000
00000000
01010000
00000000
00000000
00000000
11000000
00000000
00000000
00000000
,
00010000
00100000
00000000
00001000
00000000
00010000
00001000
00010000
00001000
00010000
00000000
00000100
00000000
00010000
00000000
00001000
,
00000000
00010000
00001000
00010000
00001000
00010000
00000000
00001000
00000000
00100000
00010000
00000000
01000000
00000000
00000000
00000000
,
00010000
00000000
00100000
00001000
00010000
00000000
00000100
00001000
00000100
00000000
00001000
00000000
00000010
00000000
00000100
00000010
,
00000100
00000000
00000001
00001000
00000001
00000000
00000100
00000000
00001010
00000000
00000000
00000000
00001100
00000000
00000000
00000000
,
00001000
00000100
00000000
00010000
00000000
00001000
00100000
00001000
00100000
00001000
00000000
00010000
00000000
00000100
00000000
00010000
,
00000000
00001000
00100000
00001000
00100000
00001000
00000000
00100000
00000000
00010000
01000000
00000000
00010000
10000000
00010000
00000000
,
10000000
00000000
00100000
01000000
00100000
00000000
01000000
00010000
01000000
00000000
00010000
00100000
00010000
00000000
00100000
00001000
,
00020000
00000000
00031000
00010000
00000100
00001000
00000010
00000100
,
00000001
00000000
00000100
00000010
00000100
00000000
00000010
00001000
00000010
00000000
00001000
00000100
00001000
00000000
00000100
00010000
,
00000200
00000000
00010300
00001000
00100000
00010000
01000000
00000000
,
00010000
10000000
00010000
00000000
10000000
00000000
00000000
00000000
10000000
01000000
10000000
01000000
00100000
00010000
00100000
00010000
,
01000000
00001000
01000000
00000000
00001000
00000000
00000000
00000000
00010000
00001000
00010000
00001000
00010000
00000100
00010000
00000100
,
00001000
00000010
00001000
00000000
00000001
00000000
00000000
00000000
00001000
00000001
00001000
00000001
00000100
00000010
00000100
00000010
,
00001000
00000100
00001000
00000000
00000100
00000000
00000000
00000000
00001100
00000000
00000000
00000000
00010100
00000000
00000000
00000000
,
00012000
00000000
00000000
00000000
00013000
00000000
00001000
00010000
00002000
00000000
00000000
00000000
00013000
00001000
00010000
00001000
,
00010000
00000000
00001000
00000000
00010000
00000000
00001000
00000000
00010000
00000000
00000000
00000000
00001000
00000000
00001000
00010000
,
00002000
00000000
00000000
00000000
00013000
00000000
00010000
00001000
00020000
00000000
00000000
00000000
00031000
00010000
00001000
00010000
,
00001000
00000000
00010000
00000000
00001000
00000000
00010000
00001000
00020000
00000000
00000000
00000000
00031000
00000000
00000000
00000000
,
00010000
00001000
00010000
00001000
00100000
00000000
00000000
00000000
00010000
01000000
00010000
01000000
00100000
00000000
00000000
00000000
,
10000000
01000000
10000000
01000000
00100000
00000000
00000000
00000000
00010000
01000000
00010000
01000000
00001000
00000000
00000000
00000000
,
00010000
00001000
00000000
00000000
00010000
00001000
00000000
00000000
00010000
00000100
00010000
00000100
00001000
00000100
00001000
00000100
,
00000010
00000001
00001000
00000000
00000001
00000000
00000100
00000001
00001000
00000000
00000000
00000000
00000000
00000000
00000000
00000000
,
00000001
00000000
00000100
00000010
00001000
00000000
00000200
00000000
00000000
00000000
00001300
00000000
00000100
00000000
00010000
00001000
,
00010000
00000000
00001000
00100000
00020000
00000000
00000000
00000000
01000000
00000000
00000000
00000000
10030000
00000000
00000000
00000000
,
10000000
01000000
00000000
00100000
00000000
00010000
01000000
00010000
01000000
00010000
00000000
00100000
00000000
01000000
00000000
10000000
,
00000000
00010000
01000000
00010000
01000000
00010000
00000000
10000000
00000000
00100000
01000000
00000000
00010000
00000000
00000000
00000000
,
10000000
00000000
00100000
01000000
00010000
00000000
00100000
00010000
00200000
00000000
00000000
00000000
00310000
00000000
00100000
00001000
,
00100000
00000000
00001000
00010000
00000100
00000000
00000000
00000000
00001100
00000000
00000000
00000000
00010100
00000000
00000000
00000000
,
00000100
00001000
00000000
00000010
00000000
00000100
00000001
00000100
00000001
00000100
00000000
00000010
00000000
00001000
00000000
00000100
,
00000000
00001000
00000010
00001000
00000010
00001000
00000000
00000001
00000000
00000100
00000010
00000000
00001000
00000000
00000000
00000000
,
00000101
00000110
00001000
00010200
00000000
00010300
00001000
00101000
,
00100000
20010000
00000000
30100000
10010000
00000000
10010000
00000000
,
10000000
01000000
00000000
10000000
00000000
00010000
01000000
00010000
01000000
00010000
00000000
10000000
00000000
00010000
00000000
10000000
,
00000000
00100000
01000000
00100000
01000000
00100000
00000000
10000000
00000000
00010000
00100000
00000000
00010000
00000000
00000000
00000000
,
10000000
00000000
01000000
00010000
00001000
00000000
00020000
00000000
00000000
00000000
00031000
00000000
00010000
00000000
00001000
00000100
,
00000001
00002000
00000000
00003010
00001010
00000000
00000011
00000000
,
00000001
00000100
00000000
00000010
00000000
00001000
00000100
00001000
00000100
00001000
00000000
00000010
00000000
00000100
00000000
00000001
,
00000000
00001000
00000100
00001000
00000100
00001000
00000000
00000001
00000000
00001000
00000100
00000000
00010000
00000100
00010000
00000000
,
00001000
00010000
00001000
00000000
00100000
00000000
00000000
00000000
00001000
00100000
00001000
00100000
00010000
00100000
00010000
00100000
,
00001000
00010000
00000100
00001000
00000010
00000100
00000002
00000000
00000000
00000000
00000000
00000000
00000000
00000000
00000000
00000000
,
00000000
00000003
00000000
00000000
;

//---------------dance-single - ----------------
#NOTEDATA:;
#CHARTNAME:;
#STEPSTYPE:dance-single;
#DESCRIPTION:;
#CHARTSTYLE:;
#DIFFICULTY:Medium;
#METER:4;
#RADARVALUES:0.221641,0.253284,0.014366,0.193936,0.000000,187.000000,2.000000,27.000000,0.000000,0.000000,0.000000,0.000000,0.000000,0.221641,0.253284,0.014366,0.193936,0.000000,187.000000,2.000000,27.000000,0.000000,0.000000,0.000000,0.000000,0.000000;
#CREDIT:Ben Speirs;
#NOTES:
0000
0000
0000
0000
,
0000
0000
0000
0000
,
1000
1000
0010
0000
,
0100
0000
0001
1000
,
0020
0030
0020
0030
,
1000
0100
0010
0000
,
0002
0003
0002
0003
,
0010
0001
1000
0000
,
0010
1000
0010
0000
0100
0000
0000
0000
,
0001
1000
0001
0000
1000
0000
0000
0000
,
0001
0001
1000
1000
,
0010
0000
0100
0100
0100
0000
0000
0000
,
0002
0013
0001
2000
,
3010
1000
0100
0100
,
0010
0000
0000
0000
0001
0010
0001
0000
,
0000
0000
1000
0010
1000
0000
0000
0000
,
0001
0100
0020
1030
,
0100
2000
3001
0000
,
1000
0000
0001
0000
0100
0100
0100
0000
,
0010
0010
0010
0000
1000
0000
0001
0000
,
1000
0100
0000
1000
0000
0010
0000
0100
,
0001
0000
0000
0000
1000
0001
1000
0000
,
0001
0100
0000
0010
0000
1000
0000
0001
,
1000
0000
0000
0000
0001
0010
0001
0000
,
2000
3000
0100
1000
,
0002
0003
0100
0001
,
2000
3000
0010
1000
,
0002
0003
0010
0010
,
2002
3003
1000
0000
,
0010
0100
0010
0000
0100
0000
0000
0000
,
2002
3003
0002
0003
,
0100
0000
0010
0100
0010
0000
0000
0000
,
0100
0001
0000
1000
,
0000
0010
0000
1000
,
0100
0100
0010
0010
,
0001
1000
0001
1000
0001
0000
0000
0000
,
1000
0100
2000
3001
,
1000
0002
0103
0100
,
0020
0000
0030
0000
0100
0010
0100
0000
,
0020
0030
0100
0000
,
0001
0010
0002
0103
,
0010
2000
3100
0000
,
1000
0000
0001
0000
0100
0100
0100
0000
,
0010
0010
0010
0000
1000
0000
0000
0000
,
0001
0100
0001
0100
0000
0000
0001
1000
,
0001
1000
0000
0000
1000
0000
1000
0000
,
0020
0030
0100
0100
,
0010
1000
0001
0000
,
1000
0100
1000
0100
0000
0000
1000
0001
,
1000
0001
0000
0000
0001
0000
0001
0000
,
0200
0300
0001
1000
,
0020
0030
0100
0000
,
0010
0000
1000
1000
,
0001
0000
0100
0200
0000
0000
0000
0000
,
0000
0300
0000
0000
;

//---------------dance-single - ----------------
#NOTEDATA:;
#CHARTNAME:;
#STEPSTYPE:dance-single;
#DESCRIPTION:;
#CHARTSTYLE:;
#DIFFICULTY:Easy;
#METER:2;
#RADARVALUES:0.128265,0.210367,0.035914,0.050280,0.000000,113.000000,5.000000,7.000000,0.000000,0.000000,0.000000,0.000000,0.000000,0.128265,0.210367,0.035914,0.050280,0.000000,113.000000,5.000000,7.000000,0.000000,0.000000,0.000000,0.000000,0.000000;
#CREDIT:Ben Speirs;
#NOTES:
// measure 0
0000
0000
0000
0000
,  // measure 1
0000
0000
0000
0000
,  // measure 2
0001
0000
0100
0000
,  // measure 3
0100
0000
0000
0000
,  // measure 4
0010
0000
1000
0000
,  // measure 5
0100
0100
0100
0000
,  // measure 6
1000
0000
0001
0000
,  // measure 7
0010
0010
0010
0000
,  // measure 8
0001
0000
1000
0000
,  // measure 9
0010
0000
0010
0000
,  // measure 10
0100
0000
0100
0000
,  // measure 11
0001
0001
0001
0000
,  // measure 12
1001
0000
0000
1000
,  // measure 13
0100
0000
1000
1000
,  // measure 14
0010
0000
1000
0000
,  // measure 15
0001
0000
0000
0000
,  // measure 16
1001
0000
0000
0001
,  // measure 17
0100
0000
0001
0001
,  // measure 18
0010
0000
0001
0000
,  // measure 19
1000
0000
0000
0000
,  // measure 20
0010
0010
0100
0100
,  // measure 21
0010
0000
1000
0000
,  // measure 22
0100
0100
0010
0010
,  // measure 23
0001
0000
1000
0000
,  // measure 24
0020
0030
0010
0000
,  // measure 25
0200
0300
0100
0000
,  // measure 26
0002
0003
0001
0000
,  // measure 27
2000
3000
0010
0010
,  // measure 28
2002
0000
0000
3003
,  // measure 29
1000
0000
0001
0000
,  // measure 30
0200
0000
0000
0300
,  // measure 31
0100
0100
0100
0000
,  // measure 32
0001
0000
1000
0000
,  // measure 33
0010
0000
0010
0000
,  // measure 34
1000
0000
0100
0000
,  // measure 35
0010
0010
0010
0000
,  // measure 36
1001
0000
0000
1000
,  // measure 37
0010
0000
0100
0100
,  // measure 38
0100
0000
0001
0000
,  // measure 39
1000
0000
0000
0000
,  // measure 40
1001
0000
0000
0001
,  // measure 41
0010
0000
0001
0001
,  // measure 42
0001
0000
0100
0000
,  // measure 43
0010
0000
0000
0000
,  // measure 44
1000
1000
0000
0001
,  // measure 45
0001
0000
0100
0100
,  // measure 46
0010
0000
1000
0000
,  // measure 47
0001
0000
0000
0000
,  // measure 48
1000
1000
0000
0001
,  // measure 49
0001
0000
0100
0100
,  // measure 50
0010
0000
1000
0000
,  // measure 51
0001
0000
0000
0000
,  // measure 52
1000
0000
0100
0000
,  // measure 53
0010
0010
0000
0000
;

//---------------dance-single - ----------------
#NOTEDATA:;
#CHARTNAME:;
#STEPSTYPE:dance-single;
#DESCRIPTION:;
#CHARTSTYLE:;
#DIFFICULTY:Beginner;
#METER:1;
#RADARVALUES:0.072854,0.095621,0.028731,0.000000,0.000000,67.000000,4.000000,0.000000,0.000000,0.000000,0.000000,0.000000,0.000000,0.072854,0.095621,0.028731,0.000000,0.000000,67.000000,4.000000,0.000000,0.000000,0.000000,0.000000,0.000000,0.000000;
#CREDIT:Ben Speirs;
#NOTES:
// measure 0
0000
0000
0000
0000
,  // measure 1
0000
0000
0000
0000
,  // measure 2
0010
0000
0000
0000
,  // measure 3
0100
0000
0000
0000
,  // measure 4
0001
0000
0000
0000
,  // measure 5
1000
0000
1000
0000
,  // measure 6
1000
0000
0000
0000
,  // measure 7
0010
0000
0010
0000
,  // measure 8
0010
0000
0000
0000
,  // measure 9
0100
0000
0000
0000
,  // measure 10
0001
0000
0001
0000
,  // measure 11
0001
0000
0000
0000
,  // measure 12
1001
0000
0000
0000
,  // measure 13
1000
0000
0010
0000
,  // measure 14
0010
0000
0000
0000
,  // measure 15
1000
0000
0000
0000
,  // measure 16
0001
0000
0000
0000
,  // measure 17
0100
0000
0010
0000
,  // measure 18
0010
0000
0000
0000
,  // measure 19
1000
0000
0000
0000
,  // measure 20
0100
0000
0100
0000
,  // measure 21
0100
0000
0000
0000
,  // measure 22
1000
0000
1000
0000
,  // measure 23
1000
0000
0000
0000
,  // measure 24
0001
0000
0000
0000
,  // measure 25
1000
0000
0000
0000
,  // measure 26
0010
0000
0000
0000
,  // measure 27
0010
0000
0000
0000
,  // measure 28
1001
0000
0000
0000
,  // measure 29
0000
0000
0000
0000
,  // measure 30
0001
0000
0000
0000
,  // measure 31
0000
0000
0000
0000
,  // measure 32
0100
0100
0000
0000
,  // measure 33
0010
0010
0000
0000
,  // measure 34
1000
1000
0000
0000
,  // measure 35
0001
0000
0000
0000
,  // measure 36
1001
0000
0000
0000
,  // measure 37
1000
0000
0010
0000
,  // measure 38
0010
0000
0000
0000
,  // measure 39
1000
0000
0000
0000
,  // measure 40
0001
0000
0000
0000
,  // measure 41
0001
0000
0100
0000
,  // measure 42
0100
0000
0000
0000
,  // measure 43
0010
0000
0000
0000
,  // measure 44
1001
0000
0000
0000
,  // measure 45
1000
0000
0010
0000
,  // measure 46
0010
0000
0000
0000
,  // measure 47
0100
0100
0000
0000
,  // measure 48
0001
0000
0000
0000
,  // measure 49
1000
0000
0010
0000
,  // measure 50
0010
0000
0000
0000
,  // measure 51
0100
0100
0000
0000
,  // measure 52
0001
0000
0000
0000
,  // measure 53
1000
1000
0000
0000
;
