#TITLE:Oblivion;
#SUBTITLE:;
#ARTIST:Grimes;
#TITLETRANSLIT:;
#SUBTITLETRANSLIT:;
#ARTISTTRANSLIT:;
#GENRE:Electronic;
#CREDIT:;
#BANNER:Oblivion.png;
#BACKGROUND:Oblivion-bg.png;
#LYRICSPATH:;
#CDTITLE:;
#MUSIC:Oblivion.ogg;
#OFFSET:0.010000;
#SAMPLESTART:98.422783;
#SAMPLELENGTH:13.714000;
#SELECTABLE:YES;
#BPMS:0.000000=156.000000
;
#STOPS:
;
#BGCHANGES:7.750=Oblivion.avi=1.000=0=0=1=====,
99999=-nosongbg-=1.000=0=0=0 // don't automatically add -songbackground-
;
#KEYSOUNDS:;
#ATTACKS:;

//---------------dance-single - ----------------
#NOTES:
     dance-single:
     :
     Hard:
     8:
     0.516933,0.559545,0.188611,0.565832,0.000000,518.000000,491.000000,27.000000,81.000000,0.000000,0.000000,0.516933,0.559545,0.188611,0.565832,0.000000,518.000000,491.000000,27.000000,81.000000,0.000000,0.000000:
0000
0000
0000
0000
,
0000
0000
0000
0000
,
0000
0000
0000
0000
,
0000
0000
0000
0000
,
0001
0000
0100
0100
,
0010
0000
1000
0100
,
0010
0000
0100
0100
,
1000
0000
0010
1000
,
0002
0100
1000
0100
,
1000
0100
1000
0103
,
0001
0000
0100
0010
0100
0000
0010
1000
,
0010
0000
1000
0100
1000
0000
0001
0000
,
2000
0100
0001
0100
,
0001
0100
0001
3100
,
1000
0000
0100
1000
0100
0000
0010
0100
,
0010
0000
0001
1000
0001
0000
1000
0000
,
0001
0000
0100
0010
2000
0000
3100
0010
,
0002
2003
3020
0130
,
0020
0000
1030
0100
0020
0000
0031
0000
,
2000
3200
0320
0032
,
0203
0000
0310
0000
1002
0000
0103
0010
,
2000
3200
0320
0031
,
1000
0100
0001
0100
1000
0010
0100
0001
,
1000
0100
0001
0100
1000
0010
0100
0001
,
1000
0000
0010
0000
1002
0000
0103
0010
,
2000
0000
3002
0000
0023
0000
0031
1000
,
0020
0000
0130
0001
2000
0000
3010
0000
,
2000
3200
0320
0031
,
2001
0000
3010
0000
0102
0000
1003
0010
,
0200
0302
2003
3100
,
1002
0203
1000
0302
,
0023
1000
0032
2003
,
3100
0000
1000
0100
0010
0001
0010
0100
,
1000
0000
0001
0100
0010
1000
0010
0100
,
0001
0000
1000
0100
1000
0000
0001
0000
,
0100
0001
1000
0001
0100
0000
2001
0000
,
3010
0000
0001
0010
0100
1000
0100
0010
,
0001
0000
1000
0010
0100
0001
0100
0010
,
1000
0000
0001
0010
0001
0000
1000
0000
,
0010
1000
0001
1000
0020
0000
0230
0000
,
0301
0100
0010
1000
0100
0100
0010
0001
,
0010
0100
1000
0001
1000
1000
0010
1000
,
0100
0010
0001
1000
0001
0001
0100
0000
,
0001
0100
1000
0100
0020
0000
2030
0000
,
3001
1000
0100
0010
0001
1000
0001
0001
,
0100
0001
1000
0010
0100
0001
1000
1000
,
0100
1000
0010
0100
0001
0001
1000
0000
,
1000
0100
0001
0100
1000
0001
0100
0000
,
1001
0000
0100
0001
2000
0000
3010
1000
,
0200
0000
0310
0001
2000
0000
3001
1000
,
0020
0000
0130
0001
2000
0000
3100
0000
,
1200
0320
0032
1003
,
0102
0000
1003
0010
2000
0000
3001
0010
,
0200
0000
2300
0000
3002
0000
0013
0100
,
1000
1000
0100
1000
0010
0010
0100
0001
,
1000
0010
0001
0010
1000
0100
0010
0001
,
0200
0000
0310
0000
1001
0000
1000
0010
,
1010
0000
1100
0000
0102
0000
0013
0001
,
0101
0110
2010
3001
,
1000
0100
0010
0001
0010
0100
1000
0001
,
0200
0000
0310
0000
1002
0000
0103
0010
,
2000
0000
3002
0000
0023
0000
0031
1000
,
0100
0100
0010
0001
1000
1000
0001
1000
,
0010
0100
1000
0100
0010
1000
0100
0010
,
0002
0000
0013
0000
0100
0010
0001
1000
,
0020
0000
0130
0000
0010
1000
0100
0010
,
0002
0000
0103
0000
0001
0100
0010
1000
,
0100
0100
1000
0010
0100
0000
0110
0000
,
2000
0000
3010
0000
1000
0100
0010
0001
,
2000
0000
3001
0000
1000
0100
0010
0001
,
0200
0000
0310
0000
0100
0001
0010
0100
,
1000
1000
0100
1000
0001
0000
0101
0000
,
1002
0000
0103
0010
0100
0001
0010
0100
,
1000
0100
0010
0001
0100
0010
1000
0010
,
0100
0001
0010
0100
1000
0001
0010
0000
,
0001
0100
0010
1000
1010
0000
0101
0000
,
2001
0000
3001
1000
0010
0100
0001
1000
,
0100
0010
0001
0010
0100
1000
0001
0100
,
0010
1000
0010
0100
0001
0010
0100
0010
,
0001
1000
0100
0010
0011
0000
0110
0000
,
1002
0000
0100
0000
0013
0100
0010
0001
,
2000
0000
0100
0000
3001
1000
0020
0000
,
0230
0000
0001
0000
0310
0100
0001
0010
,
0100
0100
1000
0100
0001
0100
0010
0100
,
2000
0000
0100
0000
3001
1000
0100
0010
,
0002
0000
0100
0000
1003
0010
0200
0000
,
0302
0000
1000
0000
0103
0001
0010
0100
,
1000
1000
0100
0001
0100
0010
0001
0100
,
0202
0000
0000
0000
,
0303
0000
0000
0000
;

//---------------dance-double - ----------------
#NOTES:
     dance-double:
     :
     Challenge:
     8:
     0.504958,0.553258,0.195596,0.516933,0.000000,506.000000,478.000000,28.000000,74.000000,0.000000,0.000000,0.504958,0.553258,0.195596,0.516933,0.000000,506.000000,478.000000,28.000000,74.000000,0.000000,0.000000:
00000000
00000000
00000000
00000000
,
00000000
00000000
00000000
00000000
,
00000000
00000000
00000000
00000000
,
00000000
00000000
00000000
00000000
,
00010000
00000000
00001000
00010000
,
00000100
00000000
00001000
00001000
,
00000100
00000000
00001000
00000100
,
00010000
00000000
00001000
00010000
,
00002000
00000100
00010000
00000100
,
00010000
00000100
00010000
00000100
,
00013000
00000000
00001000
00010000
00001000
00000000
00010000
00001000
,
00010000
00000000
00000100
00000000
00010000
00001000
00010000
00000000
,
00020000
00100000
00001000
00100000
,
00001000
00100000
00001000
00100000
,
00031000
00000000
00100000
00000000
00010000
00100000
00010000
00000000
,
10000000
00100000
10000000
00000000
00010000
00000000
00000000
00000000
,
10000000
00000000
01000000
00100000
00020000
00000000
01030000
00100000
,
02000000
03020000
20030000
30100000
,
20100000
00000000
30010000
10000000
02000000
00000000
03100000
00000000
,
00210000
00302000
00013000
00010200
,
00001300
00000000
00000010
00000100
00000002
00000000
00000013
00000100
,
00002000
00003002
00000103
00001001
,
00000001
00000100
00001000
00000100
00000010
00001000
00000100
00000010
,
00000001
00000100
00001000
00000100
00000010
00001000
00000100
00000010
,
00000001
00000000
00000000
00000000
00002001
00000000
00003010
00001000
,
00000200
00000000
00010300
00001000
00200000
00000000
00310000
00000000
,
00210000
00000000
00301000
00100000
00002000
00000000
00013000
00000000
,
00011000
01001000
01010000
20000000
,
30100000
01000000
00020000
00000000
20030000
00000000
31000000
10000000
,
00200000
02300000
03020000
10030000
,
00010000
10000000
00100000
01000000
00010000
10000000
01000000
00100000
,
00010000
01000000
00100000
00010000
00001000
00000010
00000001
00001000
,
00000010
00000000
00000100
00000000
00000010
00000100
00000001
00000000
,
00000010
00000000
00000100
00000000
00000010
00000100
00001000
00000000
,
00000010
00000000
00001000
00000100
00010000
00000000
00000010
00000000
,
00001000
00000100
00000010
00000001
00000100
00000000
00000101
00000000
,
00002001
00000010
00000100
00000001
,
00000010
00000000
00000100
00000000
00003001
00001000
00000010
00000100
,
00000002
00000100
00001000
00001003
,
00000001
00000100
00000010
00000100
00001000
00000100
00000010
00001000
,
00000200
00000000
00010300
00000000
00000100
00010000
00001000
00100000
,
00020000
00000000
01030000
00000000
00010000
01000000
00100000
10000000
,
02000000
00000000
13000000
00000000
01000000
10000000
00100000
00000000
,
10000000
10000000
01000000
00100000
00010000
00000000
00110000
00000000
,
20010000
00000000
30100000
00000000
10000000
00100000
01000000
00010000
,
00200000
00000000
00310000
00000000
00100000
01000000
00100000
00010000
,
02000000
00000000
03010000
00000000
01000000
00001000
00010000
00000100
,
00001000
00001000
00000010
00000100
00000010
00001000
00000100
00000000
,
00002100
00000000
00003001
00000000
00000200
00000000
00000301
00001000
,
00000020
00000000
00000130
00000001
00002000
00000000
00003100
00000000
,
00020100
00000000
00030100
00001000
00000020
00000000
00000130
00000000
,
00000020
00000230
00002300
00023000
,
00230000
00000000
10300000
00000000
02000000
00000000
13000000
00100000
,
02000000
00000000
03020000
00000000
20030000
00000000
30010000
10000000
,
01000000
01000000
00100000
00100000
00010000
00010000
01000000
01000000
,
00001000
00001000
00010000
00010000
00000100
00000100
00001000
00000001
,
00000200
00000000
00000310
00000000
00000200
00000000
00000301
00001000
,
00000200
00000000
00000320
00000000
00000032
00000000
00001003
00000100
,
00020000
00000000
00030100
00001000
00000020
00000000
00000130
00000000
,
00000210
00000302
00002003
00003010
,
00001002
00000000
00000103
00000000
00000002
00000000
00001003
00000100
,
00000020
00000000
00000031
00000000
00002000
00000000
00003001
00000100
,
00000100
00000010
00000010
00001000
00001000
00000100
00000100
00010000
,
00010000
00001000
00001000
00100000
00100000
00010000
00010000
01000000
,
00200000
00000000
10000000
00000000
01300000
00100000
10000000
01000000
,
00200000
00000000
00010000
00000000
01300000
00100000
00020000
00000000
,
20030000
00000000
30010000
00000000
10000000
00100000
01000000
00010000
,
00100000
00100000
00010000
00100000
00001000
00000000
00101000
00000000
,
00010200
00000000
00001000
00000000
00000310
00000100
00001000
00000010
,
00000200
00000000
00000001
00000000
00000310
00000100
00000002
00000000
,
00002003
00000000
00003200
00000000
00000310
00000100
00001000
00000010
,
00000100
00000100
00000001
00000100
00000010
00001000
00000100
00000000
,
00010100
00000000
00011000
00000000
00001000
00010000
00100000
10000000
,
01000000
00000000
11000000
00000000
01000000
00100000
00010000
01000000
,
00100000
00000000
01100000
00000000
00100000
10000000
01000000
00100000
,
00010000
00010000
01000000
00001000
00010000
00000000
00011000
00000000
,
00010200
00000000
00001300
00000000
00000010
00001000
00000100
00000010
,
00000002
00000000
00000103
00000000
00000001
00000100
00000010
00001000
,
00000002
00000000
00001003
00000000
00000010
00001000
00000100
00010000
,
00001000
00001000
00100000
00010000
01000000
00000000
01010000
00000000
,
10100000
00100000
01000000
00010000
10000000
01000000
00100000
00010000
,
01000000
00100000
00010000
00001000
00000010
00000001
00000100
00000010
,
00001000
00001000
00000001
00001000
00000010
00000100
00000001
00001000
,
00000100
00000100
00000010
00000001
00000010
00000100
00001000
00000010
,
00000100
00000100
00001000
00000100
00000010
00001000
00000100
00010000
,
00001000
00100000
01000000
01000000
00100000
00010000
01000000
00100000
,
10000000
00010000
10000000
10000000
01000000
10000000
00100000
01000000
,
00010000
00010000
00010000
01000000
00100000
10000000
01000000
00100000
,
10010000
00000000
00000000
00000000
;

//---------------dance-single - ----------------
#NOTES:
     dance-single:
     :
     Medium:
     6:
     0.338302,0.528459,0.111769,0.488991,0.000000,339.000000,323.000000,16.000000,70.000000,0.000000,0.000000,0.338302,0.528459,0.111769,0.488991,0.000000,339.000000,323.000000,16.000000,70.000000,0.000000,0.000000:
0000
0000
0000
0000
,
0000
0000
0000
0000
,
0000
0000
0000
0000
,
0000
0000
0000
0000
,
1000
0000
0000
0000
,
0010
0000
0000
0000
,
0100
0000
0100
0000
,
0001
1000
0001
0000
,
2200
0000
0000
0000
,
0000
0000
3300
0000
,
0100
1000
0010
0000
,
1000
0001
0100
0000
,
0202
0000
0000
0000
,
0000
0000
0303
0000
,
0001
1000
0010
0000
,
1000
0100
0010
0000
,
0100
1000
0020
0030
,
0100
0001
2000
3000
,
0010
1000
0002
0003
,
2000
3200
0320
0032
,
1003
0000
0000
0000
0001
0000
1000
0100
,
1000
0001
0100
0000
,
0001
0100
0001
0000
1000
0100
1000
0000
,
0001
0010
0001
0000
1000
0010
1000
0000
,
0001
0000
2000
3000
,
0001
1000
0020
0030
,
0100
0001
2000
3000
,
0002
0023
0230
2300
,
3001
0000
2000
3100
,
0020
0031
0200
0310
,
0201
0320
2030
3002
,
0023
0230
2300
3002
,
0103
0000
0010
0000
0100
0010
0100
0000
,
0001
0000
0100
0000
0001
0100
0001
0000
,
1000
0000
0000
1000
1000
0000
0000
0000
,
0001
1000
0100
0000
0010
0001
0100
0000
,
0001
0000
1000
0000
0100
1000
0100
0000
,
1000
0000
0001
0000
0100
0001
0100
0000
,
0010
0000
0000
0010
0010
0000
0000
0000
,
0100
0001
1000
0000
0010
1000
0100
0000
,
1100
0100
0010
0001
,
0101
0100
0010
1000
,
1100
1000
0001
0010
,
0001
1000
0001
1000
0010
0000
0010
0000
,
1010
1000
0100
0010
,
0011
0001
1000
0010
,
1010
1000
0001
0100
,
0001
1000
0001
1000
0010
0000
0100
0000
,
2002
3003
0002
0003
,
2000
3100
0020
0030
,
0002
1003
0020
0030
,
2000
3200
0320
0032
,
0103
0000
0001
0000
0100
0000
0010
0100
,
0020
1030
0002
0003
,
1000
0100
1000
0100
1000
0100
1000
0100
,
0010
0001
0010
0001
0010
0001
0010
0001
,
0100
0000
0201
0300
,
0010
0100
0002
0003
,
0100
0001
2000
3000
,
0002
0023
0230
1300
,
0002
0000
1003
0000
0010
0000
1000
0100
,
2000
3001
0100
0000
,
0001
1000
0001
1000
0001
1000
0001
1000
,
0010
0100
0010
0100
0010
0100
0010
0100
,
0001
0000
0000
0000
0100
0010
0100
0010
,
1000
0000
0000
0002
,
2003
3000
0000
0100
,
0010
0100
0010
0100
0010
0000
0001
0000
,
2000
0000
3000
0000
0100
1000
0100
1000
,
0002
0003
0000
0200
,
0302
0003
1000
0001
,
0100
0001
0100
0001
1000
0000
0001
0000
,
2002
0000
3003
0000
0001
1000
0001
1000
,
0020
0030
0000
0200
,
0320
0030
0020
0030
,
1000
0010
1000
0010
0100
0000
0001
0000
,
2002
0000
3003
0000
0001
0100
0001
0100
,
0002
0003
0000
0200
,
0320
0030
0000
0020
,
1030
0000
0100
1000
0100
0000
0010
0000
,
1001
0000
0000
0000
0001
0100
0001
0100
,
0010
0000
0000
0000
1000
0100
1000
0100
,
0010
0000
0001
0000
,
1000
0100
0010
0001
1000
0000
0001
0000
,
0101
0000
0000
0000
1000
0010
1000
0010
,
0100
0000
0000
0000
0001
1000
0001
1000
,
0100
0000
0010
0000
,
0001
0010
0100
1000
0001
0000
0100
0000
,
0202
0000
0000
0000
,
0303
0000
0000
0000
;

//---------------dance-single - ----------------
#NOTES:
     dance-single:
     :
     Easy:
     3:
     0.201584,0.276629,0.013971,0.167654,0.000000,202.000000,200.000000,2.000000,24.000000,0.000000,0.000000,0.201584,0.276629,0.013971,0.167654,0.000000,202.000000,200.000000,2.000000,24.000000,0.000000,0.000000:
// measure 0
0000
0000
0000
0000
,  // measure 1
0000
0000
0000
0000
,  // measure 2
0000
0000
0000
0000
,  // measure 3
0000
0000
0000
0000
,  // measure 4
0001
0000
0000
0000
,  // measure 5
1000
0000
0000
0000
,  // measure 6
0010
0000
0000
0000
,  // measure 7
0010
0000
0010
0000
,  // measure 8
2002
0000
0000
0000
,  // measure 9
0000
0000
3003
0000
,  // measure 10
1000
0000
0001
0000
,  // measure 11
0100
0000
0100
0000
,  // measure 12
2002
0000
0000
0000
,  // measure 13
0000
0000
3003
0000
,  // measure 14
0001
0000
1000
0000
,  // measure 15
0100
0000
0100
0000
,  // measure 16
0000
0000
1000
0000
,  // measure 17
0001
0000
0100
0000
,  // measure 18
0010
0000
0010
0000
,  // measure 19
0100
0100
0001
0001
,  // measure 20
1000
0000
0001
0000
,  // measure 21
1000
0100
1000
0000
,  // measure 22
0001
0010
0001
0010
,  // measure 23
0100
1000
0100
1000
,  // measure 24
0001
0000
1000
0000
,  // measure 25
0010
0000
0100
0000
,  // measure 26
0001
0000
1000
0000
,  // measure 27
0001
0001
1000
1000
,  // measure 28
0100
0000
1000
0000
,  // measure 29
0001
0100
0001
0000
,  // measure 30
1000
1000
0001
0001
,  // measure 31
0100
0100
0010
0010
,  // measure 32
1000
0000
0000
0000
,  // measure 33
0001
0000
1000
0000
,  // measure 34
0100
0000
0000
0000
,  // measure 35
1000
0100
0010
0001
,  // measure 36
1000
0000
0000
0000
,  // measure 37
0010
0000
0010
0000
,  // measure 38
0100
0000
0000
0000
,  // measure 39
0001
0100
0010
1000
,  // measure 40
0002
0000
0000
0000
,  // measure 41
0003
0000
2000
3000
,  // measure 42
0020
0000
0000
0030
,  // measure 43
1000
0100
0010
0001
,  // measure 44
2000
0000
0000
0000
,  // measure 45
3000
0000
0200
0300
,  // measure 46
0020
0000
0000
0030
,  // measure 47
0001
0010
0100
1000
,  // measure 48
0001
0000
0200
0300
,  // measure 49
0010
0000
0020
0030
,  // measure 50
1000
0000
2000
3000
,  // measure 51
0001
0010
0100
1000
,  // measure 52
0001
0000
1000
0000
,  // measure 53
0010
0010
1000
0000
,  // measure 54
0001
0100
0001
0100
,  // measure 55
0010
1000
0010
1000
,  // measure 56
0001
0000
2000
3000
,  // measure 57
0100
0000
0200
0300
,  // measure 58
0010
0000
0020
0030
,  // measure 59
0001
0010
0100
1000
,  // measure 60
0001
0000
2000
3000
,  // measure 61
0010
1000
0020
0030
,  // measure 62
1000
0100
1000
0100
,  // measure 63
0010
0001
0010
0001
,  // measure 64
2000
0000
0000
0000
,  // measure 65
3000
0000
0020
0030
,  // measure 66
0200
0000
0300
0000
,  // measure 67
0001
0100
0010
1000
,  // measure 68
0002
0000
0000
0000
,  // measure 69
0003
0000
2000
3000
,  // measure 70
0200
0000
0000
0300
,  // measure 71
1000
0100
0010
0001
,  // measure 72
0100
0000
0100
0010
,  // measure 73
1000
0000
1000
0001
,  // measure 74
1000
0000
0001
0000
,  // measure 75
1000
0100
0010
0001
,  // measure 76
0100
0000
0001
0100
,  // measure 77
0001
0000
1000
0000
,  // measure 78
0010
0000
1000
0000
,  // measure 79
0001
1000
0100
0100
,  // measure 80
1000
0000
0001
1000
,  // measure 81
0100
0000
0010
0100
,  // measure 82
1000
0000
0100
1000
,  // measure 83
0001
0001
0100
0100
,  // measure 84
0010
0000
0100
0001
,  // measure 85
1000
0000
0010
1000
,  // measure 86
0100
0000
1000
0001
,  // measure 87
0010
0010
0001
0001
,  // measure 88
0100
0000
0000
0000
;

//---------------dance-single - ----------------
#NOTES:
     dance-single:
     :
     Beginner:
     2:
     0.126738,0.215156,0.034928,0.000000,0.000000,127.000000,122.000000,5.000000,0.000000,0.000000,0.000000,0.126738,0.215156,0.034928,0.000000,0.000000,127.000000,122.000000,5.000000,0.000000,0.000000,0.000000:
// measure 0
0000
0000
0000
0000
,  // measure 1
0000
0000
0000
0000
,  // measure 2
0000
0000
0000
0000
,  // measure 3
0000
0000
0000
0000
,  // measure 4
0100
0000
0000
0000
,  // measure 5
0100
0000
0000
0000
,  // measure 6
0001
0000
0000
0000
,  // measure 7
1000
0000
0000
0000
,  // measure 8
1001
0000
0000
0000
,  // measure 9
0000
0000
0000
0000
,  // measure 10
1000
0000
1000
0000
,  // measure 11
1000
0000
0000
0000
,  // measure 12
1001
0000
0000
0000
,  // measure 13
0000
0000
0000
0000
,  // measure 14
0001
0000
0001
0000
,  // measure 15
0001
0000
0000
0000
,  // measure 16
0000
0000
0100
0000
,  // measure 17
0100
0000
0100
0000
,  // measure 18
0000
0000
0000
0000
,  // measure 19
0010
0010
0010
0000
,  // measure 20
0010
0000
0000
0000
,  // measure 21
1000
0000
0000
0000
,  // measure 22
0001
0000
0001
0000
,  // measure 23
0001
0000
0000
0000
,  // measure 24
1000
0000
0000
0000
,  // measure 25
0100
0000
0000
0000
,  // measure 26
0100
0000
0000
0000
,  // measure 27
0010
0010
0010
0010
,  // measure 28
0010
0000
0000
0000
,  // measure 29
0010
0000
0000
0000
,  // measure 30
0001
0000
0001
0000
,  // measure 31
0001
0000
0000
0000
,  // measure 32
1001
0000
0000
0000
,  // measure 33
0000
0000
1000
0000
,  // measure 34
1000
0000
0000
0000
,  // measure 35
0010
0010
0010
0000
,  // measure 36
0010
0000
0000
0000
,  // measure 37
1000
0000
0000
0000
,  // measure 38
0001
0000
0000
0000
,  // measure 39
0100
0100
0100
0100
,  // measure 40
0100
0000
0000
0000
,  // measure 41
0000
0000
0000
0001
,  // measure 42
0001
0000
0000
0000
,  // measure 43
1000
0000
1000
0000
,  // measure 44
1000
0000
0000
0000
,  // measure 45
0000
0000
0000
0010
,  // measure 46
0010
0000
0000
0000
,  // measure 47
1000
0000
1000
0000
,  // measure 48
1000
0000
0000
0000
,  // measure 49
0001
0000
0000
0000
,  // measure 50
0100
0000
0000
0000
,  // measure 51
0010
0000
0010
0010
,  // measure 52
0010
0000
0000
0000
,  // measure 53
1000
0000
0000
0000
,  // measure 54
0001
0001
0001
0000
,  // measure 55
0001
0001
0001
0000
,  // measure 56
0001
0000
0000
0000
,  // measure 57
0100
0000
0100
0000
,  // measure 58
0100
0000
0000
0000
,  // measure 59
0001
0000
0001
0001
,  // measure 60
0001
0000
0000
0000
,  // measure 61
1000
0000
0000
0000
,  // measure 62
1000
1000
1000
0000
,  // measure 63
1000
0000
0000
0000
,  // measure 64
1001
0000
0000
0000
,  // measure 65
0000
0000
0000
1000
,  // measure 66
1000
0000
0000
0000
,  // measure 67
0100
0000
0100
0000
,  // measure 68
0100
0000
0000
0000
,  // measure 69
0000
0000
0000
0010
,  // measure 70
0010
0000
0000
0000
,  // measure 71
0010
0010
0010
0000
,  // measure 72
0010
0000
0000
0000
,  // measure 73
0000
0000
0000
0001
,  // measure 74
0001
0000
0000
0000
,  // measure 75
0001
0001
0001
0000
,  // measure 76
0001
0000
0000
0000
,  // measure 77
0000
0000
0000
1000
,  // measure 78
1000
0000
0000
0000
,  // measure 79
0001
0001
0001
0000
,  // measure 80
0001
0000
0000
0000
,  // measure 81
0100
0000
0100
0000
,  // measure 82
0100
0000
0000
0000
,  // measure 83
0010
0010
0010
0010
,  // measure 84
0010
0000
0000
0000
,  // measure 85
0010
0000
0000
0000
,  // measure 86
1000
0000
0000
0000
,  // measure 87
1000
1000
0000
0000
,  // measure 88
1001
0000
0000
0000
;
