#VERSION:0.82;
#TITLE:Never Stop;
#SUBTITLE:;
#ARTIST:FM-84 feat.Ollie Wride;
#TITLETRANSLIT:;
#SUBTITLETRANSLIT:;
#ARTISTTRANSLIT:;
#GENRE:Electronic;
#ORIGIN:;
#CREDIT:;
#BANNER:Never Stop.png;
#BACKGROUND:Never Stop-bg.png;
#PREVIEWVID:;
#JACKET:jacket.png;
#CDIMAGE:;
#DISCIMAGE:;
#LYRICSPATH:;
#CDTITLE:;
#MUSIC:Never Stop.ogg;
#OFFSET:0.000000;
#SAMPLESTART:51.420227;
#SAMPLELENGTH:13.714000;
#SELECTABLE:YES;
#BPMS:0.000=168.000;
#STOPS:;
#DELAYS:;
#WARPS:;
#TIMESIGNATURES:0.000=4=4;
#TICKCOUNTS:0.000=4;
#COMBOS:0.000=1;
#SPEEDS:0.000=1.000=0.000=0;
#SCROLLS:0.000=1.000;
#FAKES:;
#LABELS:0.000=Song Start;
#BGCHANGES:8.000=Never Stop.avi=1.000=0=0=1=====,
99999=-nosongbg-=1.000=0=0=0 // don't automatically add -songbackground-
;
#KEYSOUNDS:;
#ATTACKS:
;

//---------------dance-single - ----------------
#NOTEDATA:;
#CHARTNAME:;
#STEPSTYPE:dance-single;
#DESCRIPTION:;
#CHARTSTYLE:;
#DIFFICULTY:Hard;
#METER:8;
#RADARVALUES:0.591673,0.635593,0.230980,0.310628,0.000000,452.000000,29.000000,39.000000,0.000000,0.000000,0.000000,0.000000,0.000000,0.591673,0.635593,0.230980,0.310628,0.000000,452.000000,29.000000,39.000000,0.000000,0.000000,0.000000,0.000000,0.000000;
#CREDIT:Ben Speirs;
#NOTES:
0000
0000
0000
0000
,
0000
0000
0000
0000
,
0000
0000
0000
0000
,
0000
0000
0000
0000
,
0010
1000
0010
1000
0100
0000
1000
0100
,
0010
0000
0100
0010
0001
0000
0100
0000
,
0001
0100
0001
0100
0010
0000
0100
0010
,
1000
0000
0010
0000
1000
0100
0010
0001
,
0000
1000
0000
0001
0000
0100
0000
0010
,
0000
0010
0100
0000
0001
0100
0010
1000
,
0001
0000
1100
0000
0100
1000
0001
0000
,
0010
0000
0101
0000
0100
0010
1000
0010
,
0100
0001
0100
0001
0010
0000
0001
0010
,
0100
0000
0010
0100
1000
0000
0010
0000
,
1000
0010
1000
0010
0100
0000
0010
0100
,
0001
0000
0100
0000
0001
0010
0100
1000
,
0000
0001
0000
0100
0000
0010
0000
1010
,
0000
1100
0000
0001
0000
0010
0000
0001
,
0100
0000
0010
0000
0100
0001
1000
0000
,
0010
1000
0001
0000
1000
0100
0001
0100
,
2000
3200
0320
0031
,
1000
0000
0001
0000
0100
0010
0100
0001
,
1000
1010
0001
0011
,
1000
0001
1000
0000
0001
0010
0100
1000
,
0002
0203
0320
1030
,
0001
0000
1000
0000
0010
0100
0010
1000
,
0001
0101
1000
1100
,
0001
1000
0001
0000
1000
0100
0010
0001
,
2000
3100
1100
0101
,
1000
0000
0001
0000
1000
0010
0100
0001
,
1000
0001
1000
0000
0010
1000
0010
0000
,
1000
0100
1000
0000
0100
1000
0001
0000
,
0002
0013
0011
1010
,
0001
0000
1000
0000
0001
0100
0010
1000
,
0001
1000
0001
0100
0010
1000
0001
1000
,
0001
0100
0010
1000
0100
0010
0001
0000
,
2000
0000
0100
0000
3001
0000
0001
1000
,
0002
0000
0100
0000
1003
0000
1000
0001
,
2000
0000
0100
0000
3001
0000
1000
0001
,
1000
0010
0100
0001
1000
0001
1000
0010
,
0100
0100
0100
0000
0001
0100
0001
0010
,
0000
0011
0000
0000
0001
1000
0001
0000
,
0100
0000
0010
0000
1000
0100
1000
0010
,
0000
1010
0000
0011
0000
1001
0000
1000
,
0002
0000
0010
0000
1003
0000
1000
0001
,
2000
0000
0010
0000
3001
0000
0001
1000
,
0002
0000
0010
0000
1003
0000
0001
1000
,
0001
0100
0010
1000
0001
1000
0001
0100
,
0010
0010
0010
0000
1000
0010
1000
0100
,
0000
1100
0000
0000
1000
0001
1000
0000
,
0010
0000
0100
0000
0001
0010
0001
0100
,
0000
0101
0000
1100
0000
0011
0000
0001
,
0200
0000
0320
0000
1030
0100
0010
0002
,
0000
2003
0000
0000
3010
1000
0001
0000
,
0010
0001
0100
0010
0100
0001
0010
1000
,
0010
0001
0100
0010
1000
0100
0010
0000
,
0002
0000
2003
0000
3010
1000
0100
0010
,
0010
0002
0000
0000
0103
0001
0100
0000
,
0001
0100
0010
1000
0100
0010
0001
0100
,
0010
1000
0100
1000
0010
0100
0001
0100
,
0020
1000
2030
0100
,
3200
0010
0320
0001
,
0032
0000
0203
0000
0310
1000
0001
0000
,
0010
0001
1000
0000
0100
1000
0010
0100
,
0001
1000
0001
0000
2000
0000
3100
0000
,
1000
0010
0100
0000
0001
1000
0100
0010
,
0002
0000
0103
0000
0001
0100
0010
0000
,
1001
1000
0100
1000
0010
0100
0001
0020
,
0000
0000
0100
0000
0130
0000
0010
0002
,
0000
0000
0100
0000
0103
0000
0001
2000
,
0000
0000
0100
0000
3100
0000
1000
0020
,
0000
0130
1000
0100
0010
0100
0001
0020
,
0000
0000
0001
0000
0130
0000
0010
0002
,
0000
0000
0100
0000
1003
0000
0001
0200
,
0000
0000
0010
0000
0301
0000
1000
0020
,
0000
0130
1000
0100
0010
0100
0001
1000
,
0100
0000
1100
0000
0101
0000
0010
0001
,
0100
0000
0101
0000
1010
0000
0010
1000
,
0001
0000
1001
0000
0011
0000
1000
0001
,
0010
0100
1000
0010
0100
0001
1000
0010
,
1000
0000
0202
0000
0303
0000
0100
0001
,
1000
0010
1000
0000
0001
0010
0100
0010
,
0001
1000
0010
0000
1000
0100
0010
0001
,
1000
0010
0100
0100
0000
0001
1000
0100
,
1001
0000
0000
0000
;

//---------------dance-double - ----------------
#NOTEDATA:;
#CHARTNAME:;
#STEPSTYPE:dance-double;
#DESCRIPTION:;
#CHARTSTYLE:;
#DIFFICULTY:Challenge;
#METER:8;
#RADARVALUES:0.574605,0.602141,0.191156,0.270804,0.000000,447.000000,24.000000,34.000000,0.000000,0.000000,0.000000,0.000000,0.000000,0.574605,0.602141,0.191156,0.270804,0.000000,447.000000,24.000000,34.000000,0.000000,0.000000,0.000000,0.000000,0.000000;
#CREDIT:Ben Speirs;
#NOTES:
00000000
00000000
00000000
00000000
,
00000000
00000000
00000000
00000000
,
00000000
00000000
00000000
00000000
,
00000000
00000000
00000000
00000000
,
10000000
01000000
10000000
01000000
00100000
00000000
00010000
10000000
,
00010000
00000000
01000000
00010000
01000000
00000000
00010000
00000000
,
10000000
00100000
10000000
00100000
01000000
00000000
00010000
00100000
,
00010000
00000000
10000000
00000000
01000000
00000000
00100000
00010000
,
00000000
01000000
00000000
00001000
00000000
00010000
00000000
00000010
,
00000000
00001000
00000000
00000100
00000000
00000010
00000000
00000001
,
00001000
00000000
00000001
00000000
00001000
00000100
00001000
00000000
,
00000001
00000100
00000001
00000000
00001000
00000000
00001001
00000000
,
00000001
00000010
00000001
00000010
00000100
00000000
00001000
00000001
,
00001000
00000000
00000010
00001000
00000010
00000000
00001000
00000000
,
00000001
00000100
00000001
00000100
00000010
00000000
00001000
00000100
,
00001000
00000000
00000001
00000000
00000010
00000000
00000100
00001000
,
00000000
00000010
00000000
00010000
00000000
00001000
00000000
01000000
,
00000000
00010000
00000000
00100000
00000000
01000000
00000000
10000000
,
00010000
00000000
10000000
00000000
00010000
00100000
00010000
00000000
,
10000000
00100000
10000000
00000000
00010000
00100000
01000000
10000000
,
00200000
02300000
03002000
00023000
,
00031000
00000000
00011000
00000000
00001000
00000100
00000001
00000000
,
00000100
00000010
00000100
00000001
00000010
00000100
00001000
00000010
,
00000100
00000010
00001000
00000100
00000010
00000001
00001000
00000001
,
00000200
00000320
00020030
00032000
,
00013000
00000000
00011000
00000000
00010000
00100000
10000000
00000000
,
00100000
01000000
00100000
10000000
01000000
00100000
00010000
01000000
,
00100000
01000000
00010000
00100000
01000000
10000000
00010000
00000000
,
20000000
01000000
30100000
10010000
,
10000000
01000000
00100000
00000000
00010000
01000000
00001000
00000000
,
00010000
00001000
00010000
00000100
00001000
00000010
00000100
00000010
,
00001000
00000100
00000010
00000001
00001000
00000001
00000100
00000000
,
00000002
00000010
00000103
00001001
,
00000001
00000010
00000100
00000000
00001000
00000010
00010000
00000000
,
00001000
00010000
00001000
00100000
00010000
01000000
00100000
00100000
,
10000000
00000000
01000000
01000000
00000000
00100000
00100000
00000000
,
00002000
00000000
00010000
00000000
00103000
00000000
00010000
00001000
,
00020000
00000000
00001000
00000000
00030010
00000000
00001000
00010000
,
00002000
00000000
00010000
00000000
00103000
00000000
00001000
00010000
,
00100000
10000000
00100000
10000000
01000000
00100000
01000000
00100000
,
00010000
00010000
01000000
00000000
00010000
01000000
00100000
10000000
,
00000000
11000000
00000000
00000000
10000000
00100000
01000000
00010000
,
10000000
00000000
00010000
00000000
10000000
01000000
00100000
00010000
,
00000000
00110000
00000000
00101000
00000000
00011000
00000000
00000100
,
00020000
00000000
00001000
00000000
00030100
00000000
00001000
00010000
,
00002000
00000000
00010000
00000000
01003000
00000000
00010000
00001000
,
00020000
00000000
00001000
00000000
00030100
00000000
00010000
00001000
,
00000100
00000001
00000100
00000001
00000010
00000100
00000010
00000100
,
00001000
00001000
00000010
00000000
00001000
00000010
00000100
00000001
,
00000000
00000011
00000000
00000000
00000001
00000100
00000010
00001000
,
00000001
00000000
00001000
00000000
00000001
00000010
00000100
00001000
,
00000000
00001100
00000000
00010100
00000000
00011000
00000000
00100000
,
00020000
00000000
01030000
00000000
00010000
01000000
00100000
00000000
,
20000000
00000000
31000000
00000000
10000000
01000000
00100000
00000000
,
00010000
00100000
01000000
10000000
00100000
01000000
00010000
00100000
,
00001000
00010000
00001000
00010000
00000010
00001000
00000001
00000000
,
00000200
00000000
00000310
00000000
00000010
00001000
00000100
00000000
,
00000020
00000000
00000130
00000000
00000010
00000001
00000100
00000000
,
00000001
00000100
00000010
00001000
00000100
00000010
00000001
00000000
,
00001000
00000000
00001100
00000000
00000001
00001000
00000010
00000100
,
00000002
00000100
00000203
00001000
,
00002300
00010000
00023000
00100000
,
02030000
23000000
30200000
00000000
,
01300000
00000000
00100000
00000000
10000000
01000000
00100000
00010000
,
10000000
00010000
10000000
00000000
00100000
10000000
00010000
00000000
,
00100000
00010000
01000000
00000000
00010000
01000000
00001000
00000000
,
00020000
00001000
00001000
00031000
,
00010000
00001000
00000100
00001000
00000100
00001000
00000100
00000020
,
00000000
00000000
00001000
00000000
00001030
00000000
00000001
00000020
,
00000000
00000000
00000100
00000000
00000130
00000000
00000010
00000002
,
00000000
00000000
00000100
00000000
00000103
00000000
00000001
00001000
,
00000000
00000100
00001000
00000010
00010000
00001000
00100000
00020000
,
00000000
00000000
01000000
00000000
01030000
00000000
00010000
20000000
,
00000000
00000000
01000000
00000000
31000000
00000000
10000000
00200000
,
00000000
00000000
01000000
00000000
01300000
00000000
00100000
10000000
,
00000000
10000000
01000000
00100000
00010000
01000000
00100000
00010000
,
00001000
00000000
00011000
00000000
00011000
00000000
00010000
00001000
,
00100000
00000000
00110000
00000000
00110000
00000000
00100000
00010000
,
10000000
00000000
11000000
00000000
11000000
00000000
01000000
10000000
,
00100000
01000000
00010000
00100000
00001000
00010000
00000100
00001000
,
00000010
00001010
00001100
00000010
,
00000001
00000011
00000101
00000100
,
00000001
00000100
00000010
00001000
00000100
00000010
00000001
00000000
,
00001000
00001000
00000100
00010000
00001000
00100000
00010000
01000000
,
00001000
00000000
00000000
00000000
;

//---------------dance-single - ----------------
#NOTEDATA:;
#CHARTNAME:;
#STEPSTYPE:dance-single;
#DESCRIPTION:;
#CHARTSTYLE:;
#DIFFICULTY:Medium;
#METER:5;
#RADARVALUES:0.380036,0.468332,0.079648,0.167261,0.000000,303.000000,10.000000,21.000000,0.000000,0.000000,0.000000,0.000000,0.000000,0.380036,0.468332,0.079648,0.167261,0.000000,303.000000,10.000000,21.000000,0.000000,0.000000,0.000000,0.000000,0.000000;
#CREDIT:Ben Speirs;
#NOTES:
0000
0000
0000
0000
,
0000
0000
0000
0000
,
0000
0000
0000
0000
,
0000
0000
0000
0000
,
0001
0100
0010
1000
,
0001
0000
1000
0100
1000
0000
0000
0000
,
0001
1000
0010
0100
,
0100
0000
0001
0100
0001
0000
0000
0000
,
0100
0010
1000
0001
,
0010
0100
1000
0010
,
0100
0100
0001
0000
,
1000
1000
0010
0000
,
1000
0100
1000
1000
,
0001
0000
0010
0001
0100
0000
0000
0000
,
0001
0100
0001
0001
,
1000
0000
0010
1000
0100
0000
0000
0000
,
1000
0100
0010
0001
,
1000
0010
0100
0001
,
1000
1000
0010
0000
,
1000
0000
0000
0000
0001
0010
0001
0010
,
0001
0100
0100
0000
,
0001
1000
0010
0000
,
1000
0100
0010
0001
,
0100
0100
0010
1000
,
0001
1000
0001
0000
1000
0000
0000
0000
,
0100
1000
0010
0000
,
0200
0301
1000
0000
,
0002
0000
1003
0000
0010
1000
0010
1000
,
0010
1000
0100
0000
,
1000
1000
0100
0000
,
1000
0100
0010
0001
,
0100
0010
1000
0001
,
0100
0001
0100
0000
0001
0000
0000
0000
,
0100
0001
1000
0000
,
0010
2000
3100
1000
,
0001
0020
0031
0000
,
0002
0000
0103
0000
0001
0000
1000
0100
,
2000
0000
3100
0000
1000
0000
0001
0100
,
0002
0103
0001
0100
,
0010
1000
0100
0010
,
0001
1000
0001
0000
0000
0000
0000
0000
,
1000
1100
0001
0000
,
0001
0101
1000
0000
,
1000
1010
0001
0000
,
2000
0000
3100
0000
1000
0001
1000
0000
,
0002
0000
0103
0000
0001
1000
0001
0000
,
2000
0000
3100
0000
1000
0001
1000
0000
,
0001
0100
0010
1000
,
0100
1000
0100
0000
0000
0000
0000
0000
,
1000
1010
0001
0000
,
0001
0011
1000
0000
,
0001
1001
1000
0000
,
0002
0103
0010
1000
,
0200
0310
0001
0000
,
0010
0000
0001
0000
0100
0010
0100
0000
,
0001
0100
0001
0000
1000
0000
0000
0000
,
0001
2000
3010
0100
,
0001
2000
3001
0000
,
1000
0100
1000
0000
0001
0000
1000
0000
,
0001
0000
0100
0000
0010
0100
0010
0000
,
2000
3000
0002
0003
,
0200
0300
0020
0030
,
2000
3200
0320
0030
,
0001
1000
0010
0100
,
0001
0100
0001
0000
1000
0000
1000
0000
,
0010
1000
0001
0000
,
1000
0100
0010
0000
,
0000
0001
1000
0000
,
1010
0010
0100
0001
,
1000
1000
0100
0000
,
1000
0100
0010
0001
,
0100
0000
0001
1000
0001
1000
0001
0000
,
0100
0001
1000
1000
,
0010
1000
0100
0000
,
1000
0100
1000
1000
,
0001
0000
1000
0001
1000
0001
0100
0000
,
0000
0101
0100
0010
,
0000
1010
1000
0100
,
0000
1100
0100
0010
,
0000
0000
0001
1000
0001
0000
1000
0010
,
0000
0000
0100
0000
0100
0000
0001
0010
,
0000
0000
0100
0000
0100
0000
1000
0001
,
0000
1000
1000
0100
,
0000
1000
0010
0000
1000
0000
0001
0100
,
0010
0000
0000
0000
;

//---------------dance-single - ----------------
#NOTEDATA:;
#CHARTNAME:;
#STEPSTYPE:dance-single;
#DESCRIPTION:;
#CHARTSTYLE:;
#DIFFICULTY:Easy;
#METER:3;
#RADARVALUES:0.224153,0.334523,0.007965,0.151332,0.000000,177.000000,1.000000,19.000000,0.000000,0.000000,0.000000,0.000000,0.000000,0.224153,0.334523,0.007965,0.151332,0.000000,177.000000,1.000000,19.000000,0.000000,0.000000,0.000000,0.000000,0.000000;
#CREDIT:Ben Speirs;
#NOTES:
// measure 0
0000
0000
0000
0000
,  // measure 1
0000
0000
0000
0000
,  // measure 2
0000
0000
0000
0000
,  // measure 3
0000
0000
0000
0000
,  // measure 4
0100
0000
0100
0000
,  // measure 5
0001
1000
0010
0000
,  // measure 6
1000
0000
1000
0000
,  // measure 7
0100
1000
0001
0000
,  // measure 8
0010
0000
0001
0000
,  // measure 9
0100
0000
0010
0000
,  // measure 10
1000
0000
0100
0000
,  // measure 11
1000
1000
0001
0001
,  // measure 12
0100
0000
0100
0000
,  // measure 13
0001
1000
0010
0000
,  // measure 14
1000
0000
1000
0000
,  // measure 15
0001
0010
0100
0000
,  // measure 16
1000
0000
1000
0000
,  // measure 17
0001
0000
1000
0000
,  // measure 18
0010
0000
0100
0000
,  // measure 19
0001
0000
0100
0100
,  // measure 20
0010
0010
0000
0000
,  // measure 21
1000
0100
1000
0000
,  // measure 22
0001
0010
0001
0000
,  // measure 23
1000
0010
1000
0000
,  // measure 24
0001
0001
0000
0000
,  // measure 25
0100
0001
0100
0000
,  // measure 26
0001
1000
0001
0000
,  // measure 27
1000
0000
0010
0000
,  // measure 28
1000
0100
0000
0000
,  // measure 29
1000
0100
0010
0000
,  // measure 30
0001
1000
0010
0000
,  // measure 31
0100
0000
0100
0000
,  // measure 32
0001
0010
0000
0000
,  // measure 33
0001
1000
0010
0000
,  // measure 34
0100
0100
0100
0001
,  // measure 35
1000
0000
0000
0000
,  // measure 36
0020
0030
0000
0010
,  // measure 37
0200
0300
0000
0100
,  // measure 38
0002
0003
0000
0000
,  // measure 39
1000
0100
0010
0001
,  // measure 40
0100
0100
0000
0000
,  // measure 41
0001
0000
0000
0000
,  // measure 42
1000
1000
0000
0000
,  // measure 43
0010
0000
0000
0000
,  // measure 44
2000
3000
0000
0001
,  // measure 45
0020
0030
0000
0001
,  // measure 46
0200
0300
0000
0001
,  // measure 47
0100
0010
1000
0100
,  // measure 48
0010
0010
0000
0000
,  // measure 49
0001
0001
0000
0000
,  // measure 50
1000
0010
0000
0000
,  // measure 51
1000
1000
0000
0000
,  // measure 52
0000
0001
1000
0100
,  // measure 53
0000
0010
0000
0010
,  // measure 54
0000
0001
1000
0100
,  // measure 55
0000
0000
0000
0000
,  // measure 56
0000
1000
0010
0100
,  // measure 57
0000
0001
0000
0001
,  // measure 58
0000
1000
0010
0100
,  // measure 59
0000
0000
0000
0000
,  // measure 60
0001
0000
1000
0000
,  // measure 61
0010
0000
0010
0000
,  // measure 62
1000
0100
0010
0000
,  // measure 63
0000
0000
0001
1000
,  // measure 64
0010
0010
0000
0000
,  // measure 65
0100
0000
0100
0000
,  // measure 66
0001
0000
0000
0000
,  // measure 67
1000
0000
0000
0000
,  // measure 68
0020
0000
0030
0000
,  // measure 69
0200
0000
0300
0000
,  // measure 70
0002
0000
0003
0000
,  // measure 71
1000
0100
0010
0001
,  // measure 72
2000
0000
3000
0000
,  // measure 73
0020
0000
0030
0000
,  // measure 74
0200
0000
0300
0000
,  // measure 75
0001
1000
0100
0010
,  // measure 76
0002
0000
0003
0000
,  // measure 77
2000
0000
3000
0000
,  // measure 78
0020
0000
0030
0000
,  // measure 79
1000
0010
0100
0001
,  // measure 80
0020
0030
0200
0300
,  // measure 81
2000
3000
0002
0003
,  // measure 82
1000
0001
0100
0000
,  // measure 83
0010
0010
0010
0010
,  // measure 84
1001
0000
0000
0000
;

//---------------dance-single - ----------------
#NOTEDATA:;
#CHARTNAME:;
#STEPSTYPE:dance-single;
#DESCRIPTION:;
#CHARTSTYLE:;
#DIFFICULTY:Beginner;
#METER:1;
#RADARVALUES:0.113783,0.167261,0.023894,0.000000,0.000000,97.000000,3.000000,0.000000,0.000000,0.000000,0.000000,0.000000,0.000000,0.113783,0.167261,0.023894,0.000000,0.000000,97.000000,3.000000,0.000000,0.000000,0.000000,0.000000,0.000000,0.000000;
#CREDIT:Ben Speirs;
#NOTES:
// measure 0
0000
0000
0000
0000
,  // measure 1
0000
0000
0000
0000
,  // measure 2
0000
0000
0000
0000
,  // measure 3
0000
0000
0000
0000
,  // measure 4
0001
0000
0000
0000
,  // measure 5
1000
0000
0000
0000
,  // measure 6
0010
0000
0010
0000
,  // measure 7
0010
0000
0000
0000
,  // measure 8
1000
0000
0000
0000
,  // measure 9
0001
0000
0000
0000
,  // measure 10
0010
0000
0000
0000
,  // measure 11
0000
0000
0000
0000
,  // measure 12
0001
0000
0000
0000
,  // measure 13
0100
0000
0000
0000
,  // measure 14
0010
0000
0010
0000
,  // measure 15
0010
0000
0000
0000
,  // measure 16
1000
0000
0000
0000
,  // measure 17
0100
0000
0000
0000
,  // measure 18
0010
0000
0000
0000
,  // measure 19
0000
0000
0000
0000
,  // measure 20
0001
0001
0000
0000
,  // measure 21
0000
0000
0000
0000
,  // measure 22
1000
0000
1000
0000
,  // measure 23
1000
0000
0000
0000
,  // measure 24
0010
0010
0000
0000
,  // measure 25
0000
0000
0000
0000
,  // measure 26
0100
0000
0000
0000
,  // measure 27
0100
0000
0000
0000
,  // measure 28
0001
0001
0000
0000
,  // measure 29
0000
0000
0000
0000
,  // measure 30
1000
0000
0000
0000
,  // measure 31
1000
0000
0000
0000
,  // measure 32
0100
0100
0000
0000
,  // measure 33
0000
0000
0000
0000
,  // measure 34
0010
0000
0010
0000
,  // measure 35
0010
0000
0000
0000
,  // measure 36
1001
0000
0000
0000
,  // measure 37
1000
0000
0000
0000
,  // measure 38
0010
0000
0000
0000
,  // measure 39
0100
0100
0100
0000
,  // measure 40
0100
0100
0000
0000
,  // measure 41
0000
0000
0000
0000
,  // measure 42
0001
0000
0001
0000
,  // measure 43
0001
0000
0000
0000
,  // measure 44
1001
0000
0000
0000
,  // measure 45
1000
0000
0000
0000
,  // measure 46
1000
0000
0000
0000
,  // measure 47
0010
0010
0010
0000
,  // measure 48
0010
0010
0000
0000
,  // measure 49
0000
0000
0000
0000
,  // measure 50
1000
0000
0000
0000
,  // measure 51
1000
0000
0000
0000
,  // measure 52
0100
0000
0000
0000
,  // measure 53
0100
0000
0000
0000
,  // measure 54
0010
0000
0010
0000
,  // measure 55
0010
0000
0000
0000
,  // measure 56
0001
0000
0000
0000
,  // measure 57
0001
0000
0000
0000
,  // measure 58
1000
0000
0000
0000
,  // measure 59
1000
0000
0000
0000
,  // measure 60
0010
0000
0010
0000
,  // measure 61
0010
0000
0010
0000
,  // measure 62
0010
0000
0000
0000
,  // measure 63
1000
0000
0000
0000
,  // measure 64
0001
0000
0000
0000
,  // measure 65
0100
0000
0000
0000
,  // measure 66
0100
0000
0000
0000
,  // measure 67
0000
0000
0000
0010
,  // measure 68
0010
0000
0000
1000
,  // measure 69
1000
0000
0000
0001
,  // measure 70
0001
0000
0000
0000
,  // measure 71
0100
0000
0000
0000
,  // measure 72
0001
0000
0000
0000
,  // measure 73
1000
0000
0000
0000
,  // measure 74
0010
0000
0000
0000
,  // measure 75
1000
0000
0000
0100
,  // measure 76
0100
0000
0000
0010
,  // measure 77
0010
0000
0000
0001
,  // measure 78
0001
0000
0000
0000
,  // measure 79
0100
0000
0000
0000
,  // measure 80
0010
0000
0000
0000
,  // measure 81
1000
0000
0000
0000
,  // measure 82
0100
0000
0100
0000
,  // measure 83
0100
0000
0000
0000
,  // measure 84
1001
0000
0000
0000
;
