#TITLE:Moves Like Jagger;
#SUBTITLE:;
#ARTIST:Maroon 5 feat. Christina Aguilera;
#TITLETRANSLIT:;
#SUBTITLETRANSLIT:;
#ARTISTTRANSLIT:;
#GENRE:Jagger.. had moves?;
#CREDIT:;
#BANNER:Moves Like Jagger.png;
#BACKGROUND:Moves Like Jagger-bg.png;
#LYRICSPATH:;
#CDTITLE:cdtitle.png;
#MUSIC:Moves Like Jagger.ogg;
#OFFSET:-0.000000;
#SAMPLESTART:106.893341;
#SAMPLELENGTH:17.959999;
#SELECTABLE:YES;
#BPMS:0.000000=128.000000
,159.000000=124.999992
,160.000000=64.000000
,176.000000=128.000000
,275.000000=125.500000
,276.000000=128.000000
;
#STOPS:
;
#BGCHANGES:8.000=Moves Like Jagger.avi=1.000=0=0=1=====,
99999=-nosongbg-=1.000=0=0=0 // don't automatically add -songbackground-
;
#KEYSOUNDS:;
#ATTACKS:;

//---------------dance-single - ----------------
#NOTES:
     dance-single:
     :
     Hard:
     8:
     0.533110,0.748925,0.241217,0.184460,0.191555,466.000000,34.000000,26.000000,0.000000,0.000000,0.000000,0.533110,0.748925,0.241217,0.184460,0.191555,466.000000,34.000000,26.000000,0.000000,0.000000,0.000000:
0000
0000
0000
0000
,
0000
0000
0000
0000
,
0000
0000
0000
0000
,
0000
0000
0000
0000
,
1000
1000
0100
0100
,
0010
0001
1000
0000
,
0001
0001
0100
0100
,
0010
1000
0001
0000
,
2100
0000
3000
0000
0100
1000
0100
0000
,
1001
0000
1010
0000
1000
0100
0010
0000
,
0012
0000
0003
0000
0010
0001
0010
0000
,
1001
0000
0101
0000
0001
0010
0100
1000
,
0020
0000
0130
0000
0001
0100
0001
0100
,
0020
0000
1030
0000
0100
1000
0100
1000
,
0001
0001
0010
0100
1000
1000
0100
0010
,
0002
0000
1003
0020
0000
0000
0030
0000
,
1000
0000
0001
0100
0000
0100
0010
1000
,
0001
0000
0010
0000
0001
1000
0100
0010
,
0001
0000
1000
0010
0000
0010
0100
0001
,
1000
0000
0100
0000
1000
0001
0010
0100
,
2000
0000
3010
0000
0010
1000
0010
1000
,
0002
0000
0013
0000
0010
0001
0010
0001
,
0200
0000
0310
0000
1000
0010
0100
0000
,
0001
1000
0100
0010
0001
1000
0010
0000
,
1001
0000
1000
0100
0000
0000
0010
0000
0010
0000
0001
0000
1000
0000
0010
0000
,
0010
0100
0001
1000
0100
0010
0001
0000
,
1001
0000
0001
0010
0000
0000
0100
0000
0100
0000
1000
0000
0001
0000
0100
0000
,
0100
0010
1000
0001
0010
0100
1000
0000
,
0101
0000
0000
0000
1000
0100
1000
0100
1000
0000
0010
0000
1000
0000
0000
0000
,
0101
0000
0000
0000
1000
0100
1000
0100
1000
0000
0010
0000
0100
0000
0000
0000
,
0001
0001
0100
0010
1000
1000
0010
0100
,
0002
0000
1003
0200
0000
0000
0300
0000
,
1100
0000
0000
0100
0000
0000
0010
0000
0001
1000
0001
0000
0100
0000
0010
0000
,
1000
1000
0010
0100
0001
0001
1000
0000
,
0101
0000
0000
0100
0000
0000
0010
0000
1000
0100
1000
0000
0010
0000
0100
0000
,
0001
0001
0010
0100
1000
1000
0010
0000
,
1010
0000
0000
0000
0001
0010
0001
0010
0001
0000
0100
0000
0001
0000
0000
0000
,
1010
0000
0000
0000
0001
0010
0001
0010
0001
0000
0100
0000
0010
0000
0000
0000
,
1000
1000
0010
0100
0001
0001
0100
0010
,
2000
0000
3001
0100
0010
1000
0001
0000
,
2200
0000
3300
0000
0100
0010
0001
0000
0202
0000
0303
0000
0100
0010
1000
0000
,
2002
0000
3003
0000
0010
1000
0010
0000
2000
0000
3200
0000
0310
0001
1000
0000
,
0101
0000
0100
0000
0010
1000
0010
0000
1100
0000
0100
0000
0010
0001
0010
0000
,
0001
0000
0000
0000
1000
0000
0000
0000
0010
0000
0100
0000
0010
0000
0100
0000
0001
0000
0000
0000
1000
0000
0100
0000
1000
0001
1000
0000
0010
0000
1000
0000
,
0001
0000
0000
0001
0000
0000
0100
0000
0010
1000
0010
0000
0100
0000
0000
0000
,
0001
0000
0000
0001
0000
1000
0100
0000
0010
0000
0001
0000
1000
0000
0000
0000
,
0010
0000
0000
0100
0000
0000
0010
0000
1000
0000
1000
0000
0001
0000
0000
0000
,
1100
0001
0101
0000
0010
1000
0001
0000
,
1000
0000
0100
0000
1000
0000
0001
1000
0001
0000
1000
0000
0010
0000
1000
0000
,
0001
0000
0010
0000
0001
0000
1000
0001
1000
0000
0001
0000
0100
0000
0001
0000
,
1000
0000
0100
0000
0010
0000
0001
1000
0001
0000
0010
0000
0100
0000
1000
0000
,
0001
0101
0100
0110
0010
1010
1000
2002
,
0000
0000
0000
3003
,
1100
0000
0100
0010
0000
0010
0001
0000
1000
0100
1000
0000
0001
0000
0100
0000
,
0010
1000
0001
0100
0100
0010
1000
0001
,
0011
0000
0010
0100
0000
0100
1000
0000
0001
0010
0001
0000
1000
0000
0010
0000
,
0100
0001
1000
0010
0010
0100
0001
1000
,
1002
0000
0000
0000
0103
0010
0100
0010
0100
0000
0010
0000
1000
0000
0001
0000
,
2001
0000
0000
0000
3100
0010
0100
0010
0100
0000
0010
0000
0001
0000
1000
0000
,
0001
0010
1000
0001
0100
1000
0001
0100
,
1000
0001
0010
1000
0100
0010
0001
0000
,
1100
0000
0100
1000
0100
0000
1000
0000
0001
1000
0001
0000
1000
0000
0010
0000
,
0100
0100
0010
1000
0100
0010
0001
0000
,
0011
0000
0010
0001
0010
0000
0001
0000
1000
0001
1000
0000
0001
0000
0100
0000
,
0010
0010
0100
0001
0010
0100
1000
0001
,
0201
0000
0000
0000
0310
1000
0010
1000
0010
0000
1000
0000
0100
0000
0000
0000
,
1200
0000
0000
0000
0310
0001
0010
0001
0010
0000
0001
0000
0100
0000
0000
0000
,
0001
0010
1000
0001
0100
1000
0001
0100
,
1000
0001
0010
1000
0100
0010
0001
0000
,
1000
0000
0000
0000
0000
0000
0010
0000
0000
0100
0000
0000
0010
0000
0000
0000
,
1000
0000
1000
0100
0000
0000
1001
0000
0000
0000
0000
0000
0000
0000
0000
0000
;

//---------------dance-double - ----------------
#NOTES:
     dance-double:
     :
     Challenge:
     8:
     0.557434,0.798854,0.205744,0.333447,0.244764,474.000000,29.000000,47.000000,0.000000,0.000000,0.000000,0.557434,0.798854,0.205744,0.333447,0.244764,474.000000,29.000000,47.000000,0.000000,0.000000,0.000000:
// measure 0
00000000
00000000
00000000
00000000
,  // measure 1
00000000
00000000
00000000
00000000
,  // measure 2
00000000
00000000
00000000
00000000
,  // measure 3
00000000
00000000
00000000
00000000
,  // measure 4
00001000
00000001
00000100
00000100
,  // measure 5
00000010
00001000
00000200
00000300
,  // measure 6
00010000
00001000
00100000
00100000
,  // measure 7
00010000
00000000
01000000
00000000
00100000
10000000
00100000
00000000
,  // measure 8
02020000
03030000
10000000
00010000
,  // measure 9
00100000
00010000
00100000
00000000
00010000
00000000
10000000
00000000
,  // measure 10
22000000
33000000
00010000
10000000
,  // measure 11
00100000
01000000
00100000
00000000
01000000
00010000
01000000
00010000
,  // measure 12
00200000
00000000
00300000
00000000
00010000
00100000
00010000
00100000
,  // measure 13
00002000
00000000
00003000
00000000
00001000
00010000
00001000
00010000
,  // measure 14
00000100
00000100
00000010
00000001
00000001
00000100
00000100
00000010
,  // measure 15
00002000
00000000
00003001
00000020
00000000
00000000
00000030
00000000
,  // measure 16
00001001
00000000
00001000
00000100
00000000
00000100
00000010
00000100
,  // measure 17
00000020
00000000
00000031
00000000
00001000
00000001
00001000
00000000
,  // measure 18
00001001
00000000
00000001
00000100
00000000
00000100
00000010
00000100
,  // measure 19
00000020
00000000
00001030
00000000
00000100
00001000
00000100
00000000
,  // measure 20
00020100
00000000
00031000
00000000
00010000
00001000
00010000
00000000
,  // measure 21
00201000
00000000
00310000
00000000
00100000
00010000
00100000
00000000
,  // measure 22
00010000
00010000
01000000
00000000
00100000
00100000
10000000
00000000
,  // measure 23
01000000
10000000
00100000
01000000
00010000
10000000
01000000
00000000
,  // measure 24
10010000
00000000
10000000
01000000
00000000
00000000
00100000
00000000
00010000
10000000
00010000
00000000
01000000
00000000
00100000
00000000
,  // measure 25
10000000
10000000
00100000
01000000
00010000
00010000
00100000
00000000
,  // measure 26
00110000
00000000
00100000
00001000
00000000
00000000
00100000
00000000
00001000
00010000
00001000
00000000
00010000
00000000
00000100
00000000
,  // measure 27
00001000
00001000
00000010
00000100
00000001
00001000
00000100
00000010
,  // measure 28
00000002
00000000
00000000
00000000
00001003
00000100
00001000
00000100
00001000
00000000
00000010
00000000
00000010
00000000
00000000
00000000
,  // measure 29
00001002
00000000
00000000
00000000
00001003
00000100
00001000
00000100
00001000
00000000
00000010
00000000
00000010
00000000
00000100
00000000
,  // measure 30
00000001
00000010
00001000
00010000
00100000
10000000
01000000
00010000
,  // measure 31
00002000
00000000
00013000
01000000
10000000
00020000
00000000
00030000
,  // measure 32
11000000
00000000
00000000
00010000
00000000
00000000
10000000
00000000
00100000
01000000
00100000
00000000
10000000
00000000
01000000
00000000
,  // measure 33
00100000
00100000
00010000
01000000
00010000
00100000
00001000
00000000
,  // measure 34
00101000
00000000
00000000
00010000
00000000
00000000
00000100
00000000
00010000
00001000
00010000
00000000
00000100
00000000
00001000
00000000
,  // measure 35
00000010
00000010
00000100
00000002
00000000
00001003
00000100
00010000
,  // measure 36
00010200
00000000
00000000
00000000
00001300
00000100
00001000
00000100
00001000
00000000
00000100
00000000
00010000
00000000
00000000
00000000
,  // measure 37
00010200
00000000
00000000
00000000
00001300
00000100
00001000
00000100
00001000
00000000
00000100
00000000
00010000
00000000
00001000
00000000
,  // measure 38
00010000
01000000
10000000
00100000
01000000
00100000
10000000
01000000
,  // measure 39
00200000
00000000
00310000
00100000
00001000
00010000
00000100
00000000
,  // measure 40
00020200
00000000
00030300
00000000
00001000
00010000
00001000
00000000
00202000
00000000
00303000
00000000
00001000
00010000
00001000
00000000
,  // measure 41
00020000
00000000
00030200
00000000
00001300
00000010
00002000
00000000
00003002
00000000
00000023
00000000
00000130
00001000
00000002
00000000
,  // measure 42
00000203
00000000
00000000
00000000
00000310
00001000
00000010
00001000
00000002
00000000
00000000
00000000
00000013
00000001
00000010
00000001
,  // measure 43
00002000
00000000
00003200
00000000
00020300
00000000
00032000
00000000
00203000
00000000
00310000
01000000
00100000
10000000
00100000
00000000
,  // measure 44
01010000
00000000
00000000
01000000
00000000
00000000
00100000
00000000
10000000
00000000
01000000
00000000
00100000
00000000
00000000
00000000
,  // measure 45
00010000
00000000
00000000
00010000
00000000
00100000
00001000
00000000
00100000
00000000
00001000
00000000
00020000
00000000
00000000
00000000
,  // measure 46
00030100
00000000
00000000
00001000
00000000
00000000
00000010
00000000
00000100
00000001
00000100
00000000
00000010
00000000
00000000
00000000
,  // measure 47
00001010
00001000
00001001
00000001
00000010
00000001
00001000
00000000
,  // measure 48
00000100
00000000
00000000
00000100
00000000
00000000
00001000
00000001
00001000
00000000
00000010
00000000
00000100
00000000
00000001
00000000
,  // measure 49
00001000
00000000
00000000
00001000
00000000
00000000
00000100
00000010
00000100
00000000
00001000
00000000
00000100
00000000
00010000
00000000
,  // measure 50
00001000
00000000
00000000
00001000
00000000
00000000
00100000
00010000
00100000
00000000
00001000
00000000
01000000
00000000
00100000
00000000
,  // measure 51
10000000
11000000
00010000
01010000
10000000
10100000
00010000
20020000
,  // measure 52
00000000
00000000
00000000
30030000
,  // measure 53
01010000
00000000
01000000
00100000
00000000
00100000
10000000
00000000
01000000
00000000
00100000
00000000
00010000
00000000
10000000
00010000
,  // measure 54
10000000
00100000
10000000
01000000
00100000
00010000
01000000
01000000
,  // measure 55
00010000
00000000
00010000
10000000
00000000
10000000
01000000
00000000
00100000
00000000
00010000
00000000
01000000
00000000
00010000
00000000
,  // measure 56
00100000
00001000
00100000
00000000
00001000
00000000
00010000
00000000
00000100
00000000
00000100
00000000
00001000
00000000
00000010
00000000
,  // measure 57
00000200
00000000
00000000
00000000
00000301
00001000
00000001
00001000
00000001
00000000
00001000
00000000
00001000
00000000
00000001
00000000
,  // measure 58
00000200
00000000
00000000
00000000
00000301
00001000
00000001
00001000
00000001
00000000
00001000
00000000
00001000
00000000
00000001
00000000
,  // measure 59
00000100
00000000
00000010
00001000
00000010
00000000
00001000
00000100
00001000
00000000
00000100
00010000
00000100
00000000
00010000
00001000
,  // measure 60
00020000
00000000
00031000
00100000
00010000
01000000
00100000
10000000
,  // measure 61
10100000
00000000
10000000
00010000
00000000
00010000
00100000
00000000
00010000
00100000
00010000
00000000
00100000
00000000
00010000
00000000
,  // measure 62
01000000
01000000
00010000
00100000
00001000
00010000
00000100
00001000
,  // measure 63
00001010
00000000
00001000
00000001
00000000
00000001
00000010
00000000
00000001
00000010
00000001
00000000
00000010
00000000
00000001
00000000
,  // measure 64
00000100
00000000
00000100
00000010
00000000
00000010
00001000
00000000
00000100
00000000
00010000
00000000
00001000
00000000
00010000
00000000
,  // measure 65
00010200
00000000
00000000
00000000
00010300
00001000
00010000
00001000
00010000
00000000
00001000
00000000
00001000
00000000
00010000
00000000
,  // measure 66
00010200
00000000
00000000
00000000
00010300
00001000
00010000
00001000
00010000
00000000
00001000
00000000
00001000
00000000
00010000
00000000
,  // measure 67
00001000
00000000
00100000
00010000
00100000
00000000
00010000
01000000
00010000
00000000
10000000
01000000
10000000
00000000
00010000
00100000
,  // measure 68
00020000
00000000
10030000
00100000
01000000
00010000
10000000
00000000
,  // measure 69
01010000
00000000
00000000
00000000
00000000
00000000
00001000
00000000
00000000
00010000
00000000
00000000
00000100
00000000
00000000
00000000
,  // measure 70
00000010
00000000
00000000
00000010
00000000
00000000
00001001
00000000
00000000
00000000
00000000
00000000
00000000
00000000
00000000
00000000
;

//---------------dance-single - ----------------
#NOTES:
     dance-single:
     :
     Medium:
     5:
     0.331420,0.424391,0.148987,0.227028,0.000000,274.000000,21.000000,32.000000,0.000000,0.000000,0.000000,0.331420,0.424391,0.148987,0.227028,0.000000,274.000000,21.000000,32.000000,0.000000,0.000000,0.000000:
0000
0000
0000
0000
,
0000
0000
0000
0000
,
0000
0000
0000
0000
,
0000
0000
0000
0000
,
1000
1000
0001
0001
,
0100
0010
1000
0000
,
0001
0001
1000
1000
,
0010
0100
0001
0000
,
2200
3300
0001
0000
,
0100
0100
0010
1000
,
0202
0303
1000
0000
,
0010
0010
0100
0001
,
2000
0000
3000
0000
0100
0010
0001
0000
,
2000
0000
3000
0000
0010
0100
0001
0000
,
2000
3000
0002
0003
,
0100
0010
0100
0000
,
0001
0100
0010
0010
,
1000
0100
1000
0000
0002
0000
0003
0000
,
1000
0000
0010
0000
0100
0001
0100
0000
,
0010
0010
2000
3000
,
0002
0000
0003
0000
0010
0100
1000
0000
,
0002
0000
0003
0000
0100
0010
1000
0000
,
0002
0003
0010
0001
,
1000
0100
1000
0000
0001
0000
0100
0000
,
1001
0000
0000
0000
0001
0100
0001
0000
,
1000
0000
0001
0000
0100
0010
0100
0000
,
1001
0000
0000
0000
1000
0100
1000
0000
,
0001
0000
0100
0010
0100
0000
0000
0000
,
1010
0000
0001
0100
0000
0000
0000
0000
,
1010
0000
0001
0100
0000
0000
0000
0000
,
0001
0100
0001
0100
0010
1000
0010
1000
,
0002
0000
0000
0003
,
1001
1000
0010
0010
,
1000
0000
0001
0000
0010
0100
0010
0000
,
0001
1000
0100
0100
,
1000
0000
0001
0000
0100
0010
0100
0000
,
0101
0000
0010
1000
0000
0000
0000
0000
,
0101
0000
0010
1000
0000
0000
0000
0000
,
0010
1000
0010
1000
0001
0100
0001
0100
,
0010
1000
0002
0003
,
2000
3100
0002
0013
,
2000
0000
3010
0010
0100
0001
1000
0000
,
0002
0100
0103
0000
2000
0100
3100
0000
,
0002
0010
0013
0000
0001
1000
0010
0000
,
1010
0000
0001
0000
0100
0001
0100
0000
,
0001
0000
0000
0000
1000
0100
0010
0000
,
0011
0000
1000
0000
0100
1000
0100
0000
,
0020
0000
0230
0000
0310
0001
1000
0000
,
0002
0000
0003
0000
0100
0001
0100
0000
,
0020
0000
0030
0000
1000
0100
1000
0000
,
0002
0000
0003
0000
0010
0100
0010
0000
,
0001
1000
1100
0110
,
2002
0000
0000
3003
,
1010
0001
0100
0010
,
1000
0000
1000
0000
0001
0010
0001
0000
,
1000
0000
0000
0000
0100
0010
0100
0000
,
1000
0000
0001
0000
0100
0001
0100
0000
,
1010
0000
0001
0010
0000
0000
0000
0000
,
1010
0000
0001
0010
0000
0000
0000
0000
,
0001
0010
0001
0010
0100
1000
0100
1000
,
0020
0230
0301
0000
,
0101
0100
0010
1000
,
0001
1000
0001
0000
0010
0000
0001
0000
,
1000
0000
1000
0000
0100
0000
0010
0001
,
0010
0000
0001
0000
1000
0100
1000
0000
,
0101
0000
1000
0100
0000
0000
0000
0000
,
0101
0000
1000
0100
0000
0000
0000
0000
,
1000
0100
1000
0100
0010
0001
0010
0001
,
2000
0000
3010
0100
0010
0100
0000
0000
,
0002
0000
0103
0100
,
0010
0000
0000
1001
0000
0000
0000
0000
;

//---------------dance-single - ----------------
#NOTES:
     dance-single:
     :
     Easy:
     3:
     0.206757,0.297974,0.049662,0.141892,0.000000,177.000000,7.000000,20.000000,0.000000,0.000000,0.000000,0.206757,0.297974,0.049662,0.141892,0.000000,177.000000,7.000000,20.000000,0.000000,0.000000,0.000000:
0000
0000
0000
0000
,
0000
0000
0000
0000
,
0000
0000
0000
0000
,
0000
0000
0000
0000
,
0010
0000
1000
0000
,
0001
0000
0001
0000
,
0100
0000
0001
0000
,
1000
0000
1000
0100
,
0020
0030
0000
0000
,
0001
0001
1000
1000
,
0020
0030
0000
0000
,
1000
1000
0001
0001
,
0200
0300
0001
1000
,
0200
0300
1000
0001
,
0020
0030
0002
0003
,
2000
3000
0020
0030
,
2002
3003
0000
0010
,
1000
0100
0100
0000
,
2002
3003
0000
0100
,
0001
0010
0010
0000
,
0001
0100
0010
0000
,
1000
0100
0010
0000
,
0001
1000
0001
0000
,
1000
0100
0010
0000
,
1001
0000
0010
0010
,
1000
0100
0010
0000
,
0001
0000
1000
1000
,
0001
0100
0010
0000
,
1000
1000
0100
0000
,
1000
1000
0100
0000
,
1000
0100
0010
0001
,
2000
0000
3000
0000
,
1001
0000
0001
1000
,
0010
0010
0100
0000
,
0010
0000
1000
1000
,
0001
0001
0100
0000
,
0001
0010
0010
0000
,
0001
0010
0010
0000
,
0001
0010
0100
1000
,
0002
0000
0000
0003
,
2000
0000
3000
0000
,
0002
0000
0003
0000
,
0100
0100
0010
0000
,
0010
0010
1000
0001
,
1001
0000
0000
0000
,
1000
0000
0100
0100
,
0010
0000
0001
0000
,
1000
1000
0001
0000
,
0100
0000
0100
0100
,
0010
0000
0010
0010
,
1000
0000
0001
0000
,
0010
0000
0100
0100
,
0100
0000
0000
0000
,
1001
0000
1000
0001
,
0100
0100
0001
0000
,
1000
0000
0100
1000
,
0010
0010
0100
0000
,
0001
1000
1000
0000
,
0001
1000
1000
0000
,
0001
0010
0100
1000
,
0002
0003
2000
3000
,
1001
0000
0001
1000
,
0010
0010
1000
0000
,
0001
0000
0010
0001
,
0100
0100
0010
0000
,
1000
0001
0001
0000
,
1000
0001
0001
0000
,
1000
0100
0010
0001
,
2000
3000
0002
0003
,
0100
0000
0000
0000
,
0010
0000
0000
0000
;

//---------------dance-single - ----------------
#NOTES:
     dance-single:
     :
     Beginner:
     1:
     0.104392,0.146858,0.035473,0.000000,0.000000,98.000000,5.000000,0.000000,0.000000,0.000000,0.000000,0.104392,0.146858,0.035473,0.000000,0.000000,98.000000,5.000000,0.000000,0.000000,0.000000,0.000000:
0000
0000
0000
0000
,
0000
0000
0000
0000
,
0000
0000
0000
0000
,
0000
0000
0000
0000
,
1000
0000
0000
0000
,
0001
0000
0000
0000
,
1000
0000
0000
0000
,
0001
0000
0100
0000
,
0100
0000
0000
0000
,
0010
0010
0000
0000
,
1000
0000
0000
0000
,
0100
0100
0000
0000
,
0010
0000
0010
0000
,
0001
0000
0001
0000
,
1000
0000
0000
0000
,
0001
0000
0000
0000
,
0100
0000
0000
0000
,
0010
0010
0000
0000
,
1000
0000
0000
0000
,
0100
0100
0000
0000
,
0010
0000
0010
0000
,
0001
0000
0001
0000
,
1000
0000
0000
0000
,
0010
0000
0000
0000
,
1001
0000
0000
0000
,
1000
0000
0100
0000
,
0100
0000
0000
0000
,
1000
0000
0000
0000
,
0001
0001
0000
0000
,
0001
0001
0000
0000
,
0100
0000
0100
0000
,
0100
0000
0000
0000
,
1001
0000
0000
0000
,
1000
0000
0010
0000
,
0010
0000
0000
0000
,
0100
0000
0000
0000
,
0010
0010
0000
0000
,
0010
0010
0000
0000
,
0010
0000
1000
0000
,
1000
0000
0000
0000
,
0001
0000
0000
0000
,
1000
0000
0000
0000
,
0010
0000
0010
0000
,
0100
0000
0100
0000
,
1001
0000
0000
0000
,
0010
0000
0010
0000
,
1000
0000
0000
0000
,
0100
0100
0000
0000
,
1000
0000
0000
0001
,
0001
0000
0000
0100
,
0100
0000
0000
0000
,
0010
0000
0010
0000
,
0010
0000
0000
0000
,
1001
0000
0000
0000
,
0001
0000
1000
0000
,
1000
0000
0000
0000
,
0010
0000
0000
0000
,
0100
0100
0000
0000
,
0100
0100
0000
0000
,
0001
0000
0001
0000
,
1000
0000
0000
0000
,
1001
0000
0000
0000
,
1000
0000
0010
0000
,
0010
0000
0000
0000
,
0100
0000
0000
0000
,
0010
0010
0000
0000
,
0010
0010
0000
0000
,
1000
0000
1000
0000
,
0001
0000
0000
0000
,
0100
0000
0000
0000
;
