#TITLE:ME!;
#SUBTITLE:;
#ARTIST:Taylor Swift & Brendon Urie;
#TITLETRANSLIT:;
#SUBTITLETRANSLIT:;
#ARTISTTRANSLIT:;
#GENRE:;
#CREDIT:;
#BANNER:Me.png;
#BACKGROUND:Me-bg.png;
#LYRICSPATH:;
#CDTITLE:;
#MUSIC:Me.ogg;
#OFFSET:1.104000;
#SAMPLESTART:81.276833;
#SAMPLELENGTH:14.694003;
#LASTBEATHINT:0.141379;
#SELECTABLE:YES;
#BPMS:0.000000=91.000000
;
#STOPS:
;
#BGCHANGES:1.250=Me.avi=1.000=0=0=1=====,
99999=-nosongbg-=1.000=0=0=0 // don't automatically add -songbackground-
;
#KEYSOUNDS:;
#ATTACKS:;

//---------------dance-single - ----------------
#NOTES:
     dance-single:
     :
     Hard:
     8:
     0.560128,0.552422,0.379442,0.081840,0.517082,527.000000,476.000000,51.000000,11.000000,0.000000,0.000000,0.560128,0.552422,0.379442,0.081840,0.517082,527.000000,476.000000,51.000000,11.000000,0.000000,0.000000:
0000
0000
0000
0000
,
0000
0000
0000
0000
0000
0000
0000
0000
1100
0000
1000
0000
0010
1000
0010
0000
,
1000
0000
0100
0000
0010
0100
0010
0000
0002
0000
0000
0000
0103
0001
0100
0000
,
0010
0000
0100
0000
0010
0100
0010
0000
2000
0000
0000
0000
3001
1000
0001
0000
,
0100
0000
0001
1000
0001
0000
1000
0000
0020
0000
0000
1030
0100
0010
0001
1000
,
0010
0000
1010
0000
0001
0000
0011
0000
0200
0000
0000
0000
0310
0100
0010
0100
,
0010
0000
0100
0000
0001
0010
0001
0000
0200
0000
0000
0000
0301
0010
0001
0010
,
0001
0000
0100
0000
0010
1000
0010
0000
2000
0000
0000
0000
3001
0100
0001
0100
,
0001
0000
1000
0000
0001
0100
0001
0000
2000
0000
0000
3001
0010
0100
1000
0001
,
0100
0000
0101
0000
1000
0000
1100
0000
0001
1000
0001
0000
0100
0000
0001
1000
,
0000
1000
0000
0001
0100
0010
0000
0000
1000
0001
1000
0000
0001
0000
1000
0001
,
0000
1000
0000
1000
0100
0010
0000
0000
0001
0010
0100
0000
1000
0000
0001
0100
,
0000
0100
0000
0010
1000
0001
0000
0000
2002
0000
0000
0000
0000
0000
0000
0000
,
0000
0000
3003
0000
0010
0000
0100
0000
1001
0000
1000
0000
0001
0000
1000
0100
,
0010
0001
1000
0000
0001
0000
0000
0000
0100
0000
0100
0000
0010
0000
0100
0000
,
0001
0010
0100
0000
1000
0000
0000
0000
0001
0010
0001
0100
0001
0010
0001
0000
,
0100
0000
0010
0000
0101
0000
0000
0000
1000
0100
1000
0010
1000
0100
1000
0000
,
0010
0000
0100
0000
1010
0000
0001
0000
1001
0000
0001
0000
1000
0000
0001
0010
,
0100
1000
0001
0000
1000
0000
0000
0000
0010
0000
0010
0000
0100
0000
0010
0000
,
1000
0100
0010
0000
0001
0000
0000
0000
1000
0100
1000
0010
1000
0100
1000
0000
,
0010
0000
0100
0000
1010
0000
0000
0000
0001
0010
0001
0100
0001
0010
0001
0000
,
0100
0000
0010
0000
0101
0000
1000
0100
0010
0001
0010
0001
1000
0010
1000
0010
,
0100
0001
0100
0000
0110
0000
0110
0000
1001
0000
0000
0000
1100
0000
0000
0000
,
0010
0000
1000
0000
0101
0000
0000
0000
2000
0000
0100
0000
3001
0000
1000
0001
,
0000
1000
0001
0000
1001
0000
0000
0000
0002
0000
0100
0000
1003
0000
0001
1000
,
0000
0001
1000
0000
1001
0000
0000
0000
1000
0000
0010
0000
0100
0000
0001
0010
,
0000
0010
0100
0000
1000
0000
0000
0000
0001
0100
0001
0100
0010
1000
0010
1000
,
0100
0010
0100
0000
0011
0000
0000
0000
1100
0000
0101
0000
1001
0000
0010
0100
,
0000
0100
0010
0000
1001
0000
0000
0000
1010
0000
0011
0000
0101
0000
1000
0001
,
0000
0001
0100
0000
1001
0000
0000
0000
0001
0100
0001
0000
1000
0000
0010
0100
,
0010
0000
1000
0000
0001
0000
0000
0000
1000
0100
1000
0100
0010
0001
0010
0001
,
1000
0010
1000
0000
0100
0000
0100
0000
1001
0000
0001
0000
0100
0000
0001
0010
,
0100
1000
0001
0000
1000
0000
0001
0000
0100
0000
0010
0000
0010
0000
1000
0100
,
0010
0001
1000
0000
0001
0000
0100
0000
0010
1000
0100
1000
0010
1000
0100
0000
,
0001
0100
0001
0010
0001
0100
0001
0000
1000
0100
1000
0010
1000
0100
1000
0000
,
0001
0100
0001
0010
0001
0100
0001
0000
1001
0000
0100
0000
1000
0000
0001
0010
,
0100
0010
0001
0000
1000
0000
0001
0000
0100
0000
0100
0000
0010
0000
1000
0010
,
0100
0010
1000
0000
0001
0000
1000
0000
0001
0010
0100
1000
0100
0010
0001
0000
,
1000
0000
0001
0000
0100
0000
0010
0000
1000
0100
0010
0001
0010
0100
1000
0000
,
0010
0000
0100
0000
0001
0000
1000
0000
0010
0100
0010
0100
0001
0010
0001
0010
,
0100
1000
0100
0000
0010
0000
0100
0000
1100
0000
0110
0000
0011
0000
1000
0001
,
1000
0001
0100
0000
1001
0000
0000
0000
0101
0000
0110
0000
1010
0000
1000
0001
,
1000
0001
0100
0000
1001
0000
0000
0000
1000
0100
1000
0010
1000
0001
1000
0000
,
0010
0000
0100
0000
0110
0000
0100
0000
0001
0100
0001
0010
0001
1000
0001
0000
,
0100
0000
0010
0000
0110
0000
0010
0000
1010
0000
1100
0000
0101
0000
1000
0100
,
0000
0001
0100
0000
1001
0000
0000
0000
0101
0000
1100
0000
0011
0000
0001
0010
,
0000
1000
0010
0000
1001
0000
0000
0000
0001
0100
0010
0100
1000
0100
0010
0000
,
0100
0000
0001
0000
0101
0000
0001
0000
1000
0100
0010
0100
0001
0100
0010
0000
,
0100
0000
1000
0000
1010
0000
0010
0100
0001
1000
0001
1000
0010
0100
0010
0100
,
0001
0010
0100
0000
1000
0000
0010
0000
0101
0000
0000
0000
0000
0000
0000
0000
;

//---------------dance-double - ----------------
#NOTES:
     dance-double:
     :
     Challenge:
     8:
     0.553751,0.552422,0.372002,0.111600,0.494762,521.000000,471.000000,50.000000,15.000000,0.000000,0.000000,0.553751,0.552422,0.372002,0.111600,0.494762,521.000000,471.000000,50.000000,15.000000,0.000000,0.000000:
00000000
00000000
00000000
00000000
,
00000000
00000000
00000000
00000000
00000000
00000000
00000000
00000000
11000000
00000000
01000000
00000000
00100000
01000000
00100000
00000000
,
00010000
00000000
01000000
00000000
00100000
01000000
00100000
00000000
02000000
00000000
00000000
00000000
03010000
00100000
00010000
00000000
,
01000000
00000000
00100000
10000000
00100000
00000000
01000000
00000000
00002000
00000000
00000000
00000000
00103000
00010000
00100000
00000000
,
00001000
00000000
00010000
00001000
00010000
00000000
00000100
00000000
00001000
00000000
00000000
00000001
00000010
00000100
00001000
00000001
,
00000100
00000000
00000110
00000000
00000010
00000000
00000110
00000000
00002000
00000000
00000000
00000000
00003001
00000010
00000001
00000010
,
00000001
00000000
00000100
00000000
00000010
00001000
00000010
00000000
00000200
00000000
00000000
00000000
00000301
00000010
00000001
00000010
,
00000001
00000000
00000100
00000000
00000010
00001000
00000010
00000000
00020000
00000000
00000000
00000000
00030100
00001000
00000100
00001000
,
00000100
00000000
00010000
00000000
00001000
00010000
00001000
00000000
02000000
00000000
00000000
03010000
00100000
01000000
10000000
00010000
,
10000000
00000000
11000000
00000000
00010000
00000000
01010000
00000000
10000000
00010000
10000000
00000000
01000000
00000000
00010000
00001000
,
00000000
00001000
00000000
00010000
00001000
00000100
00000000
00000000
00000001
00001000
00000001
00000000
00001000
00000000
00000001
00000100
,
00000000
00001000
00000000
00010000
00001000
00100000
00000000
00000000
00010000
00100000
00010000
00000000
10000000
00000000
00100000
10000000
,
00000000
00010000
00000000
10000000
01000000
00020000
00000000
00000000
00002000
00000000
00000000
00000000
00000000
00000000
00000000
00000000
,
00033000
00000000
00000000
00000000
00011000
00000000
00011000
00000000
00010100
00000000
00000100
00000000
00001000
00000000
00000001
00000010
,
00000100
00001000
00000001
00000000
00000100
00000000
00000000
00000000
00000010
00000000
00000010
00000000
00000100
00000000
00000010
00000000
,
00001000
00000100
00010000
00000000
00001000
00000000
00000000
00000000
00100000
00010000
00100000
00001000
00100000
00010000
00100000
00000000
,
00010000
00000000
01000000
00000000
00100000
00000000
00000000
00000000
10000000
00100000
10000000
00010000
10000000
00100000
10000000
00000000
,
01000000
00000000
00100000
00000000
00010000
00000000
01000000
00000000
10010000
00000000
00010000
00000000
10000000
00000000
00010000
00100000
,
01000000
10000000
00010000
00000000
01000000
00000000
00000000
00000000
00100000
00000000
00100000
00000000
01000000
00000000
00010000
00000000
,
00100000
00010000
01000000
00000000
00001000
00000000
00000000
00000000
00010000
00001000
00010000
00000100
00010000
00001000
00010000
00000000
,
00000100
00000000
00001000
00000000
00000010
00000000
00000000
00000000
00001000
00000001
00001000
00000010
00001000
00000001
00001000
00000000
,
00000010
00000000
00000100
00000000
00000001
00000000
00000100
00000010
00001000
00000100
00001000
00000100
00010000
00001000
00010000
00001000
,
00100000
00010000
00100000
00000000
01000000
00000000
01000000
00000000
01100000
00000000
00000000
00000000
10010000
00000000
00000000
00000000
,
00001000
00000000
00010000
00000000
00101000
00000000
00000000
00000000
00002000
00000000
00010000
00000000
00013000
00000000
00001000
00010000
,
00000000
00000000
00011000
00000000
00010100
00000000
00000000
00000000
00020000
00000000
00001000
00000000
00031000
00000000
00010000
00001000
,
00000000
00000000
00011000
00000000
00101000
00000000
00000000
00000000
00100000
00000000
00010000
00000000
01000000
00000000
00100000
10000000
,
00000000
10000000
01000000
00000000
10010000
00000000
00000000
00000000
10000000
01000000
00010000
00001000
00010000
00001000
00000100
00000001
,
00001000
00000001
00001000
00000000
00000101
00000000
00000000
00000000
00001010
00000000
00001001
00000000
00000101
00000000
00000001
00000010
,
00000000
00001000
00000010
00000000
00001001
00000000
00000000
00000000
00000101
00000000
00001100
00000000
00001001
00000000
00000001
00000100
,
00000000
00001000
00000100
00000000
00000001
00000000
00001000
00000100
00020000
00000000
00032000
00000000
00203000
00000000
00310000
01000000
,
00200000
00000000
10300000
00000000
02000000
00000000
00000000
00000000
03100000
00010000
00100000
00010000
10000000
00100000
10000000
00100000
,
01000000
00010000
01000000
00000000
00100000
00000000
00100000
00000000
10010000
00000000
00010000
00000000
10000000
00000000
01000000
00100000
,
00010000
00100000
00001000
00000000
00010000
00000000
00000100
00000000
00001000
00000000
00001000
00000000
00000010
00000000
00000100
00000010
,
00000100
00000010
00001000
00000000
00000001
00000000
00000010
00000000
00000001
00000100
00000010
00000100
00000001
00000100
00000010
00000000
,
00001000
00000100
00000010
00000100
00001000
00000100
00000010
00000000
00010000
00001000
00010000
00000010
00010000
00000100
00010000
00000000
,
00001000
00100000
00001000
00010000
00001000
00100000
00001000
00000000
00110000
00000000
00100000
00000000
00010000
00000000
10000000
01000000
,
00100000
00010000
10000000
00000000
00010000
00000000
10000000
00000000
00100000
00000000
00100000
00000000
01000000
00000000
00010000
00000000
,
01000000
00100000
01000000
00000000
00010000
00000000
10000000
00000000
00010000
00100000
01000000
10000000
01000000
00100000
00010000
00000000
,
01000000
00000000
00100000
00000000
01100000
00000000
00000000
00000000
10000000
01000000
00100000
00010000
00100000
01000000
10000000
00000000
,
00100000
00000000
01000000
00000000
01100000
00000000
00100000
10000000
01000000
00100000
01000000
00100000
00010000
00100000
00010000
00100000
,
00001000
00100000
00001000
00000000
00010000
00000000
00010000
00000000
00001100
00000000
00000110
00000000
00000101
00000000
00000001
00000000
,
00001000
00000010
00000100
00000000
00001001
00000000
00000000
00000000
00000011
00000000
00000110
00000000
00001100
00000000
00000001
00000000
,
00001000
00000010
00000100
00000000
00001001
00000000
00000000
00000000
00000001
00000100
00000010
00000100
00000001
00000100
00000010
00000000
,
00001000
00000000
00000100
00000000
00001100
00000000
00001000
00000000
00000100
00010000
00001000
00010000
00000100
00010000
00001000
00000000
,
00100000
00010000
00110000
10000000
00100000
01000000
01100000
01100000
,
00010000
10000000
00010000
00000000
11000000
00000000
00000000
00000000
00100000
00000000
00100000
00000000
00110000
00000000
10100000
00000000
,
00010000
10000000
00010000
00000000
01010000
00000000
00000000
00000000
10000000
01000000
00010000
00001000
00010000
00001000
00010000
00000000
,
00000100
00000000
00001000
00000000
00000110
00000000
00000000
00000000
00000001
00000100
00001000
00010000
00001000
00010000
00001000
00000000
,
00100000
00000000
00010000
00000000
01010000
00000000
01000000
00100000
10000000
01000000
10000000
01000000
00100000
00010000
00100000
00010000
,
00001000
00000100
00001000
00000000
00000110
00000000
00000110
00000000
00001001
00000000
00000000
00000000
00000000
00000000
00000000
00000000
;

//---------------dance-single - ----------------
#NOTES:
     dance-single:
     :
     Medium:
     6:
     0.397510,0.534008,0.148801,0.096720,0.223201,374.000000,354.000000,20.000000,13.000000,0.000000,0.000000,0.397510,0.534008,0.148801,0.096720,0.223201,374.000000,354.000000,20.000000,13.000000,0.000000,0.000000:
0000
0000
0000
0000
,
0000
0000
0000
0000
1000
1000
0100
1000
,
0010
0010
0100
0010
0110
0000
0001
0001
,
0100
0001
0010
0010
0011
0000
1000
0001
,
1000
1000
0010
0100
0110
0000
0001
1000
,
0010
0010
0100
0100
0001
0000
1000
0100
,
1000
1000
0010
0010
0110
0000
0001
1000
,
0100
0100
0010
0010
0011
0000
1000
0001
,
0100
0100
0010
0010
1010
0000
0001
1000
,
0010
0010
0100
0100
0001
0010
0001
0000
,
0100
0000
0011
0000
1000
0100
1000
0000
,
0010
0000
1100
0000
0001
1000
0001
0000
,
0100
1001
0010
0000
,
0000
0000
0100
0100
1002
0000
0103
0000
,
0001
1000
0010
0200
0000
0302
0000
0000
,
1003
0000
0001
0000
0100
0000
0000
0000
0001
0100
0001
0100
0001
0100
0001
0000
,
0000
0000
0100
0000
0100
0000
0000
0000
0010
1000
0010
1000
0010
1000
0010
0000
,
0000
1000
0100
0010
0002
0000
0103
0000
,
0001
1000
0010
0200
0000
0302
0000
0000
,
1003
0000
0001
0000
0100
0000
0000
0000
0010
1000
0010
1000
0010
1000
0010
0000
,
0000
0000
0100
0000
0100
0000
0000
0000
0001
0010
0001
0010
0001
0010
0001
0000
,
0000
0100
0100
0000
1001
0000
1100
0000
,
0001
1000
0010
0000
0200
0000
1000
0000
,
0310
0100
1001
0000
0001
0100
1000
0100
,
0010
1000
0100
0000
1000
0100
0001
0100
,
0010
0001
0100
0000
0010
0010
0010
0000
,
0100
0000
0100
0000
0100
0000
0000
0000
0001
1000
0001
1000
0001
1000
0001
1000
,
0001
1000
0001
0000
1001
0000
0000
0000
1000
0000
1000
0000
0100
0000
0100
0000
,
0010
0001
1000
0000
0001
0001
0100
0100
,
0010
0000
1000
0000
0001
0000
0000
0000
0100
0000
0010
0000
1000
0000
0000
0001
,
0000
0000
0010
0000
0010
0000
0000
0000
0001
0100
0001
0100
0001
0100
0001
0100
,
0001
0100
0001
0000
1000
0000
1000
0000
2200
0000
0300
0000
3001
0000
0000
0000
,
1000
0010
0100
0002
0000
2003
0000
0000
,
3100
0000
0100
0000
0100
0000
0000
0000
1000
0010
1000
0010
1000
0010
1000
0000
,
0001
0010
0001
0010
0001
0010
0001
0000
1000
0010
1000
0010
1000
0010
1000
0000
,
0001
0010
0001
0010
0001
0010
0001
0000
0100
0000
0000
0000
0000
0000
0000
0000
,
0110
0100
0001
2000
0000
3002
0000
0103
,
0010
0000
0010
0000
0010
0000
0000
0000
0100
0001
0100
0001
0100
0001
0100
0000
,
0000
0000
0010
0000
0010
0000
0000
0000
1000
0100
1000
0100
1000
0100
1000
0000
,
0000
0001
0001
0000
1100
0000
0101
0000
,
0010
0100
0100
0000
0010
0001
0100
0010
,
1000
0100
1001
0000
1000
0010
0100
0001
,
0010
0000
0100
0000
1001
0000
0000
0000
0010
0001
0010
0001
0010
0001
0010
0000
,
0000
0000
0001
0000
0001
0000
0000
0000
1000
0010
1000
0010
1000
0010
1000
0000
,
0000
0000
0100
0000
0100
0000
0000
0000
1000
0000
0001
0000
0100
0000
0000
0001
,
0000
0000
1000
0000
0010
0000
0000
0000
1000
0000
0001
0000
0100
0000
0000
0001
,
0000
0000
1000
0000
0100
0000
0000
0000
1000
0100
1000
0100
1000
0100
1000
0000
,
0000
0000
0100
0000
0100
0000
0000
0000
0010
0001
0010
0001
0010
0001
0010
0000
,
0000
0000
0001
0000
0001
0000
0000
0000
0100
0001
0100
0001
0100
0001
0100
0001
,
0100
0001
0100
0000
0001
0000
0001
0000
1000
0000
0000
0000
0000
0000
0000
0000
;

//---------------dance-single - ----------------
#NOTES:
     dance-single:
     :
     Easy:
     4:
     0.228515,0.313039,0.014880,0.037200,0.000000,215.000000,213.000000,2.000000,5.000000,0.000000,0.000000,0.228515,0.313039,0.014880,0.037200,0.000000,215.000000,213.000000,2.000000,5.000000,0.000000,0.000000:
// measure 0
0000
0000
0000
0000
,  // measure 1
0000
0000
1000
0001
,  // measure 2
0100
0000
0010
0010
1000
0000
0001
0000
,  // measure 3
1000
0000
0100
0100
0010
0000
0001
0000
,  // measure 4
1000
0000
0001
0001
0100
0000
0010
0000
,  // measure 5
1000
0001
1000
0001
0000
0000
0100
0000
,  // measure 6
0001
0000
1000
1000
0100
0000
0000
0000
,  // measure 7
0001
0000
0100
0100
0010
0000
0000
0000
,  // measure 8
0100
0000
0001
0001
1000
0000
0001
0010
,  // measure 9
0001
0010
0001
0000
1000
0000
1000
0000
,  // measure 10
0100
0000
0001
0001
,  // measure 11
0100
0000
1000
1000
,  // measure 12
0010
0000
1001
0000
,  // measure 13
0000
0000
0001
1000
0020
0000
0000
0000
,  // measure 14
0030
0000
0100
0100
0000
0000
0001
0000
,  // measure 15
1000
0000
0100
0000
1000
0100
1000
0100
,  // measure 16
0000
1000
1000
0000
0001
0100
0001
0100
,  // measure 17
0000
0001
0001
0000
1000
0000
0000
0000
,  // measure 18
0001
0100
0100
0000
0010
0000
0010
0000
,  // measure 19
1000
0000
0001
0000
1000
0100
1000
0100
,  // measure 20
0000
1000
1000
0000
0001
0100
0001
0100
,  // measure 21
0000
0001
0001
0000
0100
0000
0010
0000
,  // measure 22
0010
0100
0002
1003
,  // measure 23
2000
0000
3001
0000
1000
0100
1000
0000
,  // measure 24
0001
0000
0000
0000
0001
0100
0001
0000
,  // measure 25
1000
0000
0000
0000
1000
0010
1000
0000
,  // measure 26
0001
0000
0000
0000
0010
0010
0010
0010
,  // measure 27
0010
0010
0010
0000
0001
0100
0001
0000
,  // measure 28
1000
0000
0000
0000
1000
0100
1000
0000
,  // measure 29
0001
0000
0000
0000
1000
1000
0100
0000
,  // measure 30
0010
0010
0001
0000
1000
1000
1000
1000
,  // measure 31
1000
1000
1000
0000
2002
0000
0000
0000
,  // measure 32
3003
0010
0000
1000
,  // measure 33
0100
0100
0010
0000
0001
0001
0001
0001
,  // measure 34
0010
0010
0010
0010
0100
0100
0100
0100
,  // measure 35
1000
1000
1000
1000
0010
0000
0000
0000
,  // measure 36
0100
0100
0001
0000
,  // measure 37
1000
0000
0000
0000
0001
0001
0001
0001
,  // measure 38
0000
0000
0000
0000
1000
1000
1000
1000
,  // measure 39
0000
0000
0010
0010
,  // measure 40
0010
0000
0000
0000
1000
0100
1000
0000
,  // measure 41
0001
0000
0000
0000
0001
0010
0001
0000
,  // measure 42
1000
0000
0000
0000
0001
0100
0001
0100
,  // measure 43
0000
0000
0000
0000
0010
1000
0010
1000
,  // measure 44
0000
0000
0000
0000
0001
1000
0100
0000
,  // measure 45
1000
0000
0000
0000
1000
0001
0100
0000
,  // measure 46
0001
0000
0000
0000
1000
0010
1000
0010
,  // measure 47
0000
0000
0000
0000
0100
0001
0100
0001
,  // measure 48
0000
0000
1000
1000
,  // measure 49
0001
0000
0100
0001
0010
0000
0000
0000
;

//---------------dance-single - ----------------
#NOTES:
     dance-single:
     :
     Beginner:
     1:
     0.097783,0.110484,0.029760,0.000000,0.000000,92.000000,88.000000,4.000000,0.000000,0.000000,0.000000,0.097783,0.110484,0.029760,0.000000,0.000000,92.000000,88.000000,4.000000,0.000000,0.000000,0.000000:
// measure 0
0000
0000
0000
0000
,  // measure 1
0000
0000
0001
0000
,  // measure 2
0000
1000
1000
0000
,  // measure 3
0000
0010
0010
0000
,  // measure 4
0000
0100
0100
0000
,  // measure 5
0000
0000
0001
0000
,  // measure 6
0000
1000
1000
0000
,  // measure 7
0000
0010
0010
0000
,  // measure 8
0000
0100
0100
0000
,  // measure 9
0000
0000
0001
0001
,  // measure 10
0000
0000
1000
1000
,  // measure 11
0000
0000
0010
0010
,  // measure 12
0000
0000
0100
0000
,  // measure 13
0000
0000
1001
0000
,  // measure 14
0000
0010
0010
0000
,  // measure 15
0000
0000
1000
1000
,  // measure 16
0000
0000
0001
0001
,  // measure 17
0000
0000
1001
0000
,  // measure 18
0000
0100
0100
0100
,  // measure 19
0000
0000
0001
0001
,  // measure 20
0000
0000
1000
1000
,  // measure 21
0000
0000
0010
0000
,  // measure 22
0010
0000
0100
0000
,  // measure 23
0100
0000
1001
0000
,  // measure 24
0000
0000
0010
0010
,  // measure 25
0010
0000
0010
0000
,  // measure 26
0000
0000
1000
0000
,  // measure 27
1000
0000
1000
0000
,  // measure 28
0000
0000
0001
0001
,  // measure 29
0001
0000
0001
0000
,  // measure 30
0000
0000
0100
0000
,  // measure 31
0000
0000
1001
0000
,  // measure 32
0000
0010
0010
0010
,  // measure 33
0000
0000
1000
1000
,  // measure 34
0000
0000
0001
0001
,  // measure 35
0000
0000
0100
0000
,  // measure 36
0000
0001
0001
0001
,  // measure 37
0000
0000
1000
1000
,  // measure 38
0000
0000
0001
0001
,  // measure 39
0000
0000
0100
0000
,  // measure 40
0100
0000
0100
0000
,  // measure 41
0000
0010
0010
0000
,  // measure 42
0000
1000
1000
0000
,  // measure 43
0000
0000
0001
0000
,  // measure 44
0001
0000
0001
0000
,  // measure 45
0000
0100
0100
0000
,  // measure 46
0000
0000
0001
0001
,  // measure 47
0000
0000
1000
1000
,  // measure 48
0000
0000
0010
0000
,  // measure 49
0010
0000
0010
0000
;
