#TITLE:Love Me;
#SUBTITLE:;
#ARTIST:The 1975;
#TITLETRANSLIT:;
#SUBTITLETRANSLIT:;
#ARTISTTRANSLIT:;
#GENRE:FAME;
#CREDIT:;
#BANNER:Love Me.png;
#BACKGROUND:Love Me-bg.png;
#LYRICSPATH:;
#CDTITLE:;
#MUSIC:Love Me.ogg;
#OFFSET:0.000000;
#SAMPLESTART:58.454098;
#SAMPLELENGTH:15.533998;
#SELECTABLE:YES;
#BPMS:0.000000=97.000000
;
#STOPS:
;
#BGCHANGES:4.000=Love Me.avi=1.000=0=0=1=====,
99999=-nosongbg-=1.000=0=0=0 // don't automatically add -songbackground-
;
#KEYSOUNDS:;
#ATTACKS:;

//---------------dance-single - ----------------
#NOTES:
     dance-single:
     :
     Challenge:
     9:
     0.537251,0.632327,0.108275,0.267079,0.563031,469.000000,15.000000,37.000000,0.000000,0.000000,0.000000,0.537251,0.632327,0.108275,0.267079,0.563031,469.000000,15.000000,37.000000,0.000000,0.000000,0.000000:
0000
0000
0000
0000
,
0000
0000
0000
0000
,
0001
0100
0001
0100
0000
0001
0000
0000
1000
0100
1000
0100
1000
0100
0000
0000
,
1000
0001
1000
0001
0000
1000
0000
0000
0001
0100
0001
0100
0001
0100
0000
0000
,
0010
1000
0010
1000
0000
0010
0000
0000
1000
0100
1000
0100
1000
0100
0000
0000
,
0010
0001
0010
0001
0000
0010
0000
0000
0001
1000
0001
1000
0001
1000
0000
0000
,
0200
1300
0020
0130
0002
1003
0020
0000
,
0130
0000
0001
0000
1000
0000
0100
0010
0100
0000
0010
0000
0002
0000
0000
0000
,
2003
3010
0200
0301
2000
3100
0020
0031
,
1000
0000
0000
0000
0001
0100
0010
1000
0100
0010
0001
0000
2000
0000
0000
0000
,
3020
0000
0001
0100
2030
0000
3001
0000
,
1000
0100
0010
0001
0000
0000
0000
0000
1000
0100
0010
0001
0000
0000
0000
0000
,
0200
0000
1000
0010
0302
0000
1003
0000
,
0001
0010
0100
1000
0000
0000
0000
0000
0001
0010
0100
1000
0000
0000
0000
0000
,
0102
0000
1003
0100
2100
0000
3001
1000
,
0010
0000
1000
0010
0100
0000
0010
0100
0001
0000
0100
0001
1000
0000
0001
1000
,
0200
0000
0310
0001
1000
0000
1010
0000
,
1001
0000
1000
0001
0100
0000
0001
0100
0020
0000
0000
0000
1030
0000
0000
0000
,
0101
0100
0010
1000
0100
0100
0010
0001
,
1000
0100
1000
0000
0001
0100
0001
0000
1000
0010
1000
0000
0001
0010
0100
1000
,
0010
0100
0001
1000
0100
0010
0001
1000
,
1010
0000
1000
0000
0001
0000
0010
0000
0100
0000
1000
0000
0001
0100
0001
0100
,
0010
0000
0000
0000
,
0100
0000
0001
0000
0000
0000
0000
0000
1000
0000
0000
0100
0000
0000
1000
0000
0001
0000
0000
0000
0000
0000
0000
0000
0000
0000
0000
0000
0000
0000
0000
0000
,
1001
0000
0001
0000
0100
0000
0010
0000
1000
0100
1000
0100
1000
0001
0000
0000
,
1000
0000
0010
0000
0100
0000
0001
1000
0000
0001
0000
1000
0000
0010
0100
0010
,
2000
0000
3100
0000
0012
0000
0000
0000
1003
0100
1000
0100
0000
1000
0001
0000
,
1000
0000
0010
0000
0100
0000
0001
0000
1000
0010
1000
0001
0010
0000
0000
0000
,
1001
0000
1000
0000
0010
0000
0100
0000
0001
0010
0001
0010
0001
1000
0000
0000
,
0001
0000
0100
0000
0010
0000
1000
0001
0000
1000
0000
0001
0000
0100
0010
0100
,
0002
0000
0013
0000
2100
0000
0000
0000
3001
0010
0001
0010
0000
0001
1000
0000
,
0001
0000
0100
0000
0010
0000
1000
0000
0001
0100
0001
1000
0200
0000
0000
0000
,
1300
0010
0001
0010
1000
0100
0001
0100
1000
0010
0001
0010
1000
0100
0001
0100
,
1000
0010
0001
1000
0100
0001
0010
1000
0001
0100
1000
0001
0200
0000
0000
0000
,
0310
0000
1000
0010
0000
0100
0010
0000
1000
0100
1000
0000
0001
0100
0001
0000
,
1000
0000
0100
0010
0000
0010
0001
0000
0001
1000
0000
1000
0010
0100
0010
0000
,
2000
0000
0000
0000
3001
0000
0100
0000
0010
1000
0010
0000
0100
0001
0100
0010
,
0000
1000
0000
0100
0000
0010
0000
0001
0000
1000
0000
0001
0000
0100
0000
0000
,
0010
0000
0000
1000
0000
0000
0010
0000
0000
0100
0000
0000
0001
0000
0000
0100
0000
0000
0020
0000
0000
0000
0000
0000
1030
0000
0000
0000
0000
0000
0100
0000
0000
0000
0000
0000
1000
0000
0000
0000
0010
0000
0000
0000
0100
0000
0000
0000
,
0001
0000
0000
0000
0010
0000
0000
0000
0100
0000
0000
0000
2000
0000
0000
0000
0000
0000
0000
0000
0000
0000
0000
0000
3001
0000
0000
0000
0000
0000
0100
0000
0000
0000
0000
0000
0010
0000
0000
0000
0000
0000
1000
0000
0000
0100
0000
0000
,
1000
0000
0001
0100
0002
0000
0000
0000
1003
0000
0100
0000
1000
0000
0000
0000
,
0001
0000
0001
0010
0000
0010
0100
0000
0100
0000
1000
0000
0010
0100
0010
0000
,
0101
0000
0100
0000
0010
1000
0010
0000
1000
0100
1000
0100
0010
0001
0000
0000
,
1100
0000
1000
0000
0001
0000
1000
0000
0010
0100
0010
0100
0001
1000
0000
0000
,
0101
0100
0010
1000
0100
0100
0010
0001
,
1100
0000
1000
0000
0001
0000
0100
0000
0010
0000
0010
0000
1000
0100
0010
0001
,
1000
0000
1000
0000
0100
0000
1000
0100
0000
0010
0000
0001
0000
1000
0010
1000
,
0000
0001
0000
1000
0010
0000
0100
0000
0001
0000
1000
0100
0000
0010
0000
0000
,
0002
0000
0103
0010
2000
0000
3100
0010
,
0002
0000
0000
0000
1003
0000
0010
0000
0200
0000
0000
0000
0301
1000
0000
0000
,
0001
0000
0001
0000
0010
0000
0001
0010
0000
0100
0000
1000
0000
0001
0100
0001
,
0000
1000
0000
0001
0100
0000
0010
0000
1000
0000
0001
0010
0000
0100
0000
0000
,
2000
0000
3010
0100
0002
0000
0013
0100
,
1000
0000
0010
0100
0010
0100
0000
0000
0001
1000
0000
0000
1000
0010
0100
0001
,
2001
3020
0230
0301
;

//---------------dance-single - ----------------
#NOTES:
     dance-single:
     :
     Hard:
     7:
     0.368135,0.395204,0.108275,0.281515,0.064965,303.000000,15.000000,39.000000,0.000000,0.000000,0.000000,0.368135,0.395204,0.108275,0.281515,0.064965,303.000000,15.000000,39.000000,0.000000,0.000000,0.000000:
0000
0000
0000
0000
,
0000
0000
0000
0000
,
1000
0000
0100
0000
1000
0000
0000
0000
0001
0000
1000
0000
0001
0100
0000
0000
,
0010
0000
1000
0000
0010
0000
0000
0000
0100
0000
0001
0000
0100
0010
0000
0000
,
1000
0000
0100
0000
1000
0000
0000
0000
0001
0000
0010
0000
0001
1000
0000
0000
,
0010
0000
0100
0000
0010
0000
0000
0000
1000
0000
0010
0000
1000
0001
0000
0000
,
0200
0000
0320
0000
1030
0100
2000
0000
,
3000
0000
0001
0100
0002
0000
2003
0000
,
3020
0000
0230
0000
0301
1000
0002
0000
,
0003
0000
1000
0100
0010
0001
0100
0000
,
2002
0000
0000
0003
0000
0000
0010
0000
3010
0000
0000
0000
0000
0000
0000
0000
,
0001
0100
0001
0000
1000
0100
1000
0000
,
2002
0000
3000
0100
0103
0000
0000
0000
,
0001
0100
0010
1000
0100
0010
0001
0000
,
1100
0000
0010
1000
0002
0000
0103
0000
,
0010
1000
0010
1000
0001
1000
0001
0000
,
0200
0000
0310
0000
1000
0000
0001
1000
,
0002
0023
0230
1300
,
0001
0010
0001
0010
0100
1000
0100
1000
,
0020
0000
0230
0000
0301
1000
0001
0000
,
2002
0000
0000
0000
3003
0000
0010
1000
,
0100
0000
0010
0000
0001
0000
1000
0000
0010
0000
0100
0000
0001
1000
0001
0000
,
0100
0000
0000
0000
,
0000
0000
0000
0000
0000
0010
0010
0000
,
1001
0000
0100
0000
1000
0100
0010
0000
,
0001
0000
1000
0000
0010
0000
0000
0000
0100
0000
0001
0000
1000
0000
0010
0100
,
0020
0000
1030
0000
0010
1000
0001
0000
,
1000
0100
0010
0001
1000
0100
0100
0000
,
1001
0000
0010
0000
0001
0010
0100
0000
,
1000
0000
0001
0000
0100
0000
0000
0000
0010
0000
1000
0000
0001
0000
0100
0010
,
0200
0000
0301
0000
0100
0001
1000
0000
,
0001
0010
0100
1000
0001
0010
0010
0000
,
0001
0100
0001
0100
0001
0100
0001
0100
,
0010
0000
0000
0010
0000
0000
0010
0000
0000
0010
0000
0000
2000
0000
0000
0000
,
3002
0000
0103
0000
0010
1000
0100
0000
,
1000
0000
0000
0100
0000
0000
0010
0000
0000
0001
0000
0000
1000
0000
0100
0000
,
2000
0000
3001
0000
1000
0010
0100
0001
,
1000
0100
0010
0001
0100
0010
0100
0000
,
0001
0010
0100
2000
0000
0000
3001
0000
,
1000
0010
0200
0000
0301
0000
1000
0001
,
0200
0000
0302
0000
1003
0100
0010
0000
,
0001
0000
0000
1000
0000
0000
0001
0000
0200
0000
0000
0000
0310
0000
0000
0000
,
1000
0000
1000
0000
0010
0000
1000
0000
0100
0010
0100
0000
0010
0000
0000
0000
,
0001
0000
0001
0000
1000
0000
0001
0000
0010
0100
0010
0000
0100
0000
0000
0000
,
1100
0101
1010
0011
,
2002
0000
3003
0000
0010
1000
0001
0100
,
0101
0000
1100
0000
0001
1000
0001
0000
,
1000
0100
0010
0000
0001
1000
0010
0010
,
0100
0001
1000
0100
0010
0001
1000
0000
,
0020
0000
0130
0000
0100
0001
1000
0000
,
1010
0000
0011
0000
1000
0001
1000
0000
,
0001
0000
0010
0000
0100
0000
0000
0000
1000
0000
0001
0000
0100
0000
0001
1000
,
0002
0000
2003
0000
3010
0100
0001
0000
,
1000
0000
0100
0000
1000
0001
0000
0000
0100
0000
0000
0000
0010
1000
0010
1000
,
0002
0203
0320
1030
;

//---------------dance-single - ----------------
#NOTES:
     dance-single:
     :
     Medium:
     4:
     0.268110,0.335924,0.137148,0.295952,0.000000,200.000000,19.000000,41.000000,0.000000,0.000000,0.000000,0.268110,0.335924,0.137148,0.295952,0.000000,200.000000,19.000000,41.000000,0.000000,0.000000,0.000000:
0000
0000
0000
0000
,
0000
0000
0000
0000
,
2000
3100
1000
0010
,
0200
0301
1000
0100
,
0020
0031
1000
0010
,
0200
0000
0301
0000
1000
0100
1000
0000
,
0002
0023
0230
1300
,
0000
0020
2030
3001
,
0002
2003
3200
0320
,
0030
0002
2003
3010
,
2002
3003
0100
0010
,
1000
1000
0000
0000
0001
0001
0000
0000
,
2002
3003
0100
0000
,
0001
0001
0000
0000
1000
1000
0000
0000
,
0020
0230
0301
0000
,
1000
1000
0001
0001
,
0020
0030
0001
1000
,
0100
0100
0100
0000
,
1000
1000
0000
0000
0001
0001
0000
0000
,
0100
0100
0000
0000
0010
0010
0000
0000
,
1001
0100
1000
0010
,
1001
0000
0100
0000
0001
0010
0100
0000
,
1001
0000
0000
0000
,
0010
0000
0000
0000
,
1001
0100
1000
1000
,
0010
0000
0000
0000
0100
0001
0100
0001
,
1000
2200
3300
0001
,
1000
0000
0000
0000
0010
1000
0001
0000
,
1001
0010
0001
0001
,
0100
0000
0000
0000
0010
1000
0010
1000
,
0001
0022
0033
1000
,
0001
0000
0000
0000
0100
0001
1000
0000
,
0010
0010
0010
0010
,
2002
0000
0000
3003
,
1000
0100
0010
0010
,
0001
0000
0000
0000
1000
0010
0100
0001
,
1000
0001
0100
0000
,
0010
0000
0000
0000
1000
1000
0010
0100
,
0100
0001
1000
0000
,
0100
0010
0001
0000
0000
0000
1000
0100
,
1000
0001
0000
0100
,
0020
2030
3001
1001
,
1000
0100
1000
0000
0001
0000
0000
0000
,
0001
0100
0001
0000
1000
0000
0000
0000
,
1001
0010
0010
0100
,
1001
0000
0100
0000
0010
1000
0010
0000
,
2002
3003
0001
0100
,
0010
0000
1000
0000
0100
0100
0100
0100
,
0010
2002
3003
0100
,
1000
0001
1000
0000
0010
0000
0101
0000
,
2002
3003
1000
0010
,
0100
0000
0001
0000
0010
0010
0010
0010
,
0100
2002
3003
0010
,
0001
1000
0001
0000
0100
0000
1010
0000
,
0002
0203
0320
1030
;

//---------------dance-single - ----------------
#NOTES:
     dance-single:
     :
     Easy:
     3:
     0.167053,0.197602,0.064965,0.014437,0.000000,151.000000,9.000000,2.000000,0.000000,0.000000,0.000000,0.167053,0.197602,0.064965,0.014437,0.000000,151.000000,9.000000,2.000000,0.000000,0.000000,0.000000:
0000
0000
0000
0000
,
0000
0000
0000
0000
,
1000
0000
0010
0100
,
0010
0000
1000
0000
,
0001
0000
0010
0100
,
0010
0000
0001
0000
,
1000
0100
0010
0001
,
0000
0100
0100
0010
,
1000
0100
0010
0001
,
0000
0200
0300
0100
,
0100
0000
0001
0000
,
1000
0100
1000
0100
,
0010
0000
0001
0000
,
0001
0100
0001
0100
,
0010
0000
1000
0000
,
0100
0100
0010
0010
,
0001
0000
0100
0000
,
0010
0010
1000
0000
,
0001
0100
0001
0000
,
1000
1000
0001
0001
,
1001
0000
0000
1000
,
0010
0010
0100
0010
,
0110
0000
0000
0000
,
1000
0000
0000
0000
,
1001
0000
0001
0000
,
1000
0000
0010
1000
,
0001
0100
0000
0010
,
0000
1000
0000
0001
,
1001
0000
1000
0000
,
0001
0000
0100
0001
,
1000
0010
0000
0100
,
0000
0001
0000
1000
,
0010
0010
0010
0010
,
0200
0000
0000
0300
,
0110
0000
1000
0000
,
0001
1000
0010
0100
,
0001
0000
1000
0000
,
0100
0100
0010
0000
,
0001
0010
0000
0100
,
1000
0010
0000
0100
,
0001
1000
0000
0010
,
1000
0001
0100
0000
,
0001
0001
0010
0010
,
0100
0100
1000
1000
,
1001
0000
0010
0010
,
1001
0000
0100
0100
,
0110
0000
1000
0010
,
0100
0000
0001
1000
,
0001
0000
1000
0100
,
0010
0001
0100
0010
,
0110
0000
0001
1000
,
0100
0000
1000
0001
,
0100
0100
0000
0010
,
0010
0000
1000
0000
,
0001
0010
0100
1000
;

//---------------dance-single - ----------------
#NOTES:
     dance-single:
     :
     Beginner:
     2:
     0.110337,0.138321,0.057747,0.000000,0.000000,99.000000,8.000000,0.000000,0.000000,0.000000,0.000000,0.110337,0.138321,0.057747,0.000000,0.000000,99.000000,8.000000,0.000000,0.000000,0.000000,0.000000:
0000
0000
0000
0000
,
0000
0000
0000
0000
,
0001
0000
0000
0000
,
1000
0000
0000
0000
,
0010
0000
0000
0000
,
0100
0000
0000
0000
,
0001
0001
0001
0001
,
0000
1000
1000
0000
,
0010
0010
0010
0010
,
0000
0100
0100
0000
,
0001
0000
1000
0000
,
0100
0000
0100
0000
,
1000
0000
0001
0000
,
0100
0000
0100
0000
,
0010
0000
0000
0000
,
1000
1000
1000
0000
,
0100
0000
0000
0000
,
0010
0010
0010
0000
,
0001
0000
0001
0000
,
1000
0000
1000
0000
,
0010
0000
0000
0000
,
0100
0100
0100
0000
,
1001
0000
0000
0000
,
0000
0000
0000
0000
,
1001
0000
0000
0000
,
1000
0000
0100
0100
,
0100
0000
0000
0000
,
0010
0000
0000
0000
,
1001
0000
0000
0000
,
0001
0000
0100
0100
,
0100
0000
0000
0000
,
0010
0000
0000
0000
,
1000
1000
1000
1000
,
0000
0000
0000
0000
,
1001
0000
0000
0000
,
0001
0001
0001
0000
,
1000
0000
0000
0000
,
0010
0000
1000
0000
,
0100
0100
0000
0000
,
0010
0010
0000
0000
,
0001
0000
1000
0000
,
0010
0010
0010
0000
,
0100
0000
0100
0000
,
0001
0000
0001
0000
,
1001
0000
0000
0000
,
0110
0000
0000
0000
,
1001
0000
1000
0000
,
0010
0000
0100
0100
,
0100
0000
0000
0000
,
0001
0001
0000
0000
,
1001
0000
0001
0000
,
0010
0000
0100
0100
,
0100
0000
0000
0000
,
1000
1000
0000
0000
,
0001
0001
0001
0001
;

//---------------dance-double - ----------------
#NOTES:
     dance-double:
     :
     Challenge:
     9:
     0.515596,0.632327,0.122712,0.245424,0.516111,449.000000,17.000000,34.000000,0.000000,0.000000,0.000000,0.515596,0.632327,0.122712,0.245424,0.516111,449.000000,17.000000,34.000000,0.000000,0.000000,0.000000:
// measure 0
00000000
00000000
00000000
00000000
,  // measure 1
00000000
00000000
00000000
00000000
,  // measure 2
00000001
00000100
00000001
00000100
00000000
00000001
00000000
00000000
00001000
00000100
00001000
00000100
00001000
00000100
00000000
00000000
,  // measure 3
00000010
00000001
00000010
00000001
00000000
00000010
00000000
00000000
00000001
00001000
00000001
00001000
00000001
00001000
00000000
00000000
,  // measure 4
00000010
00010000
00000010
00010000
00000000
00000010
00000000
00000000
00010000
00000100
00010000
00000100
00010000
00000100
00000000
00000000
,  // measure 5
00100000
00001000
00100000
00001000
00000000
00100000
00000000
00000000
00010000
01000000
00010000
01000000
00010000
01000000
00000000
00000000
,  // measure 6
00200000
10300000
02000000
03100000
00020000
10030000
00200000
00000000
,  // measure 7
01300000
00000000
00010000
00000000
10000000
00000000
01000000
00100000
00010000
00000000
10000000
00000000
00200000
00000000
00000000
00000000
,  // measure 8
02300000
03010000
00200000
00301000
00020000
00031000
00200000
00000000
,  // measure 9
00301000
00000000
00010000
00000000
00000100
00001000
00000010
00000100
00000001
00000010
00000100
00001000
00000020
00000000
00000000
00000000
,  // measure 10
00000230
00000000
00001000
00000010
00000302
00000000
00001003
00000000
,  // measure 11
00001000
00000000
00001000
00000100
00000000
00000000
00000000
00000000
00000001
00000000
00000001
00000100
00000000
00000000
00000000
00000000
,  // measure 12
00002001
00000000
00000000
00000100
00003100
00000000
00001100
00000000
,  // measure 13
00000010
00000000
00000010
00000100
00000000
00000000
00000000
00000000
00000001
00000000
00000010
00000000
00001000
00000000
00010000
00000000
,  // measure 14
00200000
00000000
10000000
00010000
00010000
10300000
01000000
00100000
,  // measure 15
00010000
00000000
01000000
00010000
10000000
00000000
01000000
10000000
00010000
00000000
00100000
00010000
10000000
00000000
00100000
10000000
,  // measure 16
00020000
00000000
00130000
00000000
00001000
00100000
00001000
00010000
,  // measure 17
00000100
00000000
00001000
00000100
00000010
00000000
00000100
00000010
00000001
00000000
00001000
00000000
00000010
00000000
00000000
00000000
,  // measure 18
00001001
00000000
00001000
00000000
00000100
00000000
00000010
00000000
00000001
00000100
00000001
00000000
00000010
00000000
00000100
00000000
,  // measure 19
00001000
00000000
00001000
00000100
00010000
00000000
00010000
00001000
00100000
00000000
00100000
00000000
00110000
00000000
00000000
00000000
,  // measure 20
00101000
00001000
00010000
00000100
00010100
00010000
00001000
01000000
,  // measure 21
01001000
00000000
01000000
00000000
00001000
00000000
00010000
00000000
00000100
00010000
00000100
00010000
00001000
00100000
00001000
00100000
,  // measure 22
00010000
00000000
00000000
00000000
,  // measure 23
00010000
00000000
01000000
00000000
00000000
00000000
00000000
00000000
00100000
00000000
00000000
10000000
00000000
00000000
00100000
00000000
01000000
00000000
00000000
00000000
00000000
00000000
00000000
00000000
00000000
00000000
00000000
00000000
00000000
00000000
00000000
00000000
,  // measure 24
10010000
00000000
10000000
00000000
01000000
00000000
00100000
00000000
00010000
01000000
00010000
01000000
00010000
01000000
00100000
00000000
,  // measure 25
10000000
00000000
01000000
00000000
00100000
00000000
00010000
10000000
00000000
00100000
00000000
01000000
00000000
00010000
00100000
00001000
,  // measure 26
00100000
00000000
00000000
00000000
00021000
00000000
00000000
00000000
00030100
00001000
00000100
00001000
00000000
00000010
00001000
00000000
,  // measure 27
00000100
00000000
00000010
00000000
00000001
00000000
00001000
00000000
00000010
00000100
00000001
00000000
00001000
00000000
00000000
00000000
,  // measure 28
00001001
00000000
00000001
00000000
00000010
00000000
00000100
00000000
00001000
00000010
00001000
00000010
00001000
00000010
00000100
00000000
,  // measure 29
00000001
00000000
00000010
00000000
00000100
00000000
00001000
00000001
00000000
00000100
00000000
00000010
00000000
00001000
00000100
00010000
,  // measure 30
00000100
00000000
00000000
00000000
00012000
00000000
00000000
00000000
00103000
00010000
00100000
00010000
00000000
01000000
00010000
00000000
,  // measure 31
00100000
00000000
01000000
00000000
10000000
00000000
00010000
00000000
01000000
00100000
10000000
00000000
00010000
00000000
00000000
00000000
,  // measure 32
10000000
01000000
00100000
00010000
10000000
01000000
00100000
00010000
10000000
01000000
00100000
00010000
10000000
01000000
00100000
00010000
,  // measure 33
10000000
00100000
00010000
00001000
00000010
00000001
00000100
00001000
00010000
01000000
10000000
00010000
00200000
00000000
00000000
00000000
,  // measure 34
00302000
00000000
00013000
00001000
00100000
00010000
01000000
00000000
,  // measure 35
00100000
00000000
00100000
10000000
00000000
10000000
01000000
00000000
01000000
00100000
00000000
00100000
00010000
10000000
00010000
00000000
,  // measure 36
02000000
00000000
00000000
00000000
03100000
00000000
10000000
00000000
00010000
10000000
00010000
00000000
10000000
01000000
00100000
00010000
,  // measure 37
00000000
00100000
00000000
00001000
00000000
00010000
00000000
00000100
00000000
00001000
00000000
00000010
00000000
00000100
00000000
00000000
,  // measure 38
00000001
00000000
00000000
00000100
00000000
00000000
00001000
00000000
00000000
00000100
00000000
00000000
00000001
00000000
00000000
00001000
00000000
00000000
00000200
00000000
00000000
00000000
00000000
00000000
00000000
00000000
00000000
00000000
00000000
00000000
00000000
00000000
00000000
00000000
00000000
00000000
00000310
00000000
00000000
00000000
00000001
00000000
00000000
00000000
00000100
00000000
00000000
00000000
,  // measure 39
00000010
00000000
00000000
00000000
00001000
00000000
00000000
00000000
00000100
00000000
00000000
00000000
00020000
00000000
00000000
00000000
00000000
00000000
00000000
00000000
00000000
00000000
00000000
00000000
00031000
00000000
00000000
00000000
00000000
00000000
00100000
00000000
00000000
00000000
00000000
00000000
00010000
00000000
00000000
01000000
00000000
00000000
00010000
00000000
00000000
00000000
00000000
00000000
,  // measure 40
20000000
00000000
00000000
00000000
30200000
00000000
00000000
00000000
01300000
00000000
00010000
00000000
10000000
01000000
00100000
00000000
,  // measure 41
00010000
00000000
00010000
00100000
00000000
00100000
00001000
00000000
00001000
00000000
00010000
00000000
00000100
00001000
00000100
00000000
,  // measure 42
00001001
00000000
00001000
00000000
00000010
00000000
00000100
00000000
00000001
00000010
00000100
00001000
00000100
00001000
00000000
00000000
,  // measure 43
00000010
00000000
00001000
00000000
00000100
00000000
00000100
00000000
00010000
00001000
00010000
00001000
00100000
00010000
01000000
00000000
,  // measure 44
00200000
10000000
00010000
01300000
,  // measure 45
02010000
10000000
00100000
03010000
,  // measure 46
01001000
00000000
01000000
00000000
00100000
00000000
01000000
00010000
00000000
10000000
00000000
01000000
00000000
00100000
00010000
00100000
,  // measure 47
00000000
01000000
00000000
10000000
00100000
00000000
01000000
00000000
00010000
10000000
00000000
00100000
00000000
10010000
00000000
00000000
,  // measure 48
02000000
00000000
03100000
10000000
01000000
00100000
00020000
00000000
,  // measure 49
01030000
00001000
00200000
00000000
00301000
00010000
00000100
00010000
,  // measure 50
00010010
00000000
00000010
00000000
00000100
00000000
00000010
00001000
00000000
00000001
00000000
00000010
00000000
00000100
00001000
00000100
,  // measure 51
00000000
00000010
00000000
00000001
00000100
00000000
00000010
00000000
00001000
00000001
00000000
00000100
00000000
00001001
00000000
00000000
,  // measure 52
00000020
00000000
00000130
00000001
00000010
00000100
00002000
00000000
,  // measure 53
00003010
00000000
00000100
00000000
00000001
00001000
00000000
00000000
00000100
00010000
00000000
00000000
00001000
00100000
00001000
00100000
,  // measure 54
00020000
02030000
03002000
00003100
;
