#TITLE:Lift Me From The Ground;
#SUBTITLE:;
#ARTIST:Han Solo feat. Sofie Winterson;
#TITLETRANSLIT:;
#SUBTITLETRANSLIT:;
#ARTISTTRANSLIT:;
#GENRE:;
#CREDIT:;
#BANNER:Lift Me From The Ground.png;
#BACKGROUND:Lift Me From The Ground-bg.png;
#LYRICSPATH:;
#CDTITLE:;
#MUSIC:Lift Me From The Ground.ogg;
#OFFSET:-0.000000;
#SAMPLESTART:10.812999;
#SAMPLELENGTH:14.694003;
#SELECTABLE:YES;
#BPMS:0.000000=77.500000
;
#STOPS:
;
#BGCHANGES:;
#KEYSOUNDS:;
#ATTACKS:;

//---------------dance-single - ----------------
#NOTES:
     dance-single:
     :
     Hard:
     7:
     0.396528,0.475687,0.136398,0.416013,0.364864,407.000000,387.000000,20.000000,61.000000,0.000000,0.000000,0.396528,0.475687,0.136398,0.416013,0.364864,407.000000,387.000000,20.000000,61.000000,0.000000,0.000000:
// measure 0
0000
0000
0000
0000
,  // measure 1
0000
0000
0000
0000
,  // measure 2
0000
0000
0000
0000
,  // measure 3
0000
0000
0000
0000
,  // measure 4
1010
0200
0302
2003
3200
0320
0032
2003
,  // measure 5
3010
0000
0100
0000
0001
0000
2000
0000
3200
0000
0320
0000
0031
0000
1000
0100
,  // measure 6
1000
0002
0203
0320
2030
3200
0320
0032
,  // measure 7
1003
0000
0010
0000
0100
0000
0002
0000
0023
0000
0230
0000
1300
0000
0100
1000
,  // measure 8
0001
0000
1000
0100
1000
0100
0010
0100
0010
0100
0010
0001
0010
0001
1000
0001
,  // measure 9
1000
0000
0001
0100
0000
0100
0010
1000
0001
0000
1000
0000
0100
1000
0001
0000
,  // measure 10
1000
0000
0001
0010
0001
0010
0100
0010
0100
0010
0100
1000
0100
1000
0001
1000
,  // measure 11
0001
0000
1000
0010
0000
0010
0100
0001
1000
0000
0001
0000
0010
0001
1000
0000
,  // measure 12
0020
0000
0000
0130
0000
0000
0001
0000
2000
0000
0000
3100
0000
0000
1000
0000
,  // measure 13
0002
0000
0000
0013
0000
0000
0001
0000
0200
0000
0000
0000
0310
0000
0100
0000
,  // measure 14
0002
0000
0000
0103
0000
0000
0010
0000
2000
0000
0000
3100
0000
0000
1000
0000
,  // measure 15
0002
0000
0000
0013
0000
0000
0001
0000
0200
0000
0000
0000
0310
0000
1000
0000
,  // measure 16
0100
0000
1000
0100
1001
0000
1001
0100
,  // measure 17
0002
0000
0000
0000
0103
0000
0001
0000
1000
0000
0000
0001
0000
0000
0100
0000
,  // measure 18
0010
0000
0100
0010
1001
0000
1001
0010
,  // measure 19
0100
0000
0000
0001
0000
0000
0100
0000
0100
0000
0001
0000
1000
0000
0100
0000
,  // measure 20
1000
0010
0000
0010
0200
0000
0302
0000
1003
0001
0000
0001
0020
0000
0032
0000
,  // measure 21
0103
0010
0000
0010
2000
0000
0100
0000
3002
0000
0100
0000
2003
0000
0000
0000
,  // measure 22
3001
0010
0000
0010
0200
0000
2300
0000
3010
1000
0000
1000
0002
0000
0023
0000
,  // measure 23
0031
0100
0000
0100
0010
0000
1000
0000
1100
0000
0100
0000
0110
0000
0010
0000
,  // measure 24
1002
0000
0000
0000
0103
0000
0001
1000
0001
0000
0100
0000
0010
0000
1000
0100
,  // measure 25
1000
0010
0200
0001
0302
1000
2003
0100
,  // measure 26
3200
0000
0000
0000
1300
0000
0100
1000
0100
0000
1000
0000
0001
0000
0100
0001
,  // measure 27
0100
0001
0200
0010
0320
2030
3200
0320
,  // measure 28
0032
0000
0103
0010
0100
0010
0100
0000
0001
0100
0001
0000
1000
0100
1000
0000
,  // measure 29
0001
1000
0001
1000
0001
1000
0001
1000
0001
1000
0001
1000
0001
0000
1000
0000
,  // measure 30
0001
0000
1000
0100
1000
0100
1000
0000
0001
0100
0001
0000
1000
0010
1000
0010
,  // measure 31
1000
0000
0001
1000
0001
1000
0001
1000
0002
0000
1003
0000
2000
0000
3001
0000
,  // measure 32
0001
0100
0101
0000
0110
0000
1010
0000
1000
0100
1100
0000
0110
0000
0011
0000
,  // measure 33
0010
0001
1000
0001
1000
0001
0100
0000
0001
1000
0001
0000
1000
0100
1000
0000
,  // measure 34
0001
0100
0010
0100
0001
0100
0010
0100
0001
1000
0100
1000
0001
1000
0100
1000
,  // measure 35
0010
0100
0001
0010
0100
1000
0010
0100
0001
0000
1000
0000
0010
0000
0100
0000
,  // measure 36
1001
0000
0001
0010
0001
0010
0100
0010
0100
0010
0100
1000
0100
1000
0001
1000
,  // measure 37
0002
0100
0010
1003
,  // measure 38
1001
0000
1000
0100
1000
0100
0010
0100
0010
0100
0010
0001
0010
0001
1000
0001
,  // measure 39
2000
0000
0100
0000
3001
1000
0100
0010
,  // measure 40
0011
0000
0010
0001
0100
0000
0100
0010
1000
0000
1000
0100
0010
0000
0010
0001
,  // measure 41
0200
0000
0010
0000
0320
0000
1000
0000
2030
0000
0100
3000
1100
0000
0000
0000
,  // measure 42
1000
0000
1000
0100
0010
0000
0010
0001
0100
0000
0100
0001
1000
0000
1000
0001
,  // measure 43
0200
0001
0302
1000
1003
0010
1001
0101
,  // measure 44
2000
0000
0000
0000
,  // measure 45
3000
0000
0000
0000
;

//---------------dance-double - ----------------
#NOTES:
     dance-double:
     :
     Challenge:
     7:
     0.321509,0.491032,0.122758,0.313715,0.248926,330.000000,312.000000,18.000000,46.000000,0.000000,0.000000,0.321509,0.491032,0.122758,0.313715,0.248926,330.000000,312.000000,18.000000,46.000000,0.000000,0.000000:
00000000
00000000
00000000
00000000
,
00000000
00000000
00000000
00000000
,
00000000
00000000
00000000
00000000
,
00000000
00000000
00000000
00000000
,
00011000
00000100
00000010
00000001
00000100
00000010
00001000
00000100
,
00011000
00000000
00000000
00001000
00010000
00001000
00100000
00000000
,
00011000
00100000
00010000
01000000
00100000
10000000
01000000
00100000
,
00010000
00000000
00000000
01000000
00010000
01000000
00001000
00000000
,
00011000
00000000
00000100
00001000
00000100
00000000
00000010
00000100
00000010
00000000
00000001
00000010
00000001
00000000
00000100
00000000
,
00000020
00000000
00000030
00000100
00000100
00000010
00001000
00000100
,
00010000
00000000
00001000
00010000
00001000
00000000
00100000
00010000
00100000
00000000
00010000
01000000
00010000
00000000
10000000
00000000
,
00200000
00000000
00300000
01000000
01000000
00100000
10000000
00000000
,
00010000
00000000
00000000
00100000
00000000
00000000
00010000
00000000
01000000
00000000
00000000
00100000
00000000
00000000
10000000
00000000
,
01000000
00000000
00000000
00100000
00000000
00000000
00010000
00000000
01000000
00000000
00000000
00001000
00000000
00000000
00010000
00000000
,
00010000
00000000
00000000
00000100
00000000
00000000
00001000
00000000
00000010
00000000
00000000
00000100
00000000
00000000
00000001
00000000
,
00000001
00000000
00000000
00000010
00000000
00000000
00000100
00000000
00000100
00000000
00000000
00001000
00000000
00000000
00000010
00000000
,
00020000
00000000
00000000
00031000
00000000
00000000
00100000
00000000
00020000
00000000
00000000
01030000
00000000
00000000
00100000
00000000
,
20000000
00000000
00000000
31000000
00000000
00000000
10000000
00000000
00020000
00000000
00000000
00130000
00000000
00000000
00001000
00000000
,
00021000
00000000
00000000
00030100
00000000
00000000
00001000
00000000
00000020
00000000
00000000
00000130
00000000
00000000
00000001
00000000
,
00000102
00000000
00000000
00001003
00000000
00000000
00000001
00000000
00000010
00000000
00000100
00000000
00001000
00000000
00000010
00000000
,
00000200
00001000
00002300
00000000
00023000
00100000
00230000
00000000
,
20300000
01000000
32000000
00000000
03200000
00000000
00320000
00000000
,
20030000
00100000
30200000
00000000
00320000
00001000
00032000
00000000
,
00003020
00000001
00000032
00000000
00001003
00000100
00000010
00000001
,
00000101
00000000
00000100
00000001
00001000
00000001
00000010
00001000
,
00020000
00000000
00230000
00000000
10300000
01000000
00100000
00000000
,
00010000
10000000
00100000
01000000
00010000
00100000
00001000
00010000
,
00000020
00000000
00000230
00000000
00000310
00001000
00000100
00010000
,
00020200
00030300
00202000
00303000
,
00022000
00000000
00033000
00000000
00001000
00010000
00001000
00000000
,
02002000
03003000
20020000
30030000
,
22000000
00000000
33000000
00000000
00010000
10000000
01000000
00100000
,
00010000
01000000
00010000
01000000
00010000
01000000
00010000
00000000
10000000
01000000
10000000
01000000
10000000
01000000
10000000
00000000
,
00010000
00100000
00010000
00100000
00010000
00100000
00010000
00000000
01000000
00001000
01000000
00001000
01000000
00001000
01000000
00000000
,
00001000
00010000
00001000
00010000
00001000
00010000
00001000
00010000
00000100
00001000
00000100
00001000
00000100
00001000
00000100
00001000
,
00000010
00000100
00000010
00000100
00000001
00001000
00000001
00001000
00000100
00000000
00000010
00000000
00000001
00000000
00000100
00000000
,
00001001
00000000
00000001
00000100
00000001
00000100
00000010
00000100
00000010
00000100
00000010
00001000
00000010
00001000
00000100
00010000
,
00002000
00000000
00013000
00000000
00020000
00000000
00031000
00100000
,
00010000
00000000
10000000
00100000
10000000
00100000
01000000
00100000
01000000
00100000
01000000
00010000
01000000
00010000
10000000
00010000
,
20000000
00000000
31000000
00000000
01000000
00100000
00010000
01000000
,
01001000
00000000
00001000
00010000
00001000
00010000
00000100
00001000
00000100
00001000
00000010
00000100
00000010
00000100
00000001
00001000
,
00000002
00000000
00000013
00000001
00000100
00000010
00001000
00000100
,
00010100
00000000
00010000
00001000
00010000
00001000
00100000
00010000
00100000
00010000
10000000
00100000
10000000
00100000
01000000
00010000
,
20000000
00000000
31000000
00000000
11000000
00100000
00010000
01000000
,
02002000
00000000
00000000
00000000
,
03003000
00000000
00000000
00000000
;

//---------------dance-single - ----------------
#NOTES:
     dance-single:
     :
     Beginner:
     1:
     0.059430,0.090022,0.013640,0.000000,0.000000,61.000000,59.000000,2.000000,0.000000,0.000000,0.000000,0.059430,0.090022,0.013640,0.000000,0.000000,61.000000,59.000000,2.000000,0.000000,0.000000,0.000000:
0000
0000
0000
0000
,
0000
0000
0000
0000
,
0000
0000
0000
0000
,
0000
0000
0000
0000
,
1000
0000
0000
0000
,
0001
0000
0001
0000
,
0001
0000
0000
0000
,
0100
0000
0100
0000
,
0100
0000
0000
0000
,
0010
0000
0010
0000
,
0010
0000
0000
0000
,
1000
0000
1000
0000
,
1000
0000
0000
0000
,
0100
0000
0000
0000
,
0010
0000
0000
0000
,
0001
0000
0000
0000
,
1000
0000
0000
0000
,
0010
0000
0000
0000
,
0100
0000
0000
0000
,
0001
0000
0000
0000
,
1001
0000
0000
1000
,
1000
0000
0000
0000
,
0010
0000
0000
0100
,
0100
0000
0000
0000
,
0001
0000
0001
0000
,
0001
0000
0000
0000
,
1000
0000
1000
0000
,
1000
0000
0000
0000
,
0010
0000
0010
0000
,
0010
0000
0000
0000
,
0100
0000
0100
0000
,
0100
0000
0000
0000
,
0001
0001
0001
0000
,
0001
0000
0000
0000
,
0100
0100
0100
0000
,
0100
0000
0000
0000
,
1001
0000
0000
0000
,
1000
0000
1000
0000
,
1000
0000
0000
0000
,
0010
0000
0010
0000
,
0010
0000
0000
0000
,
0100
0000
0100
0000
,
0100
0000
0000
0000
,
0001
0000
0001
0000
,
0001
0000
0000
0000
;

//---------------dance-single - ----------------
#NOTES:
     dance-single:
     :
     Easy:
     2:
     0.090607,0.120030,0.013640,0.000000,0.000000,93.000000,91.000000,2.000000,0.000000,0.000000,0.000000,0.090607,0.120030,0.013640,0.000000,0.000000,93.000000,91.000000,2.000000,0.000000,0.000000,0.000000:
0000
0000
0000
0000
,
0000
0000
0000
0000
,
0000
0000
0000
0000
,
0000
0000
0000
0000
,
0001
0000
0100
0000
,
0010
0000
1000
0100
,
1000
0000
0001
0000
,
0010
0000
0001
0100
,
0001
0000
1000
1000
,
1000
0000
0010
0000
,
1000
0000
0001
0001
,
0001
0000
0010
0000
,
0001
0000
0000
0000
,
1000
0000
0000
0000
,
0010
0000
0000
0000
,
0100
0000
0000
0000
,
0001
0001
0001
0001
,
0001
0000
0000
0000
,
1000
1000
1000
1000
,
1000
0000
0000
0000
,
0010
0010
1000
1000
,
0100
0000
0000
0000
,
1000
1000
0001
0001
,
0010
0000
0000
0000
,
0001
0001
0100
0100
,
0010
0000
0000
0000
,
1000
1000
0100
0100
,
0010
0000
0000
0000
,
1001
0000
0000
0000
,
0001
0000
0000
0000
,
0100
0000
0000
0000
,
0010
0000
0000
0000
,
1000
1000
1000
0000
,
0001
0001
0001
0000
,
0100
0100
0100
0000
,
0010
0010
0000
0000
,
1001
0000
0001
0000
,
0100
0000
0100
0000
,
0010
0000
0010
0000
,
1000
0000
1000
0000
,
0100
0100
0010
0010
,
0001
0000
1000
0000
,
0001
0100
0100
0010
,
0010
0000
1000
1000
,
0100
0000
0000
0000
;

//---------------dance-single - ----------------
#NOTES:
     dance-single:
     :
     Medium:
     4:
     0.187060,0.240060,0.047739,0.143218,0.000000,192.000000,185.000000,7.000000,21.000000,0.000000,0.000000,0.187060,0.240060,0.047739,0.143218,0.000000,192.000000,185.000000,7.000000,21.000000,0.000000,0.000000:
// measure 0
0000
0000
0000
0000
,  // measure 1
0000
0000
0000
0000
,  // measure 2
0000
0000
0000
0000
,  // measure 3
0000
0000
0000
0000
,  // measure 4
2000
3100
2000
3001
,  // measure 5
0002
0103
0002
1003
,  // measure 6
1000
0100
0020
0000
0031
1000
0020
0000
,  // measure 7
0230
0001
0010
0310
,  // measure 8
0100
0001
0100
0001
1000
0100
1000
0100
,  // measure 9
0010
0000
0001
1000
,  // measure 10
0001
0100
0001
0100
0010
1000
0010
1000
,  // measure 11
0100
1000
0001
0000
,  // measure 12
2000
3000
0002
0003
,  // measure 13
0200
0300
0010
0010
,  // measure 14
2000
3000
0200
0300
,  // measure 15
0020
0030
0001
0001
,  // measure 16
0100
0000
0010
1000
0010
0000
1000
0100
,  // measure 17
1000
0000
0100
1000
,  // measure 18
0100
0000
0010
0001
0010
0000
0001
0100
,  // measure 19
0001
0000
0100
0000
,  // measure 20
0001
0000
1000
0100
0010
0000
1000
0100
,  // measure 21
0010
0001
1000
0010
,  // measure 22
1001
0000
0001
0010
0100
0000
0001
0010
,  // measure 23
0100
0001
1000
0010
,  // measure 24
1001
0000
1000
0100
0010
0000
1000
0100
,  // measure 25
0010
0001
1000
0010
,  // measure 26
1001
0000
0001
0010
0100
0000
0001
0010
,  // measure 27
0100
0001
0000
0000
,  // measure 28
2002
0000
3003
0000
1000
0000
0100
0010
,  // measure 29
0001
0000
1000
0000
,  // measure 30
0001
0000
0100
0001
1000
0000
0010
1000
,  // measure 31
0100
0000
1000
0001
,  // measure 32
1000
0100
1000
0100
0010
0010
0010
0000
,  // measure 33
0001
0100
0001
0100
0010
0010
0010
0000
,  // measure 34
1000
0100
0010
0001
1000
0100
0010
0001
,  // measure 35
0100
0100
0100
0100
0000
0000
0000
0000
,  // measure 36
1001
0001
0100
0001
1000
0001
1000
0001
,  // measure 37
0020
0000
0030
0000
,  // measure 38
1000
0100
1000
0100
1000
0001
1000
0001
,  // measure 39
0020
0000
0030
0000
,  // measure 40
0001
0100
0001
0100
0010
1000
0010
1000
,  // measure 41
0202
0000
0303
0000
,  // measure 42
1000
0100
1000
0100
0010
0001
0010
0001
,  // measure 43
2200
0000
0000
0000
3300
0000
0001
1000
,  // measure 44
0001
0000
0000
0000
;
