#VERSION:0.82;
#TITLE:Lean On;
#SUBTITLE:;
#ARTIST:Major Lazer;
#TITLETRANSLIT:;
#SUBTITLETRANSLIT:;
#ARTISTTRANSLIT:;
#GENRE:Which One Is Major Lazer;
#ORIGIN:;
#CREDIT:;
#BANNER:Lean On.png;
#BACKGROUND:Lean On-bg.png;
#PREVIEWVID:;
#JACKET:jacket.png;
#CDIMAGE:;
#DISCIMAGE:;
#LYRICSPATH:;
#CDTITLE:;
#MUSIC:Lean On.ogg;
#OFFSET:-0.043000;
#SAMPLESTART:93.090866;
#SAMPLELENGTH:13.714000;
#SELECTABLE:YES;
#BPMS:0.000=98.000;
#STOPS:;
#DELAYS:;
#WARPS:;
#TIMESIGNATURES:0.000=4=4;
#TICKCOUNTS:0.000=4;
#COMBOS:0.000=1;
#SPEEDS:0.000=1.000=0.000=0;
#SCROLLS:0.000=1.000;
#FAKES:;
#LABELS:0.000=Song Start;
#BGCHANGES:4.000=Lean On.avi=1.000=0=0=1=====,
99999=-nosongbg-=1.000=0=0=0 // don't automatically add -songbackground-
;
#KEYSOUNDS:;
#ATTACKS:
;

//---------------dance-single - ----------------
#NOTEDATA:;
#CHARTNAME:;
#STEPSTYPE:dance-single;
#DESCRIPTION:;
#CHARTSTYLE:;
#DIFFICULTY:Hard;
#METER:7;
#RADARVALUES:0.394878,0.429187,0.085051,0.212627,0.068041,290.000000,10.000000,25.000000,0.000000,0.000000,0.000000,0.000000,0.000000,0.394878,0.429187,0.085051,0.212627,0.068041,290.000000,10.000000,25.000000,0.000000,0.000000,0.000000,0.000000,0.000000;
#CREDIT:Ben Speirs;
#NOTES:
0000
0000
0000
0000
,
0000
0000
0000
0000
,
0000
0000
0000
0000
,
0000
0000
0000
0000
,
1000
0001
0100
0000
0001
1000
0100
0000
,
2000
0000
3010
0000
0200
0000
0301
0001
,
1000
0000
0010
1000
0001
0000
0010
0001
,
1000
0000
0010
0000
1000
0100
0001
0100
,
2000
0000
3010
0000
0100
0001
1000
0000
,
0002
0000
0103
0000
0010
0100
0001
0000
,
1000
0001
0010
0000
0001
1000
0010
0000
,
2000
0000
3100
0000
0010
0001
1000
0000
,
2010
0000
3001
0001
0012
0000
1003
1000
,
0110
0001
0010
0100
1000
0010
0100
0100
,
0102
0000
1003
1000
2100
0000
3001
0001
,
0110
1000
0100
0010
0001
0100
0010
0010
,
1000
0100
1000
0010
1000
0001
1000
0010
,
0100
0001
0100
0010
0100
1000
0100
0001
,
0010
1000
0010
0001
0010
0100
0010
0001
,
1000
0000
0000
0000
,
0001
0200
1300
0001
1000
0200
0301
1000
,
0001
0020
1030
0001
1000
0020
0031
1000
,
0100
0020
1030
0001
1000
0020
0031
1000
,
0010
0100
0001
0010
0100
1000
0001
0001
,
1000
0020
0031
1000
0001
0020
1030
0001
,
1000
0200
0301
1000
0001
0200
1300
0001
,
0010
0200
0301
1000
0001
0200
1300
0001
,
0100
0010
1000
0100
0010
0001
1000
1000
,
0020
0130
0020
0130
0020
0130
0020
0130
,
0000
0000
0000
0000
,
0001
0100
1000
0010
0001
0100
0001
1000
,
0100
1000
0001
0100
0001
1000
0010
1000
,
0001
0010
1000
0100
0001
0000
0100
0010
,
1000
1010
0000
0101
0000
0011
0000
1100
,
0001
1000
0010
1000
0001
0010
0001
0100
,
0010
1000
0100
1000
0001
0010
0001
0000
,
1000
0100
0001
0010
0010
0000
0100
0010
,
0001
0100
0010
1000
0001
0010
0100
0000
,
1000
0100
0001
0010
,
1000
0000
0010
0100
0010
0000
1000
0100
0000
0100
0000
0010
0001
0000
1000
0000
,
0001
0010
1000
0100
,
0001
0000
0100
0010
0100
0000
0001
0010
0000
0010
0000
0100
1000
0000
0001
0000
,
0100
1000
0100
0010
0100
0001
0010
0100
,
1000
0000
0001
1000
0001
0000
0100
0010
0000
0010
0000
1000
0100
0000
1000
0000
,
0010
0001
0010
0100
0010
1000
0100
0010
,
0001
0000
1000
0001
1000
0000
0010
0100
0000
0100
0000
0001
0010
0000
0100
0000
;

//---------------dance-single - ----------------
#NOTEDATA:;
#CHARTNAME:;
#STEPSTYPE:dance-single;
#DESCRIPTION:;
#CHARTSTYLE:;
#DIFFICULTY:Challenge;
#METER:9;
#RADARVALUES:0.585634,0.643780,0.195616,0.161596,0.671900,440.000000,23.000000,19.000000,0.000000,0.000000,0.000000,0.000000,0.000000,0.585634,0.643780,0.195616,0.161596,0.671900,440.000000,23.000000,19.000000,0.000000,0.000000,0.000000,0.000000,0.000000;
#CREDIT:Ben Speirs;
#NOTES:
0000
0000
0000
0000
,
0000
0000
0000
0000
,
0000
0000
0000
0000
,
0000
0000
0000
0000
,
1000
0000
0000
0001
0010
0100
1000
0000
0000
0000
0000
0010
1000
0001
0100
0000
,
0000
0000
0000
0000
0001
0000
0010
0100
0000
1000
0000
0010
0100
0000
0001
0000
,
1000
0000
0000
0010
1000
0001
0100
0000
0000
0000
0000
0001
0010
0100
1000
0000
,
0000
0000
0000
0000
0001
0000
1000
0010
0000
0000
1000
0000
0001
0000
0100
0010
,
0100
0000
0000
0000
0000
0000
0001
0100
0001
0000
1000
0000
0100
0000
0000
0000
,
0020
0000
0001
0030
0002
0000
0100
0000
0103
0010
0100
0000
0010
0000
0000
0000
,
0100
0000
0000
0001
0010
0100
1000
0000
0000
0000
0000
0010
1000
0001
0100
0000
,
0000
0000
0001
0010
0001
0000
1000
0010
0000
0100
0000
0001
1000
0000
0100
0000
,
0020
0031
2000
3010
0200
0301
0020
0130
,
1000
0000
0010
1000
0100
0010
0001
1000
0010
1000
0100
0010
0001
1000
0010
0000
,
0200
0301
0020
0031
2000
3010
0200
0301
,
1000
0000
0010
1000
0100
0010
0001
1000
0010
0100
0001
0010
0100
1000
0010
0000
,
0100
0000
0000
0001
0000
0000
1000
0000
0100
0000
0000
0010
0000
0000
0001
1000
,
0001
0000
0000
0000
0000
0000
0100
0000
0000
0000
0000
0000
0010
0000
0000
0000
1000
0000
0000
0000
0000
0000
0100
0000
0000
0000
0000
0000
0010
0001
0010
0000
,
0100
0000
0000
1000
0000
0000
0001
0000
0100
0000
0000
0010
0000
0000
1000
0001
,
0100
0100
0100
0010
1000
0010
0100
0001
0010
0100
1000
0010
1000
0001
0100
0000
,
1001
0000
1000
0100
0001
0100
1000
0000
1001
0000
0001
0100
1000
0100
0001
0000
,
1001
0000
1000
0100
0001
0100
1000
0000
0001
0000
0100
0010
1000
0001
0100
0000
,
1001
0000
0001
0010
1000
0010
0001
0000
1001
0000
1000
0010
0001
0010
1000
0000
,
1001
0000
0001
0010
1000
0010
0001
1000
0000
1000
0000
0010
0100
0001
1000
0000
,
1100
0000
0100
1000
0010
0100
0001
0000
0101
0000
0100
0010
1000
0001
0010
0000
,
0110
0000
0010
0001
1000
0010
0100
0000
0101
0000
0001
0010
0100
1000
0001
0000
,
0011
0000
0010
0001
0100
0010
1000
0000
1010
0000
0010
0100
0001
1000
0100
0000
,
0010
0010
0010
0001
1000
0010
1000
0100
0010
0001
1000
0010
0200
0000
0301
0000
,
2000
3100
0020
0031
2000
3010
0200
0301
,
1000
0000
0000
0220
0000
0000
0330
0000
,
1001
0000
0100
0000
0001
0000
0010
0000
0100
0000
1000
0000
0010
1000
0010
1000
,
0001
0000
0010
0001
0010
0001
1000
0000
0100
1000
0100
1000
0001
0000
0100
0000
,
0010
0000
1000
0100
1000
0000
0010
0000
0100
0000
0000
0000
0001
0010
0100
1000
,
0001
0000
0000
0000
0000
0000
1000
0000
0000
0000
0000
0000
0100
0000
0000
0000
0010
0000
0000
0000
0001
1000
0001
1000
0001
0000
0000
0000
0000
0000
0000
0000
,
0100
0010
0100
0001
1000
0000
0100
0100
1000
0010
0200
0000
0301
1000
0010
1000
,
0001
0000
0010
0100
0000
0100
1000
0001
0100
0000
0020
0000
1030
0100
1000
0001
,
0100
0000
0010
1000
0010
0000
0100
0000
0001
0000
0000
0000
1000
0100
0010
0001
,
1000
0000
0000
0010
0000
0000
0001
0000
0000
0100
0000
0000
1000
0000
0000
0000
,
0101
0100
1010
1000
1100
0100
0011
0010
,
0001
0000
1000
0100
0010
0001
1000
0010
0100
0001
0010
0100
0010
0001
1000
0000
,
1010
0010
0101
0001
0011
0010
1100
0100
,
1000
0000
0000
0000
0001
0000
0010
0000
0100
0000
1000
0000
0001
0000
0100
0000
0010
1000
0010
0000
1000
0100
1000
0000
0001
0000
0100
0000
0010
1000
0010
1000
,
0001
0000
0100
0010
0100
1000
0100
0000
0001
0000
0010
0100
0010
1000
0010
0000
,
0001
1000
0100
0010
0001
0100
0010
1000
0001
0010
0100
0010
0001
1000
0010
0000
,
0100
0001
0100
0010
0100
1000
0100
0000
0010
0001
0010
0100
0010
1000
0001
0000
,
1000
0100
0010
0001
0100
0010
1000
0100
0010
0001
1000
0010
0100
0001
1100
0000
;

//---------------dance-single - ----------------
#NOTEDATA:;
#CHARTNAME:;
#STEPSTYPE:dance-single;
#DESCRIPTION:;
#CHARTSTYLE:;
#DIFFICULTY:Medium;
#METER:5;
#RADARVALUES:0.286742,0.370661,0.136081,0.280667,0.000000,187.000000,16.000000,33.000000,0.000000,0.000000,0.000000,0.000000,0.000000,0.286742,0.370661,0.136081,0.280667,0.000000,187.000000,16.000000,33.000000,0.000000,0.000000,0.000000,0.000000,0.000000;
#CREDIT:Ben Speirs;
#NOTES:
0000
0000
0000
0000
,
0000
0000
0000
0000
,
0000
0000
0000
0000
,
0000
0000
0000
0000
,
0000
0000
1000
1000
0000
0000
0001
0001
,
0000
0200
0320
1030
,
0000
0000
0001
0001
0000
0000
1000
1000
,
0000
0200
0320
0031
,
2000
0000
3000
0000
0100
1000
0001
0000
,
0100
0000
0100
0000
0010
0100
0010
0000
,
1000
0000
0001
0001
0000
0000
1000
1000
,
0000
0020
2030
3001
,
0110
0000
1000
1000
0100
0000
0001
0001
,
0100
0000
0010
0000
1000
0000
1001
1001
,
0100
0000
1000
1000
0010
0000
0001
0001
,
0010
0000
0001
0000
1000
0000
1001
1001
,
0200
0010
0000
0310
,
0002
0100
0000
0103
,
2000
0100
0000
3100
,
1001
0000
0000
0000
,
0000
0020
0030
2000
3000
0002
0003
0200
,
0300
0002
0003
1000
1000
0200
0300
0020
,
0030
0002
0003
2000
3000
0020
0030
2000
,
3001
0100
0100
0010
1000
1000
0100
0010
,
0001
2000
3000
0002
0003
0200
0300
0020
,
0030
2000
3000
0001
0001
0020
0030
0200
,
0300
2000
3000
0002
0003
0200
0300
0020
,
1030
0001
0001
0100
0010
0010
1000
0001
,
0200
0000
0000
0300
,
0000
0000
0000
0000
,
0001
0000
0100
0000
0010
0000
1000
0001
,
1000
0000
0001
1000
0001
0000
1000
0000
,
0010
0100
0001
0000
,
0010
0100
0000
0100
0000
0100
0000
0100
,
0010
0000
0001
0000
1000
0000
0010
1000
,
0001
0000
0100
0000
0001
0010
0100
0000
,
1000
0001
1000
0000
0010
0000
1000
0100
,
0010
0000
0000
0000
,
0100
0000
1001
1001
0010
0000
1001
1001
,
0100
0000
0001
0000
1000
0100
0010
0000
,
0001
0000
1001
1001
0010
0000
1001
1001
,
0100
0000
0001
0000
0010
0100
1000
0000
,
0001
0000
1000
0100
0010
0000
0001
1000
,
0010
0000
0100
0000
0001
0000
1001
1001
,
0100
0000
0001
1000
0100
0000
0010
0001
,
0100
0100
0100
0000
0010
0000
1000
0001
;

//---------------dance-single - ----------------
#NOTEDATA:;
#CHARTNAME:;
#STEPSTYPE:dance-single;
#DESCRIPTION:;
#CHARTSTYLE:;
#DIFFICULTY:Easy;
#METER:2;
#RADARVALUES:0.145801,0.195085,0.008505,0.051030,0.000000,113.000000,1.000000,6.000000,0.000000,0.000000,0.000000,0.000000,0.000000,0.145801,0.195085,0.008505,0.051030,0.000000,113.000000,1.000000,6.000000,0.000000,0.000000,0.000000,0.000000,0.000000;
#CREDIT:Ben Speirs;
#NOTES:
0000
0000
0000
0000
,
0000
0000
0000
0000
,
0000
0000
0000
0000
,
0000
0000
0000
0000
,
1000
0000
0001
0000
,
0100
0000
0010
1000
,
0001
0000
1000
0000
,
0100
0000
0010
0001
,
0100
0000
0010
0000
,
1000
1000
0001
0001
,
0100
0000
0001
0000
,
1000
0000
0100
0010
,
0001
0001
1000
1000
,
0020
0030
0020
0030
,
1000
1000
0001
0001
,
0020
0030
0020
0030
,
0001
1000
0001
1000
,
0100
0010
0100
0010
,
0001
1000
0001
1000
,
0010
0000
0000
0000
,
1000
0000
0001
0000
,
0100
0100
0010
0010
,
1000
0000
0001
0000
,
0020
0000
0000
0030
,
0001
0000
1000
0000
,
0010
0010
0100
0100
,
0001
0000
1000
0000
,
0200
0000
0000
0300
,
1001
0000
0000
0000
,
0000
0000
0000
0000
,
0001
0001
0001
1000
,
1000
0100
0100
0010
,
0010
0001
0001
0000
,
1000
0000
0001
0000
,
0100
0100
0010
0100
,
0001
0001
1000
1000
,
0100
0000
1000
0010
,
0100
0000
0000
0000
,
0010
0000
1000
0000
,
0001
0010
0100
1000
,
0001
0000
0100
0000
,
0010
1000
0001
0100
,
0010
0000
1000
0000
,
0100
1000
0010
0100
,
0001
0000
1000
0000
,
0100
0000
0000
0000
0000
0000
0010
0010
;

//---------------dance-single - ----------------
#NOTEDATA:;
#CHARTNAME:;
#STEPSTYPE:dance-single;
#DESCRIPTION:;
#CHARTSTYLE:;
#DIFFICULTY:Beginner;
#METER:1;
#RADARVALUES:0.103276,0.155643,0.051030,0.000000,0.000000,79.000000,6.000000,0.000000,0.000000,0.000000,0.000000,0.000000,0.000000,0.103276,0.155643,0.051030,0.000000,0.000000,79.000000,6.000000,0.000000,0.000000,0.000000,0.000000,0.000000,0.000000;
#CREDIT:Ben Speirs;
#NOTES:
0000
0000
0000
0000
,
0000
0000
0000
0000
,
0000
0000
0000
0000
,
0000
0000
0000
0000
,
1000
0000
0000
0000
,
0001
0000
0000
0000
,
0100
0000
0000
0000
,
0001
0000
0000
0000
,
1000
0000
0000
0000
,
0100
0000
0000
0000
,
0010
0000
0000
0000
,
0001
0000
0000
0000
,
1000
0000
0001
0000
,
0100
0000
0100
0000
,
0001
0000
1000
0000
,
0100
0000
0100
0000
,
1001
0000
0100
0000
,
0010
0000
0010
0000
,
1001
0000
0100
0000
,
0010
0000
0000
0000
,
1000
0000
0100
0000
,
0001
0000
0100
0000
,
1000
0000
0100
0000
,
0001
0000
0000
0000
,
1000
0000
0010
0000
,
0001
0000
0010
0000
,
1000
0000
0010
0000
,
0001
0000
0000
0000
,
1001
0000
0000
0000
,
0000
0000
0000
0000
,
0100
0100
0100
0000
,
0001
0000
1000
0000
,
0100
0100
0100
0000
,
1000
0000
0001
0000
,
0010
0010
0010
0000
,
0001
0000
1000
0000
,
0010
0010
0010
0000
,
1001
0000
0000
0000
,
0010
0000
0010
0000
,
0010
0010
0010
0010
,
0010
0000
0010
0000
,
0010
0010
0010
0000
,
1001
0000
0100
0000
,
0100
0100
0100
0000
,
1001
0000
0100
0000
,
0100
0100
0100
0100
;

//---------------dance-double - ----------------
#NOTEDATA:;
#CHARTNAME:;
#STEPSTYPE:dance-double;
#DESCRIPTION:;
#CHARTSTYLE:;
#DIFFICULTY:Challenge;
#METER:9;
#RADARVALUES:0.578344,0.604763,0.314687,0.161596,0.620870,420.000000,37.000000,19.000000,0.000000,0.000000,0.000000,0.000000,0.000000,0.578344,0.604763,0.314687,0.161596,0.620870,420.000000,37.000000,19.000000,0.000000,0.000000,0.000000,0.000000,0.000000;
#CREDIT:Ben Speirs;
#NOTES:
// measure 0
00000000
00000000
00000000
00000000
,  // measure 1
00000000
00000000
00000000
00000000
,  // measure 2
00000000
00000000
00000000
00000000
,  // measure 3
00000000
00000000
00000000
00000000
,  // measure 4
00001001
00000000
00000000
00001000
00000100
00000010
00000001
00000000
00000000
00000000
00000000
00001000
00000100
00000010
00000001
00000000
,  // measure 5
00000000
00000000
00001000
00000100
00010000
00001000
00100000
00100000
,  // measure 6
00010000
00000000
00000000
10000000
01000000
00100000
00010000
00000000
00000000
00000000
00000000
10000000
01000000
00100000
00010000
00000000
,  // measure 7
00000000
00000000
00000000
00000000
10000000
00000000
00010000
00000000
10000000
00000000
00100000
00000000
01000000
00000000
00010000
00100000
,  // measure 8
00010000
00100000
00000000
00000000
00000000
00000000
00001000
00010000
00001000
00000000
00010000
00000000
00001000
00000000
00000000
00000000
,  // measure 9
00001100
00000000
00000000
00000000
00001100
00000000
00000000
00000000
00000100
00001000
00000001
00000000
00000001
00000000
00000000
00000000
,  // measure 10
00001000
00000000
00000000
00000001
00000100
00000010
00001000
00000000
00000000
00000000
00000000
00000001
00000100
00000010
00001000
00000000
,  // measure 11
00000000
00000000
00000001
00000100
00000001
00000000
00001000
00000100
00000000
00000100
00000000
00010000
00001000
00000000
00100000
00000000
,  // measure 12
00101000
00001000
00011000
00010000
00010100
00001000
00011000
00001000
,  // measure 13
00100000
00000000
00010000
00100000
01000000
10000000
00100000
01000000
00010000
00100000
01000000
10000000
00010000
00100000
00001000
00000000
,  // measure 14
00010100
00010000
00011000
00001000
00101000
00010000
00011000
00010000
,  // measure 15
00000100
00000000
00001000
00000100
00000010
00000001
00000100
00000010
00001000
00000100
00000010
00000001
00001000
00000100
00010000
00000000
,  // measure 16
00011000
00000000
00000000
00001000
00000000
00000000
00100000
00000000
00010000
00000000
00000000
10000000
00000000
00000000
00100000
01000000
,  // measure 17
00010000
00000000
00000000
00000000
00000000
00000000
10000000
00000000
00000000
00000000
00000000
00000000
01000000
00000000
00000000
00000000
00100000
00000000
00000000
00000000
00000000
00000000
00010000
00000000
00000000
00000000
00000000
00000000
10000000
01000000
10000000
00000000
,  // measure 18
00010000
01000000
00100000
10000000
01000000
00100000
00010000
01000000
,  // measure 19
00001000
00001000
00001000
00010000
00001000
00100000
00010000
00100000
00001000
00010000
00001000
00100000
00001000
00010000
00001000
00000000
,  // measure 20
00010100
00000000
00010000
00000100
00001000
00000100
00010000
00000000
00101000
00000000
00001000
00100000
00010000
00100000
00001000
00000000
,  // measure 21
00010010
00000000
00010000
00000010
00001000
00000010
00020000
00000000
00032000
00000000
00013000
00100000
10000000
01000000
00100000
00000000
,  // measure 22
00110000
00000000
00100000
00010000
00100000
00010000
10000000
00000000
10100000
00000000
10000000
00100000
10000000
00100000
10000000
00000000
,  // measure 23
00010000
00000000
10000000
01000000
00100000
00010000
01000000
00002000
00000000
00023000
00000000
00130000
00010000
00001000
00100000
00000000
,  // measure 24
00101000
00000000
00100000
00010000
00100000
00001000
00100000
00000000
00010010
00000000
00000010
00010000
00000010
00001000
00000010
00000000
,  // measure 25
00011000
00000000
00001000
00010000
00100000
00010000
00002000
00000000
00023000
00000000
00031000
00010000
00000010
00001000
00000001
00000000
,  // measure 26
00000101
00000000
00000100
00000001
00000100
00000001
00001000
00000000
00001100
00000000
00000100
00001000
00000100
00001000
00000001
00000000
,  // measure 27
00000100
00000100
00000100
00000010
00000100
00000001
00001000
00000200
00000000
00020300
00000000
00031000
00010000
00001000
00100000
00000000
,  // measure 28
00020000
00000000
00000000
00000000
,  // measure 29
00030000
00000000
00000000
20020000
00000000
00000000
30030000
00000000
,  // measure 30
11000000
00000000
01000000
00000000
00100000
00000000
00010000
00000000
10000000
00000000
00100000
00000000
01000000
00010000
01000000
00010000
,  // measure 31
00100000
00000000
01000000
10000000
01000000
10000000
00100000
00000000
01000000
00010000
01000000
00010000
00100000
00000000
01000000
00000000
,  // measure 32
00100000
00000000
00010000
00100000
00001000
00000000
00010000
00000000
00000100
00000000
00000000
00000000
00010000
00001000
00010000
00001000
,  // measure 33
00000200
00000000
00000000
00000302
00000000
00000003
00001000
00000000
00000100
00001000
00000001
00000000
00001001
00000000
00000000
00000000
,  // measure 34
00001000
00000100
00000010
00000001
00001000
00000000
00000010
00001000
00000010
00001000
00000001
00000000
00000100
00000010
00000100
00000001
,  // measure 35
00001000
00000000
00001000
00000100
00000000
00000100
00010000
00001000
00200000
00000000
00001000
00300000
00010000
00100000
00010000
00000000
,  // measure 36
00200000
00000000
10300000
01000000
00100000
00000000
00010000
00000000
10000000
00000000
00100000
00000000
10000000
01000000
00100000
00010000
,  // measure 37
01000000
00000000
00000000
00001000
00000000
00000000
00010000
00000000
00000000
00000100
00000000
00000000
00001001
00000000
00000000
00000000
,  // measure 38
00001100
00000100
00000011
00000010
00001010
00000010
00000101
00000100
,  // measure 39
00000001
00000010
00000100
00001000
00000010
00000100
00001000
00000100
00000010
00000100
00000001
00001000
00000100
00000010
00000001
00000000
,  // measure 40
00001100
00001000
00011000
00010000
00110000
00100000
10010000
10000000
,  // measure 41
00010000
01000000
00100000
10000000
01000000
00100000
00010000
01000000
10000000
01000000
10000000
01000000
00100000
01000000
00010000
00000000
,  // measure 42
10000000
01000000
10000000
01000000
00100000
00010000
10000000
00000000
00010000
01000000
00010000
01000000
00100000
10000000
00010000
00000000
,  // measure 43
10000000
01000000
00100000
00010000
01000000
00100000
00010000
00002000
00000000
00023000
00000000
00130000
10000000
01000000
00100000
00000000
,  // measure 44
00110000
00000000
00100000
00001000
00010000
00001000
00010000
00000000
00011000
00000000
00001000
00010000
00001000
00010000
00000100
00000000
,  // measure 45
00001000
00001000
00001000
00000100
00000010
00000001
00001000
00000020
00000000
00000230
00000000
00000301
00001000
00000000
00001010
00000000
;
