#VERSION:0.83;
#TITLE:Lay It Down;
#SUBTITLE:;
#ARTIST:Aazar;
#TITLETRANSLIT:;
#SUBTITLETRANSLIT:;
#ARTISTTRANSLIT:;
#GENRE:;
#ORIGIN:;
#CREDIT:;
#BANNER:Lay It Down.png;
#BACKGROUND:Lay It Down-bg.png;
#PREVIEWVID:;
#JACKET:jacket.png;
#CDIMAGE:;
#DISCIMAGE:;
#LYRICSPATH:;
#CDTITLE:;
#MUSIC:Lay It Down.ogg;
#OFFSET:-0.020000;
#SAMPLESTART:38.389954;
#SAMPLELENGTH:14.694003;
#SELECTABLE:YES;
#BPMS:0.000=150.000;
#STOPS:;
#DELAYS:;
#WARPS:;
#TIMESIGNATURES:0.000=4=4;
#TICKCOUNTS:0.000=4;
#COMBOS:0.000=1;
#SPEEDS:0.000=1.000=0.000=0;
#SCROLLS:0.000=1.000;
#FAKES:;
#LABELS:0.000=Song Start;
#BGCHANGES:;
#KEYSOUNDS:;
#ATTACKS:
;

//---------------dance-single - ----------------
#NOTEDATA:;
#CHARTNAME:;
#STEPSTYPE:dance-single;
#DESCRIPTION:;
#CHARTSTYLE:Ben Speirs;
#DIFFICULTY:Hard;
#METER:8;
#RADARVALUES:0.493142,0.585792,0.230133,0.135988,0.162139,330.000000,308.000000,22.000000,13.000000,0.000000,0.000000,0.000000,0.000000,0.000000,0.493142,0.585792,0.230133,0.135988,0.162139,330.000000,308.000000,22.000000,13.000000,0.000000,0.000000,0.000000,0.000000,0.000000;
#CREDIT:Ben Speirs;
#NOTES:
0000
0000
0000
0000
,
0000
0000
0000
0000
,
0000
0000
0000
0000
,
0000
0000
0000
0000
,
1000
0100
1000
0100
0010
0100
1000
0000
,
1000
0100
0010
0100
1000
0000
1100
0000
,
0001
0100
0001
0100
0010
0100
0001
0000
,
0001
0100
0010
0100
0001
0000
0000
0000
,
1001
0000
1000
0010
1000
0001
0100
0000
,
0001
0010
0001
1000
0100
0000
1100
0000
,
0101
0000
1000
0010
1000
0001
0010
0000
,
0001
0010
0001
1000
0010
0000
0100
0000
,
1001
0000
0001
0100
0010
1000
0001
0000
,
1000
0100
0010
0001
1000
0000
1100
0000
,
0101
0000
1000
0010
1000
0001
0010
0000
,
0001
0100
0001
1000
0010
0000
0000
0000
,
0101
0000
1100
0000
0101
0100
0001
0000
,
1010
0000
0011
0000
1001
1000
0001
0000
,
1100
0000
0110
0000
0011
0001
1000
0001
,
0100
0000
0001
1000
0001
1000
0010
0000
,
1000
0100
0010
0001
0100
0010
1000
0100
,
0010
0000
0001
0000
1000
0000
0010
0000
0100
0000
0001
0000
1000
0001
1000
0001
,
0100
0000
0000
0000
,
0000
0000
0000
0000
0001
1000
0001
1000
,
0010
0000
0100
0000
0001
0000
0000
0000
0100
0000
0000
0010
0000
0000
1000
0000
,
0100
0000
1100
0000
0001
0010
0100
1000
,
0001
0000
0100
0000
0010
0000
0000
0000
0100
0000
0000
0001
0000
0000
1000
0000
,
0010
0000
1010
0000
1000
0100
0010
0001
,
0100
0010
0100
0010
1000
0000
0000
0000
0001
0000
0000
1000
0000
0000
0100
0000
,
0010
0000
0110
0000
0010
0001
1000
0010
,
0100
0001
0100
0001
1000
0000
0000
0000
0010
0000
0000
0100
0000
0000
0001
0000
,
1000
0000
1100
0000
0001
1000
0010
0000
,
1000
0100
1000
0100
0010
0000
0001
0000
0100
0000
0010
0000
1000
0000
1000
0000
,
0001
1000
1000
0010
0100
0001
0100
0000
,
0010
1000
0100
1000
0001
0010
0010
0100
,
0010
0000
0010
0000
0001
0000
0100
0000
0010
0000
0100
0000
0001
0000
0000
0001
,
1000
0000
0010
0000
0100
0000
0001
0000
0010
0100
0010
0100
1000
0000
0001
0000
,
1000
0000
0010
0000
0100
0000
0001
0000
1000
0100
1000
0000
0001
0000
0000
0000
,
1000
0000
0010
0000
0100
0000
0001
0000
1000
0100
1000
0100
1000
0000
0100
0000
,
0010
0000
0001
0000
1000
0000
0010
0000
0100
0001
0100
0000
0010
0000
0000
0000
,
2001
0000
0000
0001
0000
0000
0010
0000
,
0200
0000
0000
0000
3300
0000
0000
0000
1000
0100
1000
0100
1000
0100
1000
0000
,
0020
0000
0000
0100
0000
0000
1000
0000
,
0200
0000
0000
0000
0330
0000
0000
0000
0010
0100
0010
0100
0010
0100
0010
0000
,
0200
0000
0000
0001
0000
0000
0010
0000
,
0020
0000
0000
0000
0330
0000
0000
0000
0010
1000
0010
1000
0010
1000
0010
0000
,
2000
0000
0000
0100
0000
0000
0001
0000
,
0020
0000
0000
0000
3030
0000
0000
0000
0010
1000
0010
1000
0010
1000
0010
0000
,
0200
0000
0000
0001
,
0000
0010
0000
0302
,
2003
0000
0000
0100
,
0000
0001
0000
3020
,
0230
0000
0301
0100
0001
0000
1000
0000
,
0100
0000
0010
0000
0001
0000
1000
0010
,
1000
0001
0100
0010
,
1000
0100
0010
0001
,
0101
0000
0000
0000
;

//---------------dance-single - ----------------
#NOTEDATA:;
#CHARTNAME:;
#STEPSTYPE:dance-single;
#DESCRIPTION:;
#CHARTSTYLE:;
#DIFFICULTY:Challenge;
#METER:10;
#RADARVALUES:0.796498,0.966558,0.282436,0.104606,0.894380,533.000000,506.000000,27.000000,10.000000,0.000000,0.000000,0.000000,0.000000,0.000000,0.796498,0.966558,0.282436,0.104606,0.894380,533.000000,506.000000,27.000000,10.000000,0.000000,0.000000,0.000000,0.000000,0.000000;
#CREDIT:Ben Speirs;
#NOTES:
0000
0000
0000
0000
,
0000
0000
0000
0000
,
0000
0000
0000
0000
,
0000
0000
0000
0000
,
1100
0101
1100
0101
,
1001
0110
1001
0000
,
0011
1010
0011
1010
,
1001
0000
0000
0000
0110
0000
0000
0000
1001
0000
0000
0000
0001
1000
0001
1000
,
0010
0100
0001
0000
0100
0010
1000
0000
,
0100
1000
0001
1000
0010
0000
1010
0000
,
0101
0000
0100
0001
1000
0000
0010
1000
,
0001
0000
0010
0001
1000
0000
0100
0000
,
1001
1000
0100
1000
0001
1000
0010
0000
,
0001
1000
0001
0100
0001
0000
1010
0000
,
0011
0010
0100
0010
0001
0100
0010
0000
,
0100
0000
0001
0000
0100
0000
0010
0000
1000
0100
1000
0000
0001
0000
0001
0000
,
0100
0000
0101
0000
1000
1000
0000
0010
,
1001
0000
0000
0000
0100
0000
0101
0000
0000
0000
1100
0000
0001
1000
0001
1000
,
0010
0000
0100
0000
0001
0000
0000
0000
1000
0010
1000
0000
0001
0000
0001
0000
,
0101
0000
1000
1100
0001
1000
0011
0000
,
0101
0000
0001
0100
0001
0000
0100
0000
0010
0000
1000
0000
0100
0010
0100
0010
,
0001
0000
0010
0100
0010
0000
0001
0000
1000
0000
0010
0000
1000
0100
1000
0100
,
0010
0000
0000
0000
,
0001
0000
0000
0000
1000
0000
0000
0000
0010
0100
0010
0100
0010
0100
0010
0100
,
0001
1000
0001
1000
0010
0000
0000
0000
1000
0000
1000
0100
0000
0000
0010
0000
,
0002
0000
0000
0000
1003
0000
0000
0000
0001
0100
0001
0100
0010
1000
0010
0000
,
1000
0100
1000
0100
0010
0000
0000
0000
0001
0000
0001
0010
0000
0000
0100
0000
,
2000
0000
0000
0000
3001
0000
0000
0000
1000
0010
1000
0010
0100
0001
0100
0000
,
0001
1000
0001
1000
0010
0000
0000
0000
1000
0000
1000
0100
0000
0100
0010
0000
,
0001
0000
1000
0000
0001
0000
1000
0000
0010
0100
0010
0100
0001
0100
0010
0000
,
1000
0100
1000
0100
0010
0000
0000
0000
0001
0000
0001
0100
0000
0100
0010
0000
,
1000
0000
0100
0000
1000
0000
0001
0000
0100
0010
1000
0010
0100
0010
1000
0000
,
0001
0100
0010
0100
0001
0100
0010
0100
0001
0100
0010
0100
0001
0000
1000
0100
,
1000
0000
0001
0010
0100
0010
0001
0010
0100
0010
0001
0010
0100
0000
1000
0000
,
0010
0100
0001
0100
0010
0100
0001
0100
0010
0100
0001
0100
0010
0000
1000
0100
,
1000
0000
0001
1000
0010
1000
0001
1000
0010
1000
0001
1000
0010
0000
0000
1000
,
0001
0010
0001
0010
0100
1000
0100
1000
0001
1000
0001
1000
0010
0000
0100
0001
,
0100
0000
0001
0010
0001
0010
0001
0010
0100
1000
0100
1000
0001
0000
0100
0000
,
0010
1000
0010
1000
0100
1000
0100
1000
0001
0100
0001
0100
0010
1000
0010
1000
,
0100
0000
0100
0010
0000
0010
0001
1000
0010
0100
0001
0100
0001
0100
0001
0100
,
0020
0000
0000
1000
0000
0000
0001
0000
,
0230
0000
0000
0000
0000
0000
0001
0300
1000
0100
0010
0001
0010
0100
1000
0000
,
0002
0000
0000
0100
0000
0000
0010
0000
,
2003
0000
0000
0000
0000
0000
0100
0000
3001
0100
0010
1000
0100
0010
0001
0000
,
0200
0000
0010
0010
0000
0001
0001
0000
,
0302
0000
0000
0000
0010
0000
0013
0000
0001
1000
0010
0100
0001
1000
0100
0000
,
0020
0000
0100
0100
0000
0001
0001
0000
,
0230
0000
0000
0000
1000
0000
1000
0300
0001
0010
0100
1000
0001
0100
0010
1000
,
0001
0100
0001
0100
0001
0100
0001
0100
0001
0100
0001
0100
0001
0100
0001
0100
,
0001
0100
0001
0100
0001
0100
0001
0100
0001
0100
0001
0100
0001
0100
0001
0100
,
0001
0100
0001
0100
0001
0100
0001
0100
0001
0100
0001
0100
0001
0100
0001
0100
,
0001
0100
0001
0100
0001
0100
0001
0100
0001
0100
0001
0100
0001
0100
0001
0100
,
0001
0100
0001
0100
0001
0100
0001
0100
0001
0100
0001
0100
0001
0100
0001
0100
,
0001
0100
0001
0100
0001
0100
0001
0100
0001
0100
0001
0100
0001
0100
0001
0100
,
0001
0100
0001
0100
0001
0100
0001
0100
0001
0100
0001
0100
0001
0100
0001
0100
,
0001
0100
0001
0100
0001
0100
0001
0100
0001
0100
0001
0100
0001
0100
0001
0100
,
0001
0000
0000
0000
;

//---------------dance-double - ----------------
#NOTEDATA:;
#CHARTNAME:;
#STEPSTYPE:dance-double;
#DESCRIPTION:;
#CHARTSTYLE:;
#DIFFICULTY:Challenge;
#METER:9;
#RADARVALUES:0.608208,0.849399,0.177830,0.031382,0.439344,407.000000,390.000000,17.000000,3.000000,0.000000,0.000000,0.000000,0.000000,0.000000,0.608208,0.849399,0.177830,0.031382,0.439344,407.000000,390.000000,17.000000,3.000000,0.000000,0.000000,0.000000,0.000000,0.000000;
#CREDIT:Ben Speirs;
#NOTES:
00000000
00000000
00000000
00000000
,
00000000
00000000
00000000
00000000
,
00000000
00000000
00000000
00000000
,
00000000
00000000
00000000
00000000
,
00010000
00001000
00000100
00001000
00010000
00001000
00010000
00000000
,
00001000
00010000
01000000
00010000
00001000
00000000
00011000
00000000
,
00001000
00010000
00100000
00010000
00100000
00010000
00001000
00000000
,
00010000
00000000
00001000
00000000
00000010
00000000
00001000
00000000
00010000
00000000
00000000
00000000
00001000
00010000
00001000
00010000
,
00100000
10000000
00100000
10000000
01000000
00100000
00010000
00100000
,
00010000
01000000
00001000
00010000
00000100
00001000
00001100
00000000
,
00000101
00000100
00000010
00001000
00000100
00000010
00000001
00000100
,
00001000
00000100
00000010
00001000
00000100
00010000
00001000
00000000
,
00011000
00010000
00001000
00100000
00010000
01000000
00100000
10000000
,
01000000
00100000
00010000
01000000
00100000
00010000
00110000
00000000
,
10100000
10000000
01000000
10000000
00010000
01000000
00100000
00010000
,
00001000
00000000
00000010
00000000
00000001
00000000
00001000
00000000
00000010
00000100
00000010
00000000
00001000
00000001
00001000
00000001
,
00000200
00000000
00000010
00000000
00000310
00000100
00000001
00001000
,
00000010
00000010
00001000
00001000
00000100
00010000
00001000
00100000
,
00110000
00000000
00010000
10000000
00010000
00010000
10000000
10000000
,
00100000
01000000
00010000
10000000
00100000
01000000
00010000
00000000
,
10000000
01000000
10000000
00000000
01000000
00100000
01000000
00000000
00100000
00010000
00100000
00000000
00010000
00000000
01000000
00000000
,
00100000
01000000
00100000
00000000
10000000
00100000
10000000
00000000
01000000
10000000
01000000
00000000
10000000
00000000
00010000
00000000
,
01000000
00000000
00000000
00000000
,
00000000
00000000
00000000
00000000
00000000
00000000
00000000
00000000
00001000
00010000
00001000
00010000
00001000
00010000
00001000
00010000
,
00000100
00001000
00000100
00001000
00000100
00000000
00000000
00000000
00000010
00000000
00000000
00000001
00000000
00000000
00001000
00000000
,
00000010
00000000
00000000
00000000
00000100
00000000
00000000
00000000
00000001
00000100
00000001
00000100
00000001
00000100
00000001
00000000
,
00001000
00000100
00001000
00000100
00001000
00000000
00000000
00000000
00000001
00000000
00000000
00001000
00000000
00000000
00000010
00000000
,
00000100
00000000
00000000
00000000
00001000
00000000
00000000
00000000
00010000
00001000
00010000
00001000
00010000
00001000
00010000
00000000
,
00001000
00100000
00001000
00100000
00001000
00000000
00000000
00000000
00100000
00000000
00000000
00010000
00000000
00000000
01000000
00000000
,
00100000
00000000
00000000
00000000
10000000
00000000
00000000
00000000
00010000
00100000
00010000
00100000
00010000
00100000
00010000
00000000
,
10000000
01000000
10000000
01000000
10000000
00000000
00000000
00000000
01000000
00000000
00000000
10000000
00000000
00000000
00100000
00000000
,
01000000
00000000
00000000
00000000
00010000
00000000
00000000
00000000
10000000
01000000
10000000
01000000
00100000
00010000
00100000
00000000
,
00010000
10000000
00010000
10000000
00010000
10000000
00010000
10000000
00010000
10000000
00010000
10000000
00010000
00000000
10000000
01000000
,
10000000
00000000
00010000
01000000
00010000
01000000
00010000
00000000
10000000
01000000
10000000
01000000
00100000
00000000
00000000
00000000
,
00010000
00000000
01000000
00000000
00010000
00000000
01000000
00000000
00001000
00010000
00001000
00010000
00001000
00000000
00010000
00000100
,
00010000
00000000
00000100
00001000
00000100
00000000
00001000
00000000
00000010
00000100
00000010
00000100
00000010
00000000
00000000
00000000
,
00000100
00000000
00000001
00000000
00000100
00000000
00000010
00000000
00001000
00000100
00001000
00000100
00001000
00000000
00000001
00000100
,
00000001
00000000
00001000
00000001
00001000
00000001
00001000
00000000
00000001
00000010
00000001
00000010
00000001
00000000
00000000
00001000
,
00000100
00000000
00010000
00000000
00001000
00000000
00100000
00000000
00010000
00100000
00010000
00100000
00010000
00000000
10000000
00100000
,
10000000
00000000
00010000
01000000
00010000
01000000
00010000
01000000
00100000
10000000
00100000
10000000
01000000
00000000
00000000
00000000
,
11000000
00000000
00000000
01100000
00000000
00000000
00110000
00000000
,
10010000
00000000
00000000
00000000
00000000
00000000
00000000
00000000
00010000
01000000
00010000
01000000
00001000
00010000
00001000
00000000
,
00010000
00000000
00000000
00000100
00000000
00000000
00001100
00000000
,
00000101
00000000
00000000
00000000
00000000
00000000
00000000
00000000
00000001
00000100
00000001
00000100
00000010
00001000
00000001
00000000
,
00001000
00000000
00000000
00000001
00000000
00000000
00001100
00000000
,
00010100
00000000
00000000
00000000
00000000
00000000
00000000
00000000
00001000
00010000
00001000
00010000
00000100
00010000
00001000
00000000
,
00100000
00000000
00000000
00010000
00000000
00000000
01000000
00000000
,
00100000
00000000
00000000
00000000
00000000
00000000
00000000
00000000
10000000
00100000
10000000
00010000
10000000
00100000
10000000
00000000
,
00020000
00000000
00000000
01030000
,
00000000
00010000
10000000
01000000
,
20010000
00000000
00000000
30100000
,
10000000
00000000
01000000
00100000
00010000
00000000
01000000
00001000
,
00010000
00000000
00000100
00000100
00000000
00001000
00001000
00000000
,
00000001
00000001
00000000
00000100
00000100
00000000
00000010
00000000
,
00000100
00000000
00000000
00000001
00000100
00000010
00001000
00000000
,
00000000
00000100
00000100
00010000
00010000
00000000
00000000
00000000
,
10100000
00000000
00000000
00000000
;

//---------------dance-single - ----------------
#NOTEDATA:;
#CHARTNAME:;
#STEPSTYPE:dance-single;
#DESCRIPTION:;
#CHARTSTYLE:;
#DIFFICULTY:Medium;
#METER:6;
#RADARVALUES:0.352671,0.468634,0.094145,0.167369,0.000000,236.000000,227.000000,9.000000,16.000000,0.000000,0.000000,0.000000,0.000000,0.000000,0.352671,0.468634,0.094145,0.167369,0.000000,236.000000,227.000000,9.000000,16.000000,0.000000,0.000000,0.000000,0.000000,0.000000;
#CREDIT:Ben Speirs;
#NOTES:
0000
0000
0000
0000
,
0000
0000
0000
0000
,
0000
0000
0000
0000
,
0000
0000
0000
0000
,
0001
0000
0100
0000
0010
0100
0010
0000
,
0100
0010
1000
0000
,
1000
0000
0100
0000
0010
0100
0010
0000
,
0100
0010
0001
0000
,
0001
1000
0010
0100
,
0001
0100
0001
0100
0001
0000
0101
0000
,
1001
0000
1000
0000
0100
1000
0100
0000
,
1000
0010
1000
0010
1000
0000
0000
0000
,
1001
0000
0001
0000
0010
0001
0010
0000
,
0001
0100
0001
0100
0001
0000
0101
0000
,
1001
0000
1000
0000
0010
1000
0010
0000
,
1000
0100
1000
0100
1000
0000
0000
0000
,
0002
0000
0103
0100
,
0001
0000
1000
0000
0010
0100
0010
0000
,
2000
0000
0100
3100
,
1000
0000
0001
0000
1000
0100
0010
0000
,
0001
0100
0001
0100
0010
0100
0010
0000
,
1000
0100
1000
0100
0010
0100
0010
0000
,
1001
0000
0000
0000
,
0000
0000
0000
0000
0001
1000
0001
1000
,
0020
0130
0001
1000
,
0020
0000
1030
0000
0001
0010
0100
0000
,
2000
3100
1000
0010
,
0200
0000
0301
0000
1000
0100
0010
0000
,
0001
1000
0010
0000
0100
0000
0001
1000
,
0001
0000
0100
0000
0010
1000
0010
0000
,
1000
0100
0010
0000
0001
0000
0100
0001
,
0100
0000
0010
0000
1000
0100
1000
0000
,
0002
0203
0310
1001
,
1100
0000
0001
1000
0001
0000
0100
0000
,
0001
1000
0001
0000
1000
0100
1000
0000
,
0001
0000
0010
0000
0001
1000
0010
0000
,
0100
0000
0100
0000
0010
1000
0010
0000
,
0100
0000
0001
0000
1000
0100
0010
0000
,
0001
1000
0001
1000
0010
0100
0001
0000
,
1000
0100
1000
0001
0010
0001
0100
0000
,
0002
0000
0000
0100
0000
0000
0100
0000
,
0103
0000
0000
0000
0001
0100
0001
0000
,
2000
0000
0000
0100
0000
0000
0100
0000
,
3100
0000
0000
0000
1000
0100
1000
0000
,
0020
0000
0000
1000
0000
0000
0100
0000
,
0130
0000
0000
0000
0010
0100
0010
0000
,
0200
0000
0000
0010
0000
0000
0001
0000
,
0301
0000
0000
0000
0001
0100
0001
0000
,
2000
0000
0000
3100
,
0000
0100
1000
0001
,
0200
0000
0000
0301
,
0000
0000
1000
0000
0001
0000
0010
0100
,
0020
0000
0000
0031
,
0000
0000
0001
0000
1000
0000
0001
0100
,
0002
0000
0000
0103
,
0001
1000
0010
0000
,
1001
0000
0000
0000
;

//---------------dance-single - ----------------
#NOTEDATA:;
#CHARTNAME:;
#STEPSTYPE:dance-single;
#DESCRIPTION:;
#CHARTSTYLE:;
#DIFFICULTY:Easy;
#METER:3;
#RADARVALUES:0.225650,0.263607,0.031382,0.000000,0.000000,151.000000,148.000000,3.000000,0.000000,0.000000,0.000000,0.000000,0.000000,0.000000,0.225650,0.263607,0.031382,0.000000,0.000000,151.000000,148.000000,3.000000,0.000000,0.000000,0.000000,0.000000,0.000000,0.000000;
#CREDIT:Ben Speirs;
#NOTES:
0000
0000
0000
0000
,
0000
0000
0000
0000
,
0000
0000
0000
0000
,
0000
0000
0000
0000
,
1000
0010
0100
0100
,
0010
1000
0100
0000
,
0010
0001
0100
0100
,
0001
0010
0100
0000
,
0010
0010
0001
0001
,
1000
0001
0100
0000
,
0001
0001
1000
1000
,
0010
1000
0100
0000
,
1000
1000
0100
0100
,
1000
0001
0100
0000
,
0001
0001
0100
0100
,
0001
0010
0100
0000
,
1001
0000
0001
1000
,
0010
0010
0100
0000
,
1001
0000
1000
0001
,
0100
0100
0001
0000
,
0001
0100
0001
1000
,
1000
0100
1000
0001
,
0001
0000
0000
0000
,
0000
0000
0100
0000
,
0001
0001
0010
0000
,
0001
1000
0001
0000
,
1000
1000
0010
0000
,
1000
0100
1000
0000
,
0100
0100
0010
0000
,
0100
1000
0001
0000
,
0100
0100
0001
0000
,
0100
0001
1000
0000
,
0000
0000
0000
0001
,
1000
0010
0100
0001
,
1000
0000
0000
0001
,
1000
0100
0010
0001
,
0100
0000
0000
0001
,
0100
0010
1000
0001
,
1000
0000
0000
0100
,
1000
0010
0100
0100
,
0001
0000
1000
0000
,
0010
0000
0100
0100
,
0100
0000
0001
0000
,
1000
0000
0010
0010
,
0010
0000
1000
0100
,
0010
0000
0001
0001
,
0100
0000
0001
0100
,
0010
0000
1000
1000
,
0100
0000
0000
0000
,
0000
0000
0000
0010
,
0010
0000
0000
0000
,
0000
0000
0000
0001
,
0001
0000
1000
0000
,
0010
0000
0100
0000
,
0001
0001
1000
1000
,
0010
0010
0000
0000
,
1001
0000
0000
0000
;

//---------------dance-single - ----------------
#NOTEDATA:;
#CHARTNAME:;
#STEPSTYPE:dance-single;
#DESCRIPTION:;
#CHARTSTYLE:;
#DIFFICULTY:Beginner;
#METER:2;
#RADARVALUES:0.113572,0.146448,0.031382,0.000000,0.000000,76.000000,73.000000,3.000000,0.000000,0.000000,0.000000,0.000000,0.000000,0.000000,0.113572,0.146448,0.031382,0.000000,0.000000,76.000000,73.000000,3.000000,0.000000,0.000000,0.000000,0.000000,0.000000,0.000000;
#CREDIT:Ben Speirs;
#NOTES:
0000
0000
0000
0000
,
0000
0000
0000
0000
,
0000
0000
0000
0000
,
0000
0000
0000
0000
,
0001
0000
1000
0000
,
0010
0000
0000
0000
,
1000
0000
0001
0000
,
0100
0000
0000
0000
,
0001
0001
0000
0000
,
0001
0000
0000
0000
,
1000
1000
0000
0000
,
1000
0000
0000
0000
,
1001
0000
0000
0000
,
0001
0000
0000
0100
,
0100
0000
0000
0000
,
0001
0000
0000
0000
,
1000
0000
1000
0000
,
1000
0000
0000
0000
,
0010
0000
0010
0000
,
0010
0000
0000
0000
,
0100
0000
0100
0000
,
0100
0000
0000
0000
,
0001
0000
0000
0000
,
0000
0000
0000
0000
,
1001
0000
0000
0000
,
1000
0000
0010
0000
,
0010
0000
0000
0000
,
1000
0000
0000
0000
,
0001
0000
0000
0000
,
0001
0000
0100
0000
,
0100
0000
0000
0000
,
0001
0000
0000
0000
,
0000
0000
0000
1000
,
1000
0000
0000
0001
,
0001
0000
0000
0100
,
0100
0000
0000
0010
,
0010
0000
0000
1000
,
1000
0000
0000
0100
,
0100
0000
0000
0010
,
0010
0000
0010
0000
,
0010
0000
0000
0000
,
0001
0000
0001
0000
,
0001
0000
0000
0000
,
1000
0000
1000
0000
,
1000
0000
0000
0000
,
0010
0000
0010
0000
,
0010
0000
0000
0000
,
0100
0000
0000
0000
,
1001
0000
0000
0000
,
0000
0000
0000
0001
,
0001
0000
0000
0000
,
0000
0000
0000
1000
,
1000
0000
0000
0000
,
0010
0000
0000
0010
,
0010
0000
0000
0000
,
0100
0000
0000
0000
,
0001
0000
0000
0000
;
