#TITLE:King;
#SUBTITLE:;
#ARTIST:Years & Years;
#TITLETRANSLIT:;
#SUBTITLETRANSLIT:;
#ARTISTTRANSLIT:;
#GENRE:Usurping Pop;
#CREDIT:;
#BANNER:King.png;
#BACKGROUND:King-bg.png;
#LYRICSPATH:;
#CDTITLE:;
#MUSIC:King.ogg;
#OFFSET:0.010000;
#SAMPLESTART:47.983829;
#SAMPLELENGTH:13.714000;
#SELECTABLE:YES;
#BPMS:0.000000=120.000000
;
#STOPS:
;
#BGCHANGES:8.000=King.avi=1.000=0=0=1=====,
99999=-nosongbg-=1.000=0=0=0 // don't automatically add -songbackground-
;
#KEYSOUNDS:;
#ATTACKS:;

//---------------dance-single - ----------------
#NOTES:
     dance-single:
     :
     Hard:
     8:
     0.477376,0.456914,0.088361,0.168688,0.212869,384.000000,11.000000,21.000000,0.000000,0.000000,0.000000,0.477376,0.456914,0.088361,0.168688,0.212869,384.000000,11.000000,21.000000,0.000000,0.000000,0.000000:
0000
0000
0000
0000
,
0000
0000
0000
0000
,
0000
0000
0000
0000
,
0000
0000
0000
0000
,
1000
0000
0000
0100
1000
0000
0001
0000
0001
0000
0000
0100
0001
0000
1000
0000
,
1000
0000
0000
0010
1000
0000
0001
0000
0001
0000
0000
0010
0001
0000
1000
0000
,
1000
0000
0000
0100
1000
0000
0001
0000
0100
0000
0000
0010
0100
0000
0001
0000
,
1000
0000
0000
0100
0010
0000
0001
0000
1000
0000
0000
0010
1000
0000
0001
0000
,
0200
0310
2000
3001
,
0020
0000
0031
1000
0010
0000
1000
0100
,
0010
0001
1000
0010
0100
0000
0001
1000
,
0020
0100
0001
1030
,
0020
0130
0002
1003
,
0200
0000
1300
0001
0100
0000
0001
0010
,
0100
1000
0001
0100
0010
0000
1000
0001
,
0200
0010
1000
0301
,
1000
0001
0100
0001
1000
0100
0010
0000
,
0001
1000
0001
0100
0001
1000
0010
0000
,
0100
0010
1000
0100
0010
0001
1000
0000
,
0001
0100
1000
0100
0010
1000
0001
0000
,
1000
0100
0010
0001
1000
0010
0100
0001
,
1000
0100
1000
0001
0010
0001
1000
0010
,
0100
0001
0010
0100
1000
0010
1000
0001
,
0200
0000
0000
0300
,
1002
0000
0010
0000
2003
0000
3010
0100
,
0010
1000
0001
0000
1000
0100
0001
0100
,
2000
0000
0000
0000
3010
0000
0010
0000
0100
0000
0000
0001
0000
0000
1000
0000
,
0100
0000
0110
0000
1000
0010
1010
0000
,
2001
0000
0100
0000
3002
0000
0103
0010
,
0100
0001
1000
0000
0001
0010
1000
0010
,
0002
0000
0000
0000
0103
0000
0100
0000
0010
0000
0000
1000
0000
0000
0001
0000
,
0010
0000
0110
0000
0001
0100
0010
1000
,
0001
0000
0000
0010
0001
0000
1000
0000
1000
0000
0000
0010
1000
0000
0001
0000
,
0001
0000
0000
0100
0001
0000
1000
0000
1000
0000
0000
0100
1000
0000
0001
0000
,
0001
0000
0000
0010
0001
0000
1000
0000
0010
0000
0000
0100
0010
0000
1000
0000
,
0001
0000
0000
0010
0100
0000
1000
0000
0001
0000
0000
0100
0001
0000
1000
0000
,
0100
0000
0010
0001
0010
0000
0100
0000
1000
0000
0000
0001
0000
0000
0100
0000
,
0010
0000
1000
0100
1000
0000
0010
0000
1000
0000
0000
0001
0000
0000
0100
0000
,
0010
0000
1000
0001
1000
0000
0100
0000
0010
0000
0000
0001
0000
0000
1000
0000
,
0010
0000
0100
0001
0100
0000
0010
0000
1000
0000
0000
0001
0000
0000
0010
0000
,
2001
0000
0100
0000
3002
0000
0103
0010
,
0100
0001
1000
0000
0001
0010
1000
0010
,
0002
0000
0000
0000
0103
0000
0100
0000
0010
0000
0000
1000
0000
0000
0001
0000
,
0010
0000
0110
0000
0001
0100
0101
0000
,
1002
0000
0010
0000
2003
0000
3010
0100
,
0010
1000
0001
0000
1000
0100
0001
0100
,
2000
0000
0000
0000
3010
0000
0010
0000
0100
0000
0000
0001
0000
0000
1000
0000
,
0100
0000
0110
0000
1000
0010
0100
0001
,
1000
0000
0100
1000
0100
0000
0010
0000
0001
0000
0000
1000
0000
0000
0010
0000
,
0100
0000
0001
1000
0001
0000
0100
0000
0010
0000
0000
1000
0000
0000
0100
0000
,
0010
0000
0001
1000
0001
0000
0100
0000
0010
0000
0000
1000
0000
0000
0001
0000
,
0010
0000
0100
1000
0100
0000
0010
0000
0001
0000
0000
0000
1001
0000
0000
0000
,
0010
1000
0010
1000
0010
0000
0000
0000
1000
0001
1000
0001
1000
0000
0000
0000
,
0001
0100
0010
1000
0100
0010
0001
0000
,
1000
0100
1000
0100
1000
0000
0000
0000
0001
0100
0001
0100
0001
0000
0000
0000
,
1000
0000
0001
0000
0100
0000
0010
0000
1000
0000
0000
0001
0000
0000
0010
0000
,
0100
1000
0100
1000
0100
0000
0000
0000
1000
0001
1000
0001
1000
0000
0000
0000
,
0010
1000
0001
1000
0010
0100
0001
0000
,
0010
0100
0010
0100
0010
0000
0000
0000
0001
0100
0001
0100
0001
0000
0000
0000
,
0010
0000
0001
0000
0100
0000
0010
0000
1000
0000
0000
0100
0000
0000
0001
0000
;

//---------------dance-single - ----------------
#NOTES:
     dance-single:
     :
     Challenge:
     9:
     0.578360,0.577155,0.080328,0.072295,0.614507,485.000000,10.000000,9.000000,0.000000,0.000000,0.000000,0.578360,0.577155,0.080328,0.072295,0.614507,485.000000,10.000000,9.000000,0.000000,0.000000,0.000000:
0000
0000
0000
0000
,
0000
0000
0000
0000
,
0000
0000
0000
0000
,
0000
0000
0000
0000
,
1000
0100
0010
0100
1000
0000
0010
0000
1000
0000
0000
0001
0000
0000
0100
0000
,
0001
0100
0010
0100
0001
0000
1000
0000
0001
0000
0000
0100
0000
0000
0010
0000
,
1000
0010
0100
0010
1000
0000
0001
0000
1000
0000
0000
0100
0000
0000
0010
0000
,
0001
0010
0100
0010
0001
0000
1000
0000
0001
0000
0000
0100
0000
0000
0010
0000
,
1000
0000
0100
1000
0000
0010
1000
0000
0001
0000
0100
0001
0000
1000
0001
0000
,
0100
0000
0010
1000
0000
0001
0010
0000
0000
0000
0000
0000
0001
0010
0100
1000
,
0001
0100
0010
1000
0100
0010
0001
0000
,
1000
0000
0010
0100
0000
0100
0010
0000
1000
0000
0100
0000
0010
0000
0000
0000
,
0001
0000
0010
0001
0000
0100
0001
0000
1000
0000
0010
1000
0000
0001
1000
0000
,
0010
0000
0100
0001
0000
1000
0100
0000
0000
0000
0000
0000
1000
0100
0010
0001
,
1000
0010
0100
0001
0010
0100
1000
0000
,
0001
0000
0000
0001
0000
0000
0001
0000
1000
0000
0000
1000
0000
0000
1000
0000
,
0010
0000
0001
0000
0010
0000
0100
0010
0000
1000
0000
0100
0010
0000
0000
0000
,
0100
0000
0010
0000
0100
0000
1000
0100
0000
0010
0000
0001
1000
0000
0000
0000
,
0001
0000
1000
0000
0010
0000
1000
0001
0000
0100
0000
0001
1000
0000
0000
0000
,
1000
0000
0001
0000
0100
0000
0001
1000
0000
0100
0000
1000
0001
0000
0000
0000
,
0100
0000
0010
0000
1000
0000
0100
0010
0000
0001
0000
1000
0010
0000
1000
0000
,
0001
0000
0100
0000
0010
0000
1000
0100
0000
0010
0000
0001
1000
0000
0010
0000
,
1000
0000
0001
0000
0100
0000
0010
1000
0000
0100
0000
0010
0001
0000
1000
0000
,
0020
0001
1000
0130
,
2001
0000
0100
0000
3001
0000
0000
0000
1002
0000
0100
0000
1003
0000
0010
0100
,
0010
0100
0010
0000
1000
0000
0000
0000
0001
0000
0010
0000
0100
0000
1000
0000
,
0010
0000
0000
1000
0000
0000
0001
0000
0001
0000
0000
1000
0000
0000
0010
0000
,
0100
0000
0001
0100
0000
0001
0100
0000
0010
0000
1000
0010
0000
1000
0001
0000
,
1002
0000
0010
0000
1003
0000
0000
0000
2001
0000
0010
0000
3001
0000
0100
0010
,
0100
0010
0100
0000
0001
0000
0000
0000
1000
0000
0100
0000
0010
0000
0001
0000
,
0100
0000
0000
0001
0000
0000
1000
0000
1000
0000
0000
0001
0000
0000
0100
0000
,
0010
0000
1000
0010
0000
1000
0010
0000
0100
0000
0001
0100
0000
0001
1000
0000
,
0001
0010
0100
0010
0001
0000
0100
0000
0001
0000
0000
1000
0000
0000
0010
0000
,
1000
0010
0100
0010
1000
0000
0001
0000
1000
0000
0000
0010
0000
0000
0100
0000
,
0001
0100
0010
0100
0001
0000
1000
0000
0001
0000
0000
0010
0000
0000
0100
0000
,
1000
0100
0010
0100
1000
0000
0001
0000
1000
0000
0000
0010
0000
0000
0100
0000
,
0001
0100
0010
1000
0001
0000
1000
0000
0100
0000
0000
0010
0000
0000
0001
0000
,
1000
0100
0010
0001
1000
0000
0010
0000
0100
0000
0000
0001
0000
0000
1000
0000
,
0010
0100
0001
1000
0010
0000
0100
0000
0001
0000
0000
1000
0000
0000
0001
0000
,
0010
0100
1000
0001
0010
0000
0100
0000
1000
0000
0000
0001
0000
0000
0100
0000
,
2010
0000
0001
0000
3100
0000
0000
0000
0012
0000
1000
0000
0103
0000
0010
1000
,
0100
1000
0010
0000
1001
0000
0000
0000
0100
0000
0001
0000
0010
0000
0100
0000
,
1000
0000
0000
1000
0000
0000
1000
0000
0001
0000
0000
0001
0000
0000
0001
0000
,
0100
0000
0010
0100
0000
0010
0100
0000
0001
0000
1000
0001
0000
1000
0001
0000
,
0102
0000
1000
0000
0013
0000
0000
0000
2100
0000
0001
0000
3010
0000
0100
0001
,
0010
0001
0100
0000
1001
0000
0000
0000
0010
0000
1000
0000
0100
0000
0010
0000
,
0001
0000
0000
0001
0000
0000
0001
0000
1000
0000
0000
1000
0000
0000
1000
0000
,
0010
0000
0100
0010
0000
0100
0010
0000
1000
0000
0001
1000
0000
0001
1000
0000
,
1000
0010
0100
0001
1000
0000
0001
0000
0010
0000
0000
0100
0000
0000
1000
0000
,
0001
0010
0100
1000
0001
0000
0100
0000
0010
0000
0000
1000
0000
0000
0001
0000
,
0100
0010
1000
0001
0100
0000
0010
0000
1000
0000
0000
0001
0000
0000
1000
0000
,
0100
0010
0001
1000
0100
0000
0010
0000
0001
0000
0000
1000
0000
0000
0010
0000
,
0100
0001
0100
0001
1000
0000
0000
0000
0001
0100
0001
0100
0010
0000
0000
0000
,
0100
0001
0100
0001
1000
0000
0100
0000
0010
0000
0010
0001
0000
0001
1000
0000
,
0100
1000
0100
1000
0001
0000
0000
0000
1000
0100
1000
0100
0010
0000
0000
0000
,
0100
1000
0100
1000
0001
0000
1000
0000
0010
0000
0010
0100
0000
0100
0001
0000
,
1000
0010
1000
0010
0100
0000
0000
0000
0010
1000
0010
1000
0100
0000
0000
0000
,
1000
0010
1000
0010
0100
0000
0001
0000
1000
0000
1000
0100
0000
0100
0010
0000
,
0001
0100
0001
0100
0010
0000
0000
0000
0100
0001
0100
0001
0010
0000
0000
0000
,
0001
0100
0001
0100
0010
0000
1000
0000
0001
0000
0001
0010
0000
0010
0100
0000
;

//---------------dance-single - ----------------
#NOTES:
     dance-single:
     :
     Medium:
     5:
     0.328196,0.383967,0.192787,0.088361,0.000000,251.000000,24.000000,11.000000,0.000000,0.000000,0.000000,0.328196,0.383967,0.192787,0.088361,0.000000,251.000000,24.000000,11.000000,0.000000,0.000000,0.000000:
0000
0000
0000
0000
,
0000
0000
0000
0000
,
0000
0000
0000
0000
,
0000
0000
0000
0000
,
1001
0100
0010
0010
,
1000
0001
1000
0100
,
0010
0010
0001
1000
,
0010
1000
0001
0001
,
2000
3100
0020
0031
,
1000
0000
0010
1000
0001
0000
0100
0000
,
0010
0010
0010
0000
,
0100
0001
1000
0000
,
0100
0010
0001
1000
,
0010
0000
1000
0001
0100
0000
0000
0000
,
0010
0010
0010
0000
,
0100
0001
1000
0000
,
0010
1000
0001
0110
,
0001
1000
0100
1000
0001
0000
0100
0000
,
0010
0101
1000
0001
,
0100
0010
1000
0010
0100
0000
0001
0000
,
1000
0000
0010
0000
0100
0001
1000
0000
,
0010
0000
1000
0000
0100
0010
0001
0000
,
1000
0000
0001
0000
0100
0010
1000
0000
,
0002
0000
0003
0000
,
2001
0100
3002
0103
,
0010
0100
0001
0000
0010
0001
0100
0010
,
1000
0001
1000
0100
,
0100
0000
0010
0110
,
2001
0000
0010
0000
3002
0000
0103
0010
,
0100
0010
1000
0000
0001
0010
0001
1000
,
0100
1000
0001
0001
,
0001
0000
0110
1001
,
1100
0001
1000
0010
,
0101
1000
0001
0010
,
0110
0001
1000
0010
,
1001
0100
0001
1000
,
0001
0010
0100
0000
1000
0000
0001
0000
,
1000
0010
1000
0000
0001
0000
1000
0000
,
0100
0010
0001
0000
1000
0000
0001
0000
,
0100
0010
0100
0000
0001
0000
1000
0000
,
0120
0000
0031
0000
2000
0000
3010
0100
,
0001
0000
1000
0000
0100
0010
0100
0010
,
0001
1000
0010
0010
,
1000
1010
0001
0101
,
0120
0000
0031
0000
0200
0000
0310
1000
,
0001
0000
1000
0000
0010
1000
0100
0010
,
0001
1000
0010
0010
,
0010
0000
1001
0110
,
1001
0100
0010
0010
,
1010
0100
0001
1000
,
1100
0010
0001
1000
,
0101
1000
0001
0010
,
0001
0100
0100
0000
0010
1000
1000
0000
,
0001
0010
0010
0000
0100
0000
1000
0000
,
0010
0100
0100
0000
0001
1000
1000
0000
,
0100
0010
0010
0000
0001
0000
1001
0000
,
1000
0001
0001
0000
0100
0010
0010
0000
,
1000
0100
0100
0000
0010
0000
0001
0000
,
0100
0010
0010
0000
1000
0001
0001
0000
,
0010
0100
0100
0000
1000
0000
0101
0000
;

//---------------dance-single - ----------------
#NOTES:
     dance-single:
     :
     Easy:
     3:
     0.218032,0.263977,0.128524,0.128524,0.000000,158.000000,16.000000,16.000000,0.000000,0.000000,0.000000,0.218032,0.263977,0.128524,0.128524,0.000000,158.000000,16.000000,16.000000,0.000000,0.000000,0.000000:
0000
0000
0000
0000
,
0000
0000
0000
0000
,
0000
0000
0000
0000
,
0000
0000
0000
0000
,
1000
0001
0100
0000
,
0010
0100
0010
0000
,
0100
0001
1000
0000
,
0100
0010
0100
0000
,
0010
0001
1000
1000
,
0010
1000
0001
0000
,
0100
0100
0100
0000
,
0001
0000
1000
0000
,
0001
0010
0001
1000
,
0010
0010
0100
0000
,
0001
0001
0001
0000
,
1000
0000
0001
0000
,
0010
0000
0100
0010
,
0001
0000
0100
0010
,
1000
0000
0001
1000
,
0001
0000
1000
0001
,
1000
0000
0100
0010
,
0001
0000
0100
0001
,
1000
0000
0010
1000
,
0100
0000
0000
0000
,
2002
3003
0020
0030
,
0200
0300
0001
0100
,
0010
0010
1000
0001
,
1000
0000
0100
0000
,
2002
3003
0200
0300
,
0020
0030
1000
0010
,
0100
0100
0001
1000
,
0001
0000
0010
0000
,
0100
0001
1000
0000
,
0100
0100
0100
0000
,
1000
0001
0100
0000
,
0010
0010
0010
0000
,
1000
0010
0100
0000
,
0001
0010
0100
0000
,
1000
0001
0100
0000
,
0001
1000
0010
0000
,
2002
3003
0200
0300
,
0020
0030
1000
0010
,
0100
0100
0001
1000
,
0001
0000
0010
0000
,
2002
3003
0020
0030
,
0200
0300
0001
0100
,
0010
0010
1000
0001
,
1000
0000
0100
0000
,
0001
1000
0010
0000
,
1000
0100
0010
0000
,
0001
1000
0010
0000
,
0100
0010
1000
0000
,
0000
1001
0000
1001
,
0000
1001
0010
0010
,
0000
1001
0000
1001
,
0000
1001
0100
0100
,
0000
1001
0000
1001
,
0000
1001
0010
0010
,
0000
1001
0000
1001
,
0000
1001
0100
0100
;

//---------------dance-single - ----------------
#NOTES:
     dance-single:
     :
     Beginner:
     1:
     0.128524,0.167985,0.032131,0.000000,0.000000,108.000000,4.000000,0.000000,0.000000,0.000000,0.000000,0.128524,0.167985,0.032131,0.000000,0.000000,108.000000,4.000000,0.000000,0.000000,0.000000,0.000000:
0000
0000
0000
0000
,
0000
0000
0000
0000
,
0000
0000
0000
0000
,
0000
0000
0000
0000
,
1000
1000
0000
0000
,
0001
0001
0000
0000
,
0010
0010
0000
0000
,
0100
0100
0000
0000
,
1000
0000
1000
0000
,
0001
0000
0001
0000
,
0100
0100
0100
0000
,
0100
0000
0000
0000
,
0010
0000
0010
0000
,
1000
0000
1000
0000
,
0001
0001
0001
0000
,
0001
0000
0000
0000
,
0010
0000
0010
0000
,
0100
0000
0100
0000
,
1000
0000
1000
0000
,
0001
0000
0001
0000
,
0100
0000
0100
0000
,
0001
0000
0001
0000
,
1000
0000
1000
0000
,
0010
0000
0000
0000
,
1001
0000
0100
0000
,
0010
0000
1000
1000
,
1000
0000
0001
0000
,
0010
0000
0000
0000
,
1001
0000
0100
0000
,
0010
0000
1000
1000
,
1000
0000
0001
0000
,
0100
0000
0000
0000
,
0001
0001
0000
0000
,
1000
1000
0000
0000
,
0010
0010
0000
0000
,
0100
0100
0000
0000
,
0001
0001
0000
0000
,
1000
1000
0000
0000
,
0010
0010
0000
0000
,
0100
0100
0000
0000
,
1001
0000
0010
0000
,
0100
0000
1000
1000
,
1000
0000
0001
0000
,
0100
0000
0000
0000
,
1001
0000
0100
0000
,
0010
0000
0001
0001
,
0001
0000
1000
0000
,
0010
0000
0000
0000
,
0100
0100
0000
0000
,
0001
0001
0000
0000
,
1000
1000
0000
0000
,
0010
0010
0000
0000
,
0000
1000
0000
1000
,
0000
1000
0000
0000
,
0000
0001
0000
0001
,
0000
0001
0000
0000
,
0000
0100
0000
0100
,
0000
0100
0000
0000
,
0000
0010
0000
0010
,
0000
1000
0000
0001
;

//---------------dance-double - ----------------
#NOTES:
     dance-double:
     :
     Challenge:
     9:
     0.555409,0.625251,0.240983,0.040164,0.373524,449.000000,30.000000,5.000000,0.000000,0.000000,0.000000,0.555409,0.625251,0.240983,0.040164,0.373524,449.000000,30.000000,5.000000,0.000000,0.000000,0.000000:
// measure 0
00000000
00000000
00000000
00000000
,  // measure 1
00000000
00000000
00000000
00000000
,  // measure 2
00000000
00000000
00000000
00000000
,  // measure 3
00000000
00000000
00000000
00000000
,  // measure 4
01010000
00000000
00000000
01000000
00010000
00000000
10000000
00000000
10000000
00000000
00000000
01000000
10000000
00000000
00010000
00000000
,  // measure 5
00010000
00000000
00000000
00100000
00010000
00000000
10000000
00000000
10000000
00000000
00000000
00100000
10000000
00000000
00010000
00000000
,  // measure 6
00010000
00000000
00000000
00100000
00001000
00000000
00010000
00000000
00010000
00000000
00000000
00001000
00010000
00000000
00000100
00000000
,  // measure 7
00000100
00000000
00000000
00001000
00000001
00000000
00001000
00000000
00001000
00000000
00000000
00000010
00000100
00000000
00000001
00000000
,  // measure 8
00000101
00000000
00000000
00000100
00000000
00000000
00000010
00000000
00001010
00000000
00000000
00001000
00000000
00000000
00000100
00000000
,  // measure 9
00001100
00000000
00000000
00000100
00000000
00000010
00000001
00000000
00001000
00000000
00000000
00000000
00000001
00001000
00000001
00001000
,  // measure 10
00000010
00000100
00000001
00001000
00000100
00000000
00000010
00000000
,  // measure 11
00000001
00001000
00000100
00010000
00001000
00100000
00010000
10000000
,  // measure 12
10100000
00000000
00000000
10000000
00000000
00000000
00010000
00000000
00110000
00000000
00000000
00010000
00000000
00000000
10000000
00000000
,  // measure 13
11000000
00000000
00000000
00010000
00000000
10000000
00100000
00000000
01000000
00000000
00000000
00000000
00010000
01000000
00010000
01000000
,  // measure 14
00100000
10000000
01000000
00100000
00010000
10000000
00100000
00000000
,  // measure 15
10000000
00100000
00010000
00001000
00000010
00000001
00001000
00000000
,  // measure 16
00001100
00000000
00000100
00000000
00001000
00000000
00000100
00001000
00000000
00000001
00000000
00001000
00000001
00000000
00000000
00000000
,  // measure 17
00000101
00000000
00000001
00000000
00000100
00000000
00000001
00001000
00000000
00000001
00000000
00001000
00000001
00000000
00000000
00000000
,  // measure 18
00001000
00000100
00010000
00001000
00100000
00100000
00100000
00000000
,  // measure 19
00010000
00100000
01000000
10000000
00100000
01000000
00010000
00000000
,  // measure 20
10000000
00000000
11000000
00000000
00010000
00000000
10000000
00000000
00100000
01000000
00100000
00000000
10000000
00000000
01000000
00000000
,  // measure 21
00100000
00000000
00110000
00000000
00010000
00000000
10000000
00000000
00100000
01000000
00100000
00000000
01000000
00000000
00010000
00000000
,  // measure 22
00100000
00101000
00001000
00010000
00000100
00001100
00001000
00000010
,  // measure 23
00000200
00000001
00000010
00000310
,  // measure 24
00000101
00000000
00000000
00000100
00000010
00000000
00001000
00000000
00001000
00000000
00000000
00000100
00001000
00000000
00000001
00000000
,  // measure 25
00000001
00000000
00000000
00000010
00000001
00000000
00001000
00000000
00001000
00000000
00000100
00000000
00010000
00000000
00001000
00000000
,  // measure 26
00200000
00000000
00000000
00000000
00310000
00000000
01000000
00000000
00100000
00000000
00000000
10000000
00000000
00000000
01000000
00000000
,  // measure 27
00100000
00000000
00000000
00100000
00010000
00000000
10000000
00000000
00100000
00000000
01000000
00000000
00010000
00000000
00000000
00000000
,  // measure 28
11000000
00000000
00000000
10000000
00010000
00000000
00100000
00000000
00100000
00000000
00000000
00010000
10000000
00000000
00100000
00000000
,  // measure 29
00100000
00000000
00000000
01000000
00010000
00000000
10000000
00000000
01000000
00000000
00100000
00000000
00010000
00000000
01000000
00000000
,  // measure 30
00002000
00000000
00000000
00000000
00013000
00000000
00100000
00000000
10000000
00000000
00000000
01000000
00000000
00000000
00100000
00000000
,  // measure 31
00010000
00000000
01000000
00000000
00001000
00000000
00010000
00000000
00000100
00000000
00000000
00001000
00000000
00000000
00000010
00000000
,  // measure 32
00000100
00000001
00000100
00000001
00000100
00000000
00000010
00000000
00001000
00000000
00000000
00000100
00000000
00000000
00000010
00000000
,  // measure 33
00000001
00001000
00000001
00001000
00000001
00000000
00000010
00000000
00000100
00000000
00000000
00001000
00000000
00000000
00000010
00000000
,  // measure 34
00010000
00000100
00010000
00000100
00010000
00000000
00001000
00000000
00010000
00000000
00000000
00100000
00000000
00000000
10000000
00000000
,  // measure 35
01000000
10000000
01000000
10000000
01000000
00000000
10000000
00000000
00010000
00000000
00000000
01000000
00000000
00000000
00100000
00000000
,  // measure 36
10000000
00010000
10000000
00010000
10000000
00000000
00100000
00000000
01000000
00000000
00010000
00000000
00100000
00000000
01000000
00000000
,  // measure 37
10000000
00010000
10000000
00010000
10000000
00000000
01000000
00000000
00100000
00000000
00010000
00000000
01000000
00000000
00001000
00000000
,  // measure 38
00100000
00010000
00100000
00010000
00100000
00000000
00001000
00000000
00010000
00000000
00000100
00000000
00001000
00000000
00000010
00000000
,  // measure 39
00000100
00000001
00000100
00000001
00000100
00000000
00000010
00000000
00001000
00000000
00000001
00000000
00000010
00000000
00000000
00000000
,  // measure 40
00001100
00000000
00000000
00000100
00001000
00000000
00000001
00000000
00000001
00000000
00000000
00000100
00000001
00000000
00001000
00000000
,  // measure 41
00001000
00000000
00000000
00000010
00001000
00000000
00000001
00000000
00000010
00000000
00000100
00000000
00001000
00000000
00000010
00000000
,  // measure 42
00020000
00000000
00000000
00000000
00031000
00000000
00000100
00000000
00000001
00000000
00000000
00001000
00000000
00000000
00000100
00000000
,  // measure 43
00000010
00000000
00000000
00000010
00000100
00000000
00001000
00000000
00000010
00000000
00010000
00000000
00011000
00000000
00000000
00000000
,  // measure 44
00110000
00000000
00000000
00100000
00010000
00000000
10000000
00000000
10000000
00000000
00000000
00100000
10000000
00000000
00010000
00000000
,  // measure 45
00010000
00000000
00000000
01000000
00010000
00000000
10000000
00000000
01000000
00000000
00100000
00000000
00010000
00000000
01000000
00000000
,  // measure 46
00002000
00000000
00000000
00000000
00013000
00000000
00100000
00000000
10000000
00000000
00000000
00010000
00000000
00000000
00100000
00000000
,  // measure 47
01000000
00000000
10000000
00000000
00100000
00000000
01000000
00000000
00010000
00000000
00000000
10000000
00000000
00000000
01000000
00000000
,  // measure 48
00100000
00010000
00100000
01000000
00100000
00000000
00010000
00000000
10000000
00000000
00100000
00000000
01000000
00000000
00000000
00000000
,  // measure 49
00010000
01000000
00100000
01000000
00010000
00000000
10000000
00000000
01000000
00000000
00100000
00000000
00010000
00000000
00000000
00000000
,  // measure 50
00100000
00001000
00010000
00001000
00100000
00000000
00001000
00000000
00010000
00000000
00000100
00000000
00001000
00000000
00000000
00000000
,  // measure 51
00000010
00001000
00000100
00001000
00000010
00000000
00000100
00000000
00000001
00000000
00001000
00000000
00000100
00000000
00000000
00000000
,  // measure 52
00000010
00000011
00001001
00000000
00000010
00001010
00001001
00000000
,  // measure 53
00000010
00000011
00001001
00001000
00000100
00010000
00001000
00000000
,  // measure 54
00100000
00101000
00011000
00000000
00001000
00011000
00010010
00000000
,  // measure 55
00010000
00000000
00011000
00000000
00110000
00000000
00100000
00000000
00010000
00000000
00000000
10000000
00000000
00000000
00100000
00000000
,  // measure 56
01000000
00010000
01000000
00010000
01000000
00000000
00100000
00000000
10000000
01000000
10000000
01000000
10000000
00000000
00010000
00000000
,  // measure 57
00100000
01000000
00100000
01000000
00100000
00000000
00010000
00000000
10000000
00000000
00100000
00000000
01000000
00000000
00010000
00000000
,  // measure 58
00100000
00001000
00100000
00001000
00100000
00001000
00010000
00000000
00000100
00010000
00000100
00010000
00000100
00010000
00001000
00000000
,  // measure 59
01000000
00001000
01000000
00001000
01000000
00001000
01000000
00000000
00001000
00000000
00000000
00010000
00000000
00000000
00000010
00000000
;
