#TITLE:In The Pit;
#SUBTITLE:(ft. Terror Bass);
#ARTIST:Lil Jon & Skellism;
#TITLETRANSLIT:;
#SUBTITLETRANSLIT:;
#ARTISTTRANSLIT:;
#GENRE:;
#CREDIT:;
#BANNER:In The Pit.png;
#BACKGROUND:In The Pit-bg.png;
#LYRICSPATH:;
#CDTITLE:;
#MUSIC:In The Pit.ogg;
#OFFSET:0.000000;
#SAMPLESTART:51.172955;
#SAMPLELENGTH:14.694003;
#SELECTABLE:YES;
#BPMS:0.000000=150.000000
;
#STOPS:
;
#BGCHANGES:8.000=In The Pit.avi=1.000=0=0=1=====,
99999=-nosongbg-=1.000=0=0=0 // don't automatically add -songbackground-
;
#KEYSOUNDS:;
#ATTACKS:;

//---------------dance-single - ----------------
#NOTES:
     dance-single:
     :
     Hard:
     9:
     0.602642,0.811955,0.233897,0.375905,0.271487,505.000000,477.000000,28.000000,45.000000,0.000000,0.000000,0.602642,0.811955,0.233897,0.375905,0.271487,505.000000,477.000000,28.000000,45.000000,0.000000,0.000000:
0000
0000
0000
0000
,
0000
0000
0000
0000
,
0000
0000
0000
0000
,
0000
0000
0000
0000
,
2000
0000
3010
0100
0010
1000
0001
0000
,
1000
0000
0100
0010
0100
1000
0001
0001
,
0100
0000
0010
1000
0010
0100
0010
0000
,
1000
0000
0001
0100
0010
0100
0001
0000
,
2000
0000
3200
0000
,
0320
0000
0032
0000
,
0203
0000
0320
0000
,
2030
0000
3200
0000
,
0320
0032
0203
0320
,
2030
3200
0320
0032
,
0203
0320
2030
3200
,
2300
3002
0203
0302
,
1003
0000
1000
0100
1000
0001
1000
0100
,
1100
1001
0101
1001
,
0001
0000
0001
0010
0001
1000
0001
0010
,
0011
1001
1010
1001
,
0001
0000
1000
0100
0001
0100
1000
0001
,
0200
0320
2030
3001
,
1001
0000
1000
0010
0100
0010
0001
0010
,
2000
0000
3100
1000
0002
0000
0103
0000
,
1001
1000
0100
1000
0001
0001
0100
0001
,
1000
1000
0010
1000
0001
0001
0010
0001
,
0100
0100
0010
0100
1000
1000
0100
0010
,
1000
1000
0010
1000
0001
0001
1000
0100
,
0010
0100
0010
0100
0010
0001
0010
0001
,
1000
0010
0100
0001
1000
0100
0010
0001
,
2002
0000
0000
0000
,
0000
0000
0000
3003
,
0101
0100
0010
0100
0010
0100
1100
0010
,
0001
0010
0001
0010
0100
1000
1001
0000
,
1010
0100
0001
0100
0001
0100
0011
1000
,
0100
1000
0100
1000
0010
0010
0100
0000
,
1001
1000
0010
0100
0010
0100
1001
1000
,
0010
0100
0010
0100
0001
0001
1000
0000
,
1001
0001
0100
0010
0100
0010
1001
0001
,
0100
0010
0100
0010
1000
1000
0001
0000
,
1000
0000
0000
0000
0100
0000
0000
0000
0010
0000
0000
0000
0001
0000
0000
0000
0010
0000
0000
0000
0100
0000
0000
0000
1000
0000
0000
0000
0000
0000
0000
0000
0000
0000
0000
0000
0001
0000
0000
0100
0000
0000
0002
0000
0000
0000
0000
0000
,
0000
0100
0010
1003
,
1001
0000
1000
0000
0010
0000
0100
0000
0001
0000
1000
0000
0010
1000
0010
0000
,
1000
0100
0010
0001
0100
0100
0001
1000
,
0001
0010
0001
0010
0001
0010
0001
0010
0001
0000
0000
0000
2001
0000
0000
0000
,
3100
1000
0010
0100
0001
1000
0001
0000
,
1000
0100
1000
0000
0001
0000
1000
0000
0001
0000
1000
0000
0100
1000
0100
0000
,
1000
0001
1000
0010
0100
0001
1001
0000
,
0001
0000
0100
0001
0100
0000
0001
0000
1000
0000
1000
0100
0000
0100
0010
0000
,
0001
0010
0001
0000
1000
0000
0001
0000
0100
0000
0100
0001
0000
0001
1000
0000
,
0010
1000
0010
0000
1000
0000
0001
0000
0010
0000
0010
0100
0000
0100
1000
0000
,
0100
1000
0100
0000
1000
0000
0010
0000
0100
0000
0100
0010
0000
0010
1000
0000
,
0001
0010
0001
0000
1000
0000
0001
0000
0100
0000
0010
1000
0000
0010
1000
0000
,
0001
1000
0001
0000
1000
0000
0100
0000
0010
0000
0001
0100
0000
0001
0100
0000
,
0010
1000
0010
0000
0100
0000
0001
0000
1000
0000
0100
0010
0000
0100
0010
0000
,
0001
0000
0000
0010
0000
0000
0001
0000
0000
0010
0000
0000
0100
0000
0000
0010
0000
0000
0100
0000
0000
0010
0000
0000
0100
0000
0000
0000
1000
0000
0000
0000
0010
0000
0000
0000
0100
0000
0000
0000
0001
0000
0000
0000
1000
0000
0000
0000
,
0010
0000
0000
0000
0010
0000
0000
0000
0100
0000
0000
0000
0010
0000
0000
0000
0010
0000
0000
0000
0100
0000
0000
0000
1001
0000
0000
0000
0000
0000
0000
0000
0000
0000
0000
0000
1000
0000
0000
0100
0000
0000
2000
0000
0000
0000
0000
0000
,
0000
0000
0000
0000
0100
0000
0000
0000
0010
0000
0000
0000
0001
3000
0000
0000
,
1000
0100
1000
0000
0010
0000
0100
0000
0001
0000
1000
0000
0001
0100
0001
0000
,
1000
0000
0100
0000
0010
0000
0001
0000
0100
0010
0100
0010
1000
0000
0000
0000
,
0010
0100
0010
0100
0010
0100
0010
0100
0010
0100
0010
0100
0002
0000
0000
0000
,
0103
0010
0100
0001
1000
1000
0100
0000
,
1000
0100
0010
0000
0001
0000
1000
0000
0001
0000
1000
0000
0100
0010
0001
0000
,
1000
0000
0000
0001
0000
0000
1000
0000
0000
0001
0000
0000
0100
0000
0001
0000
0010
0000
0100
0000
1000
0000
0010
0000
,
0200
0000
0301
1000
0020
0000
1030
0100
,
2000
0000
3001
0100
0001
0000
1001
0000
,
1020
0000
0130
0010
2000
0000
3100
1000
,
0002
0000
0013
0001
0100
0000
0101
0000
,
1001
1000
0100
1000
0001
0001
0100
0001
,
1000
1000
0100
1000
0001
0001
0200
0000
,
0310
1000
0200
0000
0310
0001
0200
0000
,
0310
0000
0000
1000
0010
0000
1000
0000
0100
0000
0010
0000
0001
1000
0001
1000
,
0100
0000
0000
0000
;

//---------------dance-single - ----------------
#NOTES:
     dance-single:
     :
     Medium:
     7:
     0.383065,0.511231,0.217190,0.200483,0.037591,321.000000,295.000000,26.000000,24.000000,0.000000,0.000000,0.383065,0.511231,0.217190,0.200483,0.037591,321.000000,295.000000,26.000000,24.000000,0.000000,0.000000:
0000
0000
0000
0000
,
0000
0000
0000
0000
,
0000
0000
0000
0000
,
0000
0000
0000
0000
,
0002
0000
0103
0000
0001
0100
0010
0000
,
0100
0010
1000
0100
,
1000
0000
0001
0000
1000
0010
0100
0000
,
0010
1000
0100
0010
,
2002
0000
0000
0000
,
0000
0000
0000
3003
,
0020
0000
0000
0000
,
0000
0000
0000
0030
,
0200
0300
0002
0003
,
2000
3000
0200
0300
,
0020
0030
0002
0003
,
2000
3000
0020
0030
,
1000
0100
1000
0100
,
0010
0001
2000
3000
,
0001
0100
0001
0100
,
0010
1000
0002
0003
,
1000
0010
1000
0010
,
0100
0001
2000
3000
,
0001
0010
0001
0010
,
0100
1000
0002
0003
,
1000
0100
0000
0000
0001
0100
0000
0000
,
1000
0010
0000
0000
0001
0010
0000
0000
,
1000
0100
0000
0000
0010
0001
0000
0000
,
0001
0100
0000
0000
0010
1000
0000
0000
,
0001
0010
0001
0000
0001
0100
0001
0000
,
1000
0010
1000
0000
1000
0100
1000
0000
,
2002
0000
0000
0000
,
0000
0000
0000
3003
,
0101
0000
1000
0010
1000
0000
1100
0000
,
0001
0010
0001
0000
0100
0000
0100
0000
,
1010
0000
0100
0001
0100
0000
0011
0000
,
0100
1000
0100
0000
0001
0000
0001
0000
,
1000
0010
0100
0000
1001
0000
0001
0010
,
0100
1001
1000
0001
,
0100
0001
1000
0000
1010
0000
1000
0001
,
0010
0011
0200
0300
,
0001
0100
0001
0100
0020
0000
1030
0000
,
0000
0000
0001
0000
1000
0100
1000
0000
,
0010
0100
0010
0100
0010
1000
0200
0000
,
0300
0010
0011
0001
,
1000
0100
1000
0100
1000
0100
0020
0000
,
0030
0001
1000
0010
,
0100
0001
0100
0001
0100
0001
2000
0000
,
3010
0001
1001
0000
,
0101
0000
0000
0000
0100
0000
0000
0000
0010
0000
0000
0010
0000
0000
1000
0000
,
0100
0000
0000
0000
0010
0000
0000
0000
0100
0000
0000
0100
0000
0000
1000
0000
,
0001
0000
0000
0000
1000
0000
0000
0000
0010
0000
0000
0010
0000
0000
0100
0000
,
0001
0000
1000
0000
0001
1000
0010
0000
,
0100
0000
0000
0000
0100
0000
0000
0000
0010
0000
0000
0010
1000
0000
0100
0000
,
1000
0000
0000
0000
0001
0000
0000
0000
0100
0000
0000
0100
0001
0000
1000
0000
,
0010
0100
0010
0100
0001
0010
0001
0010
,
0200
0000
1000
1300
,
0001
1000
0001
1000
0001
1000
0001
0000
0000
0110
0000
0000
,
1001
0000
1000
0000
0010
1000
0100
0000
,
0010
0001
0100
0001
0010
0001
0100
0000
,
0001
0000
1000
0000
0010
0100
0001
0000
,
1000
0010
1000
0100
1000
0010
1000
0000
,
0001
0000
0010
0000
0001
1000
0010
0000
,
0100
0001
0100
0010
0100
0001
1000
0100
,
0010
0100
1000
0010
0100
0100
0100
0000
,
1001
0000
0101
0000
,
1010
0000
1100
0110
,
1001
0001
0101
1000
,
1010
0000
0001
0000
0011
0000
0100
0010
,
0001
0000
0010
0000
1001
0000
0010
1000
,
0100
0000
0001
0000
0100
0001
1000
0001
,
0100
0000
0010
0000
1000
0000
0010
1000
,
0100
0000
0010
0000
0001
1000
0100
0000
,
0101
0000
0000
0000
;

//---------------dance-double - ----------------
#NOTES:
     dance-double:
     :
     Challenge:
     9:
     0.593095,0.781883,0.242250,0.183776,0.225543,497.000000,468.000000,29.000000,22.000000,0.000000,0.000000,0.593095,0.781883,0.242250,0.183776,0.225543,497.000000,468.000000,29.000000,22.000000,0.000000,0.000000:
00000000
00000000
00000000
00000000
,
00000000
00000000
00000000
00000000
,
00000000
00000000
00000000
00000000
,
00000000
00000000
00000000
00000000
,
10010000
00000000
10000000
01000000
00010000
01000000
10000000
00000000
,
00010000
00000000
10000000
00100000
01000000
00010000
00100000
00100000
,
00001000
00000000
00100000
00001000
00010000
00001000
00100000
00000000
,
00001000
00000000
00010000
00000100
00001000
00000010
00000100
00000100
,
00000002
00000003
00000020
00000030
,
00000200
00000300
00002000
00003000
,
00020000
00030000
00200000
00300000
,
02000000
03000000
20000000
30000000
,
20000000
30000000
00200000
00300000
,
02000000
03000000
00020000
00030000
,
00002000
00003000
00000200
00000300
,
00000020
00000030
00000002
00000003
,
00001100
00000101
00001001
00000110
,
00000001
00000100
00001000
00000000
00010000
01000000
10000000
00000000
,
10010000
01100000
10010000
10100000
,
10000000
00100000
00010000
00000000
00001000
00000010
00000001
00000000
,
00000011
00001010
00001100
00001001
,
00000001
00000100
00001000
00000000
00010000
00100000
10000000
00000000
,
10100000
11000000
01100000
00110000
,
10000000
01000000
00010000
00000000
00001000
00000010
00000001
00000000
,
00001100
00001000
00000100
00001000
00000001
00001000
00000001
00000000
,
00000101
00000001
00001000
00000001
00001000
00000001
00000100
00000000
,
00000001
00000100
00001000
00000000
00001000
00010000
01000000
00000000
,
01000000
10000000
00100000
01000000
00010000
10000000
00010000
00000000
,
10000000
00100000
01000000
00010000
00100000
00100000
00100000
00100000
,
00010000
00100000
01000000
10000000
00010000
00010000
00010000
00010000
,
02002000
00000000
00000000
00000000
,
00000000
00000000
00000000
03003000
,
01001000
01000000
00010000
01000000
00010000
01000000
01001000
01000000
,
00010000
01000000
00010000
01000000
00100000
10000000
01000000
00000000
,
10010000
10000000
01000000
10000000
01000000
10000000
10010000
10000000
,
01000000
10000000
01000000
10000000
01000000
00010000
00001000
00000000
,
00010100
00010000
00001000
00010000
00001000
00010000
00010100
00010000
,
00001000
00010000
00001000
00010000
00001000
00000100
00000001
00000000
,
00001010
00000100
00000001
00000100
00000001
00000100
00001010
00000100
,
00000001
00000100
00000001
00000100
00000010
00001000
00000100
00000000
,
00000010
00000000
00000000
00000000
00000001
00000000
00000000
00000000
00000100
00000000
00000000
00000000
00000010
00000000
00000000
00000000
00001000
00000000
00000000
00000000
00000100
00000000
00000000
00000000
00000010
00000000
00000000
00000000
00000000
00000000
00000000
00000000
00000000
00000000
00000000
00000000
00000001
00000000
00000000
00000010
00000000
00000000
00000001
00000000
00000000
00000000
00000000
00000000
,
00000100
00000010
00001000
00000100
00001000
00000010
00000100
00001000
,
00010000
00001000
00100000
00010000
01000000
00010000
10000000
01000000
,
00100000
00010000
01000000
00100000
10000000
00010000
10000000
00000000
,
00100000
10000000
00100000
00000000
01000000
00000000
00010000
01000000
00010000
00000000
10000000
00000000
02000000
00000000
00000000
00000000
,
03100000
00010000
00100000
01000000
10000000
00100000
01000000
00010000
,
00100000
00001000
00100000
00001000
00100000
00000000
00001000
00000000
00100000
00000000
00001000
00000000
00010000
00000000
00000100
00000000
,
00010000
00000000
00000010
00000000
00001000
00000000
00000001
00000000
00000100
00000010
00000100
00000010
00001000
00000000
00000000
00000000
,
00000010
00000000
00001000
00000100
00001000
00000000
00000001
00000000
00001000
00000000
00000100
00010000
00000000
00010000
00001000
00000000
,
00100000
00000000
00010000
00100000
00010000
00000000
01000000
00000000
00100000
00000000
10000000
01000000
00000000
01000000
00100000
00000000
,
00010000
00000000
01000000
00100000
01000000
00000000
00010000
00000000
00100000
00000000
00100000
00001000
00000000
00001000
00010000
00000000
,
00000100
00000000
00001000
00000010
00001000
00000000
00000001
00000000
00000010
00000000
00000010
00000100
00000000
00000100
00001000
00000000
,
00000010
00000000
00000100
00000010
00000100
00000000
00000010
00000000
00001000
00000000
00000100
00010000
00000000
00001000
00010000
00000000
,
00001000
00000000
00100000
00010000
00100000
00000000
00010000
00000000
01000000
00000000
00100000
10000000
00000000
01000000
00100000
00000000
,
00010000
00000000
00100000
01000000
00100000
00000000
00010000
00000000
10000000
00000000
00100000
01000000
00000000
00100000
01000000
00000000
,
00010000
00000000
00000000
00100000
00000000
00000000
00010000
00000000
00000000
00100000
00000000
00000000
00010000
00000000
00000000
00100000
00000000
00000000
00010000
00000000
00000000
00100000
00000000
00000000
00010000
00000000
00000000
00000000
00100000
00000000
00000000
00000000
01000000
00000000
00000000
00000000
10000000
00000000
00000000
00000000
00010000
00000000
00000000
00000000
01000000
00000000
00000000
00000000
,
00100000
00000000
00000000
00000000
00100000
00000000
00000000
00000000
01000000
00000000
00000000
00000000
00100000
00000000
00000000
00000000
00100000
00000000
00000000
00000000
01000000
00000000
00000000
00000000
00100000
00000000
00000000
00000000
00000000
00000000
00000000
00000000
00000000
00000000
00000000
00000000
10000000
00000000
00000000
01000000
00000000
00000000
00020000
00000000
00000000
00000000
00000000
00000000
,
00000000
00001000
00100000
00031000
,
00010000
00000000
00001000
00000000
00010000
00000000
00000100
00000000
00001000
00000100
00001000
00000000
00000010
00000000
00000100
00000000
,
00000001
00001000
00000010
00001000
00000100
00000010
00000001
00000000
,
00000001
00000010
00000100
00000000
00000010
00000000
00000001
00000000
00000100
00000010
00000100
00000000
00000020
00000000
00000000
00000000
,
00001030
00000010
00001000
00000001
00000100
00001000
00020000
00000000
,
00031000
00010000
00001000
00000000
00100000
00000000
00001000
00000000
00100000
00000000
00010000
00100000
01000000
00000000
10000000
00000000
,
00010000
00000000
00000000
01000000
00000000
00000000
00100000
00000000
00000000
00100000
00000000
00000000
10000000
00000000
01000000
00000000
00100000
00000000
00010000
00000000
10000000
00000000
00010000
00000000
,
00100000
00000000
11000000
01000000
10000000
00100000
01000000
00010000
,
01000000
00100000
10000000
01000000
00010000
00001000
00010000
00001000
,
00000010
00000001
00000100
00000010
00001000
00000100
00000010
00000001
,
00000100
00000010
00001000
00000100
00010000
00001000
00010000
00001000
,
00100000
00010000
01000000
00100000
10000000
01000000
00010000
00001000
,
00010000
00001000
00010000
00100000
10000000
01000000
10000000
00100000
,
01000000
00010000
00100000
00001000
00010000
00000100
00001000
00000010
,
00000100
00001000
00010000
00001000
00010000
00000010
00001000
00000001
,
00000100
00000000
00000000
00000000
;

//---------------dance-single - ----------------
#NOTES:
     dance-single:
     :
     Easy:
     4:
     0.252990,0.359616,0.075181,0.233897,0.000000,212.000000,203.000000,9.000000,28.000000,0.000000,0.000000,0.252990,0.359616,0.075181,0.233897,0.000000,212.000000,203.000000,9.000000,28.000000,0.000000,0.000000:
// measure 0
0000
0000
0000
0000
,  // measure 1
0000
0000
0000
0000
,  // measure 2
0000
0000
0000
0000
,  // measure 3
0000
0000
0000
0000
,  // measure 4
2000
3000
0100
0100
,  // measure 5
0010
0010
0001
0001
,  // measure 6
0100
0100
0010
0010
,  // measure 7
1000
1000
0001
0000
,  // measure 8
2002
0000
0000
0000
,  // measure 9
0000
0000
0000
3003
,  // measure 10
0020
0000
0000
0000
,  // measure 11
0000
0000
0000
0030
,  // measure 12
2000
3000
2000
3000
,  // measure 13
0200
0300
0200
0300
,  // measure 14
0020
0030
0020
0030
,  // measure 15
0002
0003
0002
0003
,  // measure 16
0100
0010
0100
0010
,  // measure 17
1000
0001
1000
0000
,  // measure 18
0001
0100
0001
0100
,  // measure 19
0010
1000
0010
0000
,  // measure 20
1000
0100
1000
0100
,  // measure 21
0010
0001
0010
0000
,  // measure 22
0001
1000
0001
1000
,  // measure 23
0010
0100
0010
0000
,  // measure 24
2000
3000
0002
0003
,  // measure 25
0200
0300
0020
0030
,  // measure 26
2000
3000
0200
0300
,  // measure 27
0020
0030
0002
0003
,  // measure 28
0100
0100
0000
0000
0100
0100
0000
0000
,  // measure 29
0010
0010
0000
0000
0010
0010
0000
0000
,  // measure 30
2002
0000
0000
0000
,  // measure 31
0000
0000
0000
3003
,  // measure 32
1000
0100
0100
1000
,  // measure 33
0100
0100
1000
0000
,  // measure 34
0001
0100
0100
0001
,  // measure 35
0100
0100
0001
0000
,  // measure 36
1000
0010
0010
1000
,  // measure 37
0010
0010
1000
0000
,  // measure 38
0001
0010
0010
0001
,  // measure 39
0010
0010
0001
0000
,  // measure 40
0200
0300
0000
1001
,  // measure 41
1000
0100
0010
0010
,  // measure 42
0001
1000
0010
0100
,  // measure 43
0001
0100
0100
0000
,  // measure 44
0001
0100
0010
1000
,  // measure 45
0100
1000
0001
0010
,  // measure 46
0010
0001
1000
0010
,  // measure 47
0100
0100
0001
0000
,  // measure 48
1001
1000
1000
1000
,  // measure 49
1001
0001
0001
0001
,  // measure 50
1001
1000
1000
1000
,  // measure 51
1001
0001
0001
0000
,  // measure 52
1000
0100
0010
0010
,  // measure 53
0001
1000
0010
0010
,  // measure 54
0100
0001
1000
1000
,  // measure 55
0001
0001
0100
0000
,  // measure 56
0002
0000
0003
1001
,  // measure 57
1000
0010
0100
0100
,  // measure 58
0010
0000
1000
0100
,  // measure 59
0100
1000
0001
0010
,  // measure 60
0001
0000
0100
0010
,  // measure 61
0010
0100
0001
0010
,  // measure 62
0100
0000
1000
0100
,  // measure 63
0100
1000
0001
0100
,  // measure 64
0002
0003
1000
0000
,  // measure 65
2000
3000
0010
0000
,  // measure 66
0010
1000
0100
0000
,  // measure 67
0010
0001
0100
0000
,  // measure 68
0002
0003
0001
0000
,  // measure 69
2000
3000
1000
0000
,  // measure 70
0001
1000
0010
0000
,  // measure 71
0100
0100
0010
1001
;

//---------------dance-single - ----------------
#NOTES:
     dance-single:
     :
     Beginner:
     1:
     0.113368,0.150362,0.041767,0.000000,0.000000,95.000000,90.000000,5.000000,0.000000,0.000000,0.000000,0.113368,0.150362,0.041767,0.000000,0.000000,95.000000,90.000000,5.000000,0.000000,0.000000,0.000000:
// measure 0
0000
0000
0000
0000
,  // measure 1
0000
0000
0000
0000
,  // measure 2
0000
0000
0000
0000
,  // measure 3
0000
0000
0000
0000
,  // measure 4
0001
0000
0000
0000
,  // measure 5
1000
0000
0000
0000
,  // measure 6
0010
0000
0000
0000
,  // measure 7
0010
0000
0000
0000
,  // measure 8
1001
0000
0000
0000
,  // measure 9
0000
0000
0000
0000
,  // measure 10
1000
0000
0000
0000
,  // measure 11
0000
0000
0000
0000
,  // measure 12
0100
0000
0000
0000
,  // measure 13
0000
0000
0000
0000
,  // measure 14
0010
0000
0000
0000
,  // measure 15
0000
0000
0000
0000
,  // measure 16
0001
0000
0001
0000
,  // measure 17
0001
0000
0000
0000
,  // measure 18
1000
0000
1000
0000
,  // measure 19
1000
0000
0000
0000
,  // measure 20
0010
0000
0010
0000
,  // measure 21
0010
0000
0000
0000
,  // measure 22
0100
0000
0100
0000
,  // measure 23
0100
0000
0000
0000
,  // measure 24
0001
0001
0000
0000
,  // measure 25
0001
0001
0000
0000
,  // measure 26
1000
1000
0000
0000
,  // measure 27
1000
1000
0000
0000
,  // measure 28
0010
0010
0000
0000
,  // measure 29
0010
0010
0000
0000
,  // measure 30
0100
0000
0000
0000
,  // measure 31
0000
0000
0000
0000
,  // measure 32
1001
0000
0000
1000
,  // measure 33
0000
0000
0000
0000
,  // measure 34
0001
0000
0000
0001
,  // measure 35
0000
0000
0000
0000
,  // measure 36
0100
0000
0000
0100
,  // measure 37
0000
0000
0000
0000
,  // measure 38
0010
0000
0000
0010
,  // measure 39
0000
0000
0000
0000
,  // measure 40
1000
0000
0000
1001
,  // measure 41
0000
0000
0000
0000
,  // measure 42
0001
0001
0000
0001
,  // measure 43
0001
0000
0000
0000
,  // measure 44
0100
0100
0000
0100
,  // measure 45
0100
0000
0000
0000
,  // measure 46
0010
0010
0000
0010
,  // measure 47
0010
0000
0000
0000
,  // measure 48
1000
0000
1000
0000
,  // measure 49
1000
0000
0000
0000
,  // measure 50
0001
0000
0001
0000
,  // measure 51
0001
0000
0000
0000
,  // measure 52
0010
0000
0010
0000
,  // measure 53
0010
0000
0000
0000
,  // measure 54
0010
0000
0010
0000
,  // measure 55
0010
0000
0000
0000
,  // measure 56
0001
0001
0000
1001
,  // measure 57
0000
0000
0000
0000
,  // measure 58
1000
0000
0000
1000
,  // measure 59
0000
0000
0000
0000
,  // measure 60
0010
0000
0000
0010
,  // measure 61
0000
0000
0000
0000
,  // measure 62
0100
0000
0000
0100
,  // measure 63
0000
0000
0100
0000
,  // measure 64
0001
0000
0001
0000
,  // measure 65
0001
0000
0000
0000
,  // measure 66
1000
0000
1000
0000
,  // measure 67
1000
0000
0000
0000
,  // measure 68
0010
0000
0010
0000
,  // measure 69
0010
0000
0000
0000
,  // measure 70
1000
0000
1000
0000
,  // measure 71
1000
0000
0000
0000
,  // measure 72
1001
0000
0000
0000
;
