#VERSION:0.82;
#TITLE:Immortals;
#SUBTITLE:;
#ARTIST:Fall Out Boy;
#TITLETRANSLIT:;
#SUBTITLETRANSLIT:;
#ARTISTTRANSLIT:;
#GENRE:Bah La La La La;
#ORIGIN:;
#CREDIT:;
#BANNER:Immortals.png;
#BACKGROUND:Immortals-bg.png;
#PREVIEWVID:;
#JACKET:jacket.png;
#CDIMAGE:;
#DISCIMAGE:;
#LYRICSPATH:;
#CDTITLE:;
#MUSIC:Immortals.ogg;
#OFFSET:-0.392000;
#SAMPLESTART:43.384438;
#SAMPLELENGTH:13.714000;
#SELECTABLE:YES;
#BPMS:0.000=108.000;
#STOPS:;
#DELAYS:;
#WARPS:;
#TIMESIGNATURES:0.000=4=4;
#TICKCOUNTS:0.000=4;
#COMBOS:0.000=1;
#SPEEDS:0.000=1.000=0.000=0;
#SCROLLS:0.000=1.000;
#FAKES:;
#LABELS:0.000=Song Start;
#BGCHANGES:4.000=Immortals.avi=1.000=0=0=1=====,
99999=-nosongbg-=1.000=0=0=0 // don't automatically add -songbackground-
;
#KEYSOUNDS:;
#ATTACKS:
;

//---------------dance-single - ----------------
#NOTEDATA:;
#CHARTNAME:;
#STEPSTYPE:dance-single;
#DESCRIPTION:;
#CHARTSTYLE:;
#DIFFICULTY:Hard;
#METER:7;
#RADARVALUES:0.481359,0.483555,0.294507,0.121268,0.103944,341.000000,34.000000,14.000000,0.000000,0.000000,0.000000,0.000000,0.000000,0.481359,0.483555,0.294507,0.121268,0.103944,341.000000,34.000000,14.000000,0.000000,0.000000,0.000000,0.000000,0.000000;
#CREDIT:Ben Speirs;
#NOTES:
0000
0000
0000
0000
,
0000
0000
0000
0000
,
1000
0000
0000
0001
0000
0000
1000
0000
0100
0000
0100
0000
1000
0000
0000
0000
,
0001
0000
0000
1000
0000
0000
0001
0000
0100
0000
0100
0000
0001
0000
0000
0000
,
1000
0100
1000
0100
0010
0010
0001
1000
,
0010
0100
0001
0100
0010
0010
1000
0000
,
0001
0010
0001
0010
0100
0100
1000
0001
,
0100
0010
1000
0010
0100
0100
0001
0000
,
1000
0100
0010
0001
0100
0100
0001
0010
,
0100
1000
0010
0100
0001
0001
1000
0000
,
0001
0010
0100
1000
0010
0010
1000
0100
,
0010
0001
0100
0010
1000
1000
0001
0000
,
0200
0000
0310
0100
1000
0100
0001
0100
,
0010
0100
1000
0100
0001
1000
0100
0010
,
0001
0001
1000
1000
0001
0100
0010
1000
,
1010
0100
1001
0000
0101
1000
1010
0000
,
0020
0000
0130
0010
0001
0010
1000
0010
,
0100
0010
0001
0010
1000
0001
0010
0100
,
1000
1000
0001
0001
1000
0010
0100
0001
,
1100
0000
0000
0000
0000
0000
1000
0000
0001
0000
1000
0000
0010
0100
0010
0000
,
1010
0000
0000
1000
0010
0000
0100
0000
0001
0000
1000
0000
0100
0000
0010
0000
,
0001
0000
0000
0001
0010
0000
0001
0000
1000
0000
0010
0000
0100
0000
0001
0000
,
2000
0000
3100
0010
0002
0000
0103
0001
,
2000
0000
3001
1000
0010
0100
0100
0010
,
1001
0000
0000
1000
0100
0000
0010
0000
0010
0000
0100
0000
1000
0000
0000
0000
,
1001
0000
0000
0001
0100
0000
0010
0000
0010
0000
0100
0000
0001
0000
1000
0000
,
0020
0000
0130
0001
2000
0000
3100
0010
,
0002
0000
1003
0001
0100
0010
1000
0000
,
0101
0100
0010
0110
0010
1000
0010
1010
,
0000
1000
1100
0000
0101
0000
1000
0001
,
1010
0010
0100
0110
0100
0001
0100
0101
,
0000
0000
0001
0000
0011
0000
0000
0000
1010
0000
0000
0000
0001
1000
0001
0000
,
0200
0000
0000
0300
,
0020
0000
0000
0000
0000
0000
0000
0000
0130
0000
0001
0000
0001
1000
0000
0000
,
1100
0000
0000
1000
0100
0000
1000
0000
0001
0000
0000
0000
1000
0000
0000
0000
,
0001
0000
0000
0001
0100
0000
0001
0000
1000
0000
0000
0000
1001
0000
0000
0000
,
0010
0000
0000
0010
1000
0000
0001
0000
0001
0000
0000
0000
1001
0000
0000
0000
,
0010
0000
0000
0010
0001
0000
0000
0000
1000
0000
0100
0000
1000
0000
0001
0000
,
0101
0000
0000
0001
0100
0000
0010
0000
1000
0000
0001
0000
0010
0000
0100
0000
,
1000
0000
0000
1000
0100
0000
1000
0000
0001
0000
0100
0000
0010
0000
1000
0000
,
0002
0000
0013
0100
2000
0000
3010
1000
,
0002
0000
1003
0001
0100
0010
0010
0100
,
0101
0100
0010
1010
1000
0001
0100
1001
,
0000
1000
0100
0010
0001
0000
0100
0010
,
1010
0010
0100
0101
0001
1000
0010
1001
,
0000
0001
0010
0100
1000
0000
0001
1000
,
0001
0100
0001
0100
0001
0000
1000
0100
1000
0100
1000
0000
0001
0000
1000
0000
,
0000
0010
0110
0100
0110
0000
1001
0000
,
1000
0100
1000
0100
1000
0000
0001
0100
0001
0100
0001
0000
1000
0000
0001
0000
,
0000
0100
0110
0010
0110
0000
1001
0000
,
1000
0000
0000
0100
0000
0000
0010
0000
0002
0000
0000
0000
1003
0000
0000
0000
;

//---------------dance-single - ----------------
#NOTEDATA:;
#CHARTNAME:;
#STEPSTYPE:dance-single;
#DESCRIPTION:;
#CHARTSTYLE:;
#DIFFICULTY:Challenge;
#METER:9;
#RADARVALUES:0.669448,0.747313,0.242536,0.121268,0.619332,499.000000,28.000000,14.000000,0.000000,0.000000,0.000000,0.000000,0.000000,0.669448,0.747313,0.242536,0.121268,0.619332,499.000000,28.000000,14.000000,0.000000,0.000000,0.000000,0.000000,0.000000;
#CREDIT:Ben Speirs;
#NOTES:
// measure 0
0000
0000
0000
0000
,  // measure 1
0000
0000
0000
0000
,  // measure 2
1000
0000
0100
1000
0001
0000
0100
0001
1000
0000
1000
0000
0001
0010
0100
1000
,  // measure 3
0001
0000
0000
0000
0100
0000
0001
0000
1000
0000
0000
0000
0100
0000
1000
0000
0001
0000
0000
0000
0001
0000
0000
0000
1000
0100
1000
0000
0001
0100
0001
0000
,  // measure 4
1000
0000
0001
0000
0100
0000
0010
0000
1000
0000
1000
0000
0001
0010
0100
1000
,  // measure 5
0001
0000
1000
0000
0010
0000
0100
0000
0001
0000
0001
0000
1000
0100
0010
0001
,  // measure 6
1000
0000
0001
0000
1000
0000
0010
0000
0100
0000
0100
0000
0001
0100
0010
1000
,  // measure 7
0001
0000
0000
0000
0001
0000
0000
0000
1000
0000
0000
0000
0100
0000
0000
0000
0100
0000
0000
0000
1000
0000
0000
0000
0001
1000
0001
0000
1000
0100
1000
0000
,  // measure 8
0001
0000
1000
0000
0010
0000
0100
0000
0001
0000
0001
0000
1000
0100
0010
0001
,  // measure 9
1000
0000
0001
0000
0100
0000
0010
0000
1000
0000
1000
0000
0001
0010
0100
1000
,  // measure 10
0001
0000
1000
0000
0001
0000
0100
0000
0010
0000
0010
0000
1000
0010
0100
0001
,  // measure 11
1000
0000
0000
0000
1000
0000
0000
0000
0001
0000
0000
0000
0010
0000
0000
0000
0010
0000
0000
0000
0001
0000
0000
0000
1000
0001
1000
0000
0001
0100
0001
0000
,  // measure 12
1000
0100
1000
0010
1000
0001
1000
0100
1000
0010
1000
0001
1000
0100
1000
0001
,  // measure 13
0001
0100
0001
1000
0001
0100
0001
0010
0001
0000
1000
0000
0100
0000
0010
0000
,  // measure 14
0012
0000
1003
0001
1000
1000
0010
0100
,  // measure 15
0101
0000
0000
0000
0010
0000
0000
0000
1010
0000
0000
0000
0000
0000
0000
0000
0101
0000
0000
0000
0100
0000
0000
0000
0001
0010
0001
0000
1000
0010
1000
0000
,  // measure 16
0001
0010
0001
0100
0001
1000
0001
0010
0001
0100
0001
1000
0001
0010
0001
1000
,  // measure 17
1000
0010
1000
0001
1000
0010
1000
0100
1000
0000
0001
0000
0010
0000
0100
0000
,  // measure 18
1000
1000
0100
1000
0001
0001
0100
0010
,  // measure 19
2002
0000
0000
0000
3003
0000
0001
0000
1000
0000
0001
0000
0100
0010
0100
0000
,  // measure 20
0101
0000
0001
1000
0100
0000
0010
0000
0001
1000
0001
1000
0010
0100
0001
0000
,  // measure 21
1000
0000
1000
0001
0010
0000
0100
0000
1000
0000
0010
1000
0001
0000
0100
0001
,  // measure 22
2000
0000
0000
3010
1000
0000
0010
1000
0002
0000
0000
0013
0001
0000
0010
0001
,  // measure 23
2000
0000
0000
3100
1000
0000
0010
0000
0100
0000
0101
0000
0100
0001
1000
0001
,  // measure 24
0010
0000
0000
0010
0001
0000
1000
0000
0100
0000
0010
0000
0001
1000
0001
0000
,  // measure 25
0100
0000
0000
0100
0010
0000
1000
0000
0001
0000
0010
0000
0100
0000
1000
0000
,  // measure 26
0002
0000
0000
0103
0001
0000
0100
0001
2000
0000
0000
3100
1000
0000
0100
1000
,  // measure 27
0002
0000
0000
0013
0001
0000
0100
0000
0001
0000
1000
0000
0001
0010
0100
1000
,  // measure 28
0001
0100
0010
1000
0001
0000
1000
0010
0100
0001
1000
0000
0001
0100
0010
0000
,  // measure 29
1000
0001
0101
1000
1100
0000
1000
0001
,  // measure 30
1000
0010
0100
0001
1000
0000
0001
0100
0010
1000
0001
0000
0100
0001
1000
0000
,  // measure 31
0010
0000
0100
0000
0110
0000
0001
0000
0101
0000
1000
0000
1000
0100
0010
0001
,  // measure 32
1000
0100
1000
0100
0000
1000
0100
0000
1000
0000
1000
0000
0001
0000
0000
0000
,  // measure 33
0100
0000
0001
0000
0001
0000
0100
0000
0100
0000
1001
0000
1000
0100
0000
1000
,  // measure 34
0001
0000
0000
0001
0100
0000
0001
0000
0001
0000
0000
0000
0101
0000
0000
0000
,  // measure 35
1000
0000
0000
1000
0100
0000
1000
0000
1000
0000
0000
0000
1100
0000
0000
0000
,  // measure 36
0001
0000
0000
0001
0010
0000
0001
0000
0001
0000
0000
0000
0011
0000
0000
0000
,  // measure 37
1000
0000
0000
1000
0010
0000
0000
0000
1000
0000
0001
0000
1000
0000
0001
0000
,  // measure 38
1010
0000
1000
0001
0010
0000
0100
0000
1000
0001
1000
0001
0100
0010
1000
0000
,  // measure 39
0001
0000
0001
1000
0100
0000
0010
0000
0001
0000
0100
0001
1000
0000
0010
1000
,  // measure 40
0002
0000
0000
0103
0001
0000
0100
0001
2000
0000
0000
3100
1000
0000
0100
1000
,  // measure 41
0002
0000
0000
0013
0001
0000
0100
0000
0010
0000
1010
0000
0010
1000
0001
1000
,  // measure 42
0001
0100
0010
1000
0001
0000
1000
0010
0100
0001
1000
0000
0001
0100
0010
0000
,  // measure 43
1000
0010
1010
0001
0101
0000
1001
0001
,  // measure 44
1000
0100
0010
0001
1000
0000
0001
0010
0100
1000
0001
0000
1000
0100
0010
0000
,  // measure 45
0001
1000
1001
0010
1010
0000
1001
0100
,  // measure 46
0001
0100
0010
1000
0100
0010
0001
0100
0010
1000
0100
0010
0001
0100
0010
0000
,  // measure 47
1000
0010
1010
0001
0101
1000
1001
0000
,  // measure 48
1000
0100
0010
0001
0100
0010
1000
0100
0010
0001
0100
0010
1000
0100
0010
0000
,  // measure 49
0001
0000
1000
0000
1001
0000
0010
0000
1010
0000
0001
0000
0100
0001
1000
0000
,  // measure 50
0020
0000
0000
1000
2030
0001
3100
0000
;

//---------------dance-single - ----------------
#NOTEDATA:;
#CHARTNAME:;
#STEPSTYPE:dance-single;
#DESCRIPTION:;
#CHARTSTYLE:;
#DIFFICULTY:Medium;
#METER:5;
#RADARVALUES:0.366278,0.373656,0.164578,0.329155,0.000000,239.000000,19.000000,38.000000,0.000000,0.000000,0.000000,0.000000,0.000000,0.366278,0.373656,0.164578,0.329155,0.000000,239.000000,19.000000,38.000000,0.000000,0.000000,0.000000,0.000000,0.000000;
#CREDIT:Ben Speirs;
#NOTES:
0000
0000
0000
0000
,
0000
0000
0000
0000
,
1000
0000
0001
0000
0100
0100
0010
0000
,
1000
0000
0100
0000
0010
0010
0001
0000
,
1000
0100
1000
0100
2000
0000
3001
0000
,
0001
0100
0001
0100
0002
0000
1003
0000
,
1000
0010
1000
0010
2000
0000
3001
0000
,
0001
0010
0001
0010
0002
0000
1003
0000
,
0010
1000
0010
0000
1000
1000
0001
0000
,
1000
0001
1000
0000
0001
0001
0100
0000
,
0001
1000
0001
0000
1000
1000
0100
0000
,
1000
0001
1000
0000
0010
0010
0100
0000
,
0002
0203
0320
2030
,
3200
0320
0032
0003
,
1000
0000
0100
0100
1000
0000
0010
1000
,
0001
1000
0001
0000
0100
0100
0001
0000
,
2000
3200
0320
0032
,
0203
0302
2003
3010
,
1000
1000
0001
0100
0100
0100
0010
1000
,
1000
0000
0000
0000
0001
1000
0001
0000
,
1002
0000
0103
0000
0001
1000
0001
0000
,
2001
0000
3100
0000
1000
0001
1000
0000
,
0020
1030
0002
0103
,
0002
0000
1003
0000
0001
1000
0001
0000
,
2200
0000
3300
0000
0100
1000
0001
0000
,
0202
0000
0303
0000
0100
0001
1000
0000
,
0020
1030
0200
0310
,
0002
0000
1003
0000
0010
1000
0001
0000
,
1000
0100
1000
0001
1000
0010
1000
0100
,
0000
1100
0101
1000
,
0001
0100
0001
1000
0001
0010
0001
0100
,
0000
0101
1100
0001
,
2000
0000
0100
3000
,
0002
0000
0100
0003
,
1001
0100
1000
0000
,
0010
0000
1000
0100
0010
0000
0000
0000
,
0001
1000
0010
0000
,
0100
0000
0001
1000
0001
0000
0000
0000
,
2001
0000
3100
0000
0001
1000
0001
0000
,
1002
0000
0103
0000
1000
0001
1000
0000
,
0020
0130
0002
0013
,
0200
0000
1300
0000
0001
1000
0001
0000
,
1000
0100
1000
0010
1000
0001
1000
0100
,
0000
1100
0101
1000
,
0001
0010
0001
0100
0001
1000
0001
0010
,
0000
0011
1010
0001
,
1000
0100
0010
0001
0100
0010
1000
0100
,
0000
1100
0101
0000
,
1000
0010
0100
0001
0010
0100
1000
0010
,
0000
1010
0011
1000
,
0001
0000
0000
0100
0200
0000
0310
0000
;

//---------------dance-single - ----------------
#NOTEDATA:;
#CHARTNAME:;
#STEPSTYPE:dance-single;
#DESCRIPTION:;
#CHARTSTYLE:;
#DIFFICULTY:Easy;
#METER:3;
#RADARVALUES:0.183139,0.241778,0.077958,0.043310,0.000000,134.000000,9.000000,5.000000,0.000000,0.000000,0.000000,0.000000,0.000000,0.183139,0.241778,0.077958,0.043310,0.000000,134.000000,9.000000,5.000000,0.000000,0.000000,0.000000,0.000000,0.000000;
#CREDIT:Ben Speirs;
#NOTES:
0000
0000
0000
0000
,
0000
0000
0000
0000
,
1000
0000
0001
0000
,
0100
0000
0010
0000
,
1000
0100
1000
1000
,
0100
1000
0001
0000
,
0001
0100
0001
0001
,
0100
0001
1000
0000
,
0010
1000
0001
0000
,
0010
0001
1000
0000
,
0100
1000
0001
0000
,
0100
0001
1000
0000
,
0001
0100
0010
1000
,
0001
0100
0001
0000
,
1000
0000
0001
0000
,
0100
0000
0001
0000
,
1000
0100
0010
0001
,
1000
0010
0100
0000
,
1001
0000
0000
0000
,
0000
0000
0000
0000
,
1000
1000
0100
0000
,
0010
0010
0001
0000
,
1000
0010
0100
0001
,
1000
0000
0001
0000
,
0200
0300
0010
0010
,
2000
3000
0100
0010
,
0001
0000
1000
0000
,
0010
0000
0100
0100
,
0001
1000
0001
1000
,
0000
0100
0100
0000
,
1000
0001
1000
0001
,
0000
0100
0100
0000
,
2002
0000
0000
3003
,
0020
0000
0000
0030
,
1000
0100
1000
0000
,
0001
0100
0001
0000
,
1000
0010
1000
0000
,
0001
1001
0000
0000
,
0110
0110
0001
0000
,
0110
0110
1000
0000
,
0010
1000
0100
0010
,
0001
0000
1000
0000
,
0010
1000
0010
0100
,
0000
0001
1000
0000
,
0001
0010
0001
1000
,
0000
0100
0100
0000
,
1001
0000
0000
0100
0000
0000
0000
1000
,
0000
0010
0010
0000
,
1000
0000
0000
0001
0000
0000
0000
0010
,
0000
0100
0100
0000
,
1000
0000
0001
1001
;

//---------------dance-single - ----------------
#NOTEDATA:;
#CHARTNAME:;
#STEPSTYPE:dance-single;
#DESCRIPTION:;
#CHARTSTYLE:;
#DIFFICULTY:Beginner;
#METER:2;
#RADARVALUES:0.126217,0.153858,0.025986,0.000000,0.000000,99.000000,3.000000,0.000000,0.000000,0.000000,0.000000,0.000000,0.000000,0.126217,0.153858,0.025986,0.000000,0.000000,99.000000,3.000000,0.000000,0.000000,0.000000,0.000000,0.000000,0.000000;
#CREDIT:;
#NOTES:
0000
0000
0000
0000
,
0000
0000
0000
0000
,
1000
0000
0000
0000
,
0001
0000
0000
0000
,
0100
0000
0100
0000
,
0010
0000
0010
0000
,
1000
0000
1000
0000
,
0001
0000
0001
0000
,
1000
1000
0000
0000
,
0001
0001
0000
0000
,
0010
0010
0000
0000
,
0100
0100
0000
0000
,
1000
0000
1000
0000
,
1000
0000
1000
0000
,
0010
0010
0010
0000
,
0100
0100
0100
0000
,
0001
0000
0001
0000
,
0001
0000
0001
0000
,
1000
0000
0000
0000
,
0000
0000
0000
0000
,
0010
0010
0000
0000
,
0100
0100
0000
0000
,
0001
0000
1000
0000
,
0100
0000
0000
0000
,
1000
0000
0010
0000
,
0100
0000
0001
0000
,
1000
0000
1000
0000
,
0001
0000
0000
0000
,
0100
0100
0100
0100
,
0000
0010
0010
0000
,
1000
1000
1000
1000
,
0000
0001
0001
0000
,
0100
0000
0000
0000
,
0010
0000
0000
0000
,
1001
0000
0000
0000
,
0010
0010
0000
0000
,
1001
0000
0000
0000
,
0100
0100
0000
0000
,
1000
1000
0000
0000
,
0001
0001
0000
0000
,
0100
0000
0001
0000
,
1000
0000
0000
0000
,
0010
0010
0010
0010
,
0000
1000
1000
0000
,
0001
0001
0001
0001
,
0000
0100
0100
0000
,
0001
0001
0001
0001
,
0000
1000
1000
0000
,
0010
0010
0010
0010
,
0000
0100
0100
0000
,
0000
0000
0000
1001
;

//---------------dance-double - ----------------
#NOTEDATA:;
#CHARTNAME:;
#STEPSTYPE:dance-double;
#DESCRIPTION:;
#CHARTSTYLE:;
#DIFFICULTY:Challenge;
#METER:8;
#RADARVALUES:0.558079,0.549495,0.433099,0.147254,0.238205,384.000000,50.000000,17.000000,0.000000,0.000000,0.000000,0.000000,0.000000,0.558079,0.549495,0.433099,0.147254,0.238205,384.000000,50.000000,17.000000,0.000000,0.000000,0.000000,0.000000,0.000000;
#CREDIT:Ben Speirs;
#NOTES:
00000000
00000000
00000000
00000000
,
00000000
00000000
00000000
00000000
,
00001000
00000000
00000000
00000001
00000000
00000000
00001000
00000000
00000100
00000000
00000100
00000000
00001000
00000000
00000000
00000000
,
00000001
00000000
00000000
00001000
00000000
00000000
00000001
00000000
00000100
00000000
00000100
00000000
00000001
00000000
00000000
00000000
,
00001000
00000100
00000001
00000100
00001000
00001000
00000010
00000010
,
00000100
00000001
00000010
00000100
00010000
00010000
00010100
00000000
,
00001000
00010000
00001000
00010000
00100000
00100000
10000000
10000000
,
01000000
00100000
00010000
10000000
11000000
00000000
01010000
00000000
,
10000000
00100000
01000000
00010000
10000000
10000000
11000000
00000000
,
00010000
01000000
00100000
10000000
00010000
00010000
01010000
00000000
,
10000000
01000000
00010000
01000000
10000000
00010000
01000000
00001000
,
00010000
00010000
00000100
00000100
00001000
00000001
00000100
00000000
,
00001020
00000000
00000130
00000010
00000001
00000010
00000100
00000010
,
00000001
00000010
00001000
00000010
00000100
00000001
00000010
00001000
,
00020000
00000000
00031000
00010000
00200000
00000000
10300000
00100000
,
10000000
00010000
10010000
00000000
01100000
01000000
10010000
00000000
,
02010000
00000000
03100000
01000000
10000000
01000000
00100000
01000000
,
10000000
01000000
00010000
01000000
00100000
10000000
01000000
00010000
,
00001000
00001000
00010000
00001000
00000100
00000100
00000001
00000100
,
00002002
00000000
00000000
00000000
00003003
00000000
00001000
00000000
00000100
00000000
00000010
00000000
00000001
00001000
00000001
00000000
,
00001100
00000000
00000100
00001000
00000001
00000000
00000100
00000000
00000100
00000000
00000010
00000000
00001010
00000000
00000000
00000000
,
00000101
00000000
00000100
00000001
00001000
00000000
00000100
00000000
00000100
00000000
00010000
00000000
00000100
00000000
00001000
00000000
,
00010200
00000000
00000000
00010300
00001000
00000000
00100000
00000000
00201000
00000000
00000000
00301000
00010000
00000000
00000010
00000000
,
00010020
00000000
00000000
00001030
00000001
00000000
00000100
00000000
00000010
00000000
00001000
00000000
00000100
00010000
00000100
00000000
,
00101000
00000000
00100000
00010000
01000000
00000000
00100000
00000000
10000000
00000000
10000000
00000000
00010000
00000000
00010000
00000000
,
01010000
00000000
01000000
00010000
10000000
00000000
01000000
00000000
00100000
00000000
00010000
00000000
01000000
00000000
00001000
00000000
,
00201000
00000000
00000000
00301000
00010000
00000000
00000100
00000000
00010200
00000000
00000000
00010300
00001000
00000000
01000000
00000000
,
01002000
00000000
00000000
01003000
00010000
00000000
00100000
00000000
00001000
00000000
00001000
00000000
00010000
00000000
00010000
00000000
,
00000100
00001000
00000100
00001000
00000100
00000000
01000000
00010000
01000000
00010000
01000000
00000000
00001000
00010000
00001000
00000000
,
00000000
00100000
00101000
00000100
00010100
00000000
00100100
00000000
,
00100000
00010000
00100000
00010000
00100000
00000000
00000010
00001000
00000010
00001000
00000010
00000000
00010000
00001000
00010000
00000000
,
00000000
00000010
00010010
01000000
01001000
00000000
01000010
00000000
,
00011000
00000000
00000000
00010000
00010000
00001000
00001000
00000000
,
10010000
00000000
01000000
00000000
01000000
00000000
00100000
00000000
00100000
00000000
10000000
00000000
00010000
01000000
00000000
00100000
,
10000000
00000000
00000000
10000000
01000000
00000000
10000000
00000000
10000000
00000000
00000000
00000000
11000000
00000000
00000000
00000000
,
00010000
00000000
00000000
00010000
01000000
00000000
00010000
00000000
00010000
00000000
00000000
00000000
01010000
00000000
00000000
00000000
,
10000000
01000000
00010000
00002000
00000000
00013000
01000000
10000000
,
00010000
00000000
00000000
01000000
00100000
00000000
00000000
00000000
10000000
00000000
00010000
00000000
10000000
00000000
00010000
00000000
,
00110000
00000000
00100000
00010000
10000000
00000000
00100000
00000000
00100000
00000000
01000000
00000000
01010000
00000000
00000000
00000000
,
10100000
00000000
00100000
10000000
00010000
00000000
00100000
00000000
00100000
00000000
00001000
00000000
00100000
00000000
00010000
00000000
,
00201000
00000000
00000000
00301000
00010000
00000000
00000100
00000000
00010200
00000000
00000000
00010300
00001000
00000000
01000000
00000000
,
02001000
00000000
00000000
03010000
10000000
00000000
00100000
00000000
01000000
00000000
00010000
00000000
00100000
00001000
00100000
00000000
,
00000100
00001000
00000100
00001000
00000100
00000000
01000000
00010000
01000000
00010000
01000000
00000000
00001000
00010000
00001000
00000000
,
00000000
00100000
00101000
00000100
00010100
00000000
00100100
00000000
,
00100000
00010000
00100000
00010000
00100000
00000000
00000010
00001000
00000010
00001000
00000010
00000000
00010000
00001000
00010000
00000000
,
00000000
00000010
00010010
01000000
01001000
00000000
01000010
00000000
,
00010000
00001000
00010000
00000100
00010000
00000000
00001000
00010000
00001000
01000000
00001000
00000000
00010000
00001000
00010000
00000000
,
00001000
01000000
01001000
00000010
00010010
00000000
01000010
00000000
,
00001000
00010000
00001000
00100000
00001000
00000000
00010000
00001000
00010000
00000010
00010000
00000000
00001000
00010000
00001000
00000000
,
00010000
00000100
00010100
00100000
00101000
00000000
00100100
00000000
,
00020000
00000000
00030000
00001000
00010000
00100000
10000000
00000000
;
