#VERSION:0.82;
#TITLE:If I Were A Boy;
#SUBTITLE:;
#ARTIST:Beyonce;
#TITLETRANSLIT:;
#SUBTITLETRANSLIT:;
#ARTISTTRANSLIT:;
#GENRE:You Wouldn't Sit Down To Pee;
#ORIGIN:;
#CREDIT:;
#BANNER:If I Were A Boy.png;
#BACKGROUND:If I Were A Boy-bg.png;
#PREVIEWVID:;
#JACKET:jacket.png;
#CDIMAGE:;
#DISCIMAGE:;
#LYRICSPATH:;
#CDTITLE:;
#MUSIC:If I Were A Boy.ogg;
#OFFSET:0.500000;
#SAMPLESTART:43.174896;
#SAMPLELENGTH:13.714000;
#SELECTABLE:YES;
#DISPLAYBPM:90.000000;
#BPMS:0.000=90.000,
164.000=89.380,
168.000=90.000;
#STOPS:;
#DELAYS:;
#WARPS:;
#TIMESIGNATURES:0.000=4=4;
#TICKCOUNTS:0.000=4;
#COMBOS:0.000=1;
#SPEEDS:0.000=1.000=0.000=0;
#SCROLLS:0.000=1.000;
#FAKES:;
#LABELS:0.000=Song Start;
#BGCHANGES:4.000=If I Were A Boy.avi=1.000=0=0=1=====,
99999=-nosongbg-=1.000=0=0=0 // don't automatically add -songbackground-
;
#KEYSOUNDS:;
#ATTACKS:
;

//---------------dance-single - ----------------
#NOTEDATA:;
#CHARTNAME:;
#STEPSTYPE:dance-single;
#DESCRIPTION:;
#CHARTSTYLE:;
#DIFFICULTY:Hard;
#METER:6;
#RADARVALUES:0.329463,0.351828,0.058919,0.126254,0.004208,252.000000,7.000000,15.000000,0.000000,0.000000,0.000000,0.000000,0.000000,0.329463,0.351828,0.058919,0.126254,0.004208,252.000000,7.000000,15.000000,0.000000,0.000000,0.000000,0.000000,0.000000;
#CREDIT:Ben Speirs;
#DISPLAYBPM:90.000000;
#NOTES:
// measure 0
0000
0000
0000
0000
,  // measure 1
0000
0000
0000
0000
,  // measure 2
0000
0000
0000
0000
,  // measure 3
0000
0000
0000
0000
,  // measure 4
0000
0000
0000
0000
,  // measure 5
0002
0000
0013
0000
0001
1000
0001
0000
,  // measure 6
2000
0000
3010
0000
1000
0001
1000
0000
,  // measure 7
0020
0130
0002
1003
,  // measure 8
0200
0000
0310
0001
1000
0010
0010
0100
,  // measure 9
0101
0000
1000
0000
0001
1000
0010
0100
,  // measure 10
0100
0000
0001
0000
1000
0100
0010
0001
,  // measure 11
1000
0000
0001
0000
1000
0001
0100
0010
,  // measure 12
0010
0000
1000
0000
0100
1000
0001
0000
,  // measure 13
1000
0100
1000
0100
0010
0010
0001
1000
,  // measure 14
0010
0100
0010
0100
0001
0001
0010
0001
,  // measure 15
1000
0000
0100
0010
0001
1000
0010
0100
,  // measure 16
0001
0000
1000
0001
0100
0010
0010
1000
,  // measure 17
1001
0000
1100
0100
0010
0001
1000
0010
,  // measure 18
0100
0001
0001
1000
1000
0010
1000
0001
,  // measure 19
0200
0000
0301
1000
0100
0100
0010
0001
,  // measure 20
1000
0010
0100
0010
0010
1000
0100
0000
,  // measure 21
1000
0001
1000
0001
0100
0100
0010
0010
,  // measure 22
1000
0001
1000
0001
0010
0010
0100
0100
,  // measure 23
2000
0000
3010
1000
0002
0000
0013
0001
,  // measure 24
0200
0000
0000
0000
0310
0000
1000
0000
0001
0000
0000
0100
0010
0000
1000
0000
,  // measure 25
1001
0000
0011
0010
0100
1000
0001
0100
,  // measure 26
0010
1000
1000
0001
0001
0100
0001
1000
,  // measure 27
0020
0000
1030
0001
0010
0010
0100
1000
,  // measure 28
0001
0100
0010
0100
0100
0001
0010
0000
,  // measure 29
0001
1000
0001
1000
0010
0010
0100
0100
,  // measure 30
0001
1000
0001
1000
0100
0100
0010
0010
,  // measure 31
0002
0000
0103
0001
2000
0000
3100
1000
,  // measure 32
0010
0010
0100
0100
0001
0010
0100
1000
,  // measure 33
1001
1000
0100
0010
0001
1000
0010
0100
,  // measure 34
0001
1000
0100
0010
0010
0001
1000
0010
,  // measure 35
1010
0010
0100
0001
1000
0100
0010
0001
,  // measure 36
1000
0010
1000
0001
0010
0100
1000
0001
,  // measure 37
0100
0100
0010
0010
1000
0001
1000
0100
,  // measure 38
0010
0010
0100
0100
0010
0001
1000
0001
,  // measure 39
0100
0010
1000
0100
0010
0001
1000
0001
,  // measure 40
0200
0000
0000
0000
0000
0000
0000
0300
,  // measure 41
0000
0000
0000
0000
,  // measure 42
0010
0000
0000
1000
0000
0000
0000
0000
,  // measure 43
0002
0000
0000
0200
0000
0000
0000
0000
,  // measure 44
0303
0000
0000
0000
;

//---------------dance-single - ----------------
#NOTEDATA:;
#CHARTNAME:;
#STEPSTYPE:dance-single;
#DESCRIPTION:;
#CHARTSTYLE:;
#DIFFICULTY:Medium;
#METER:4;
#RADARVALUES:0.214031,0.296276,0.042085,0.075752,0.000000,164.000000,5.000000,9.000000,0.000000,0.000000,0.000000,0.000000,0.000000,0.214031,0.296276,0.042085,0.075752,0.000000,164.000000,5.000000,9.000000,0.000000,0.000000,0.000000,0.000000,0.000000;
#CREDIT:Ben Speirs;
#DISPLAYBPM:90.000000;
#NOTES:
0000
0000
0000
0000
,
0000
0000
0000
0000
,
0000
0000
0000
0000
,
0000
0000
0000
0000
,
0000
0000
0000
0000
,
1000
0000
0001
0000
,
0010
0001
1000
0010
,
0100
0000
0001
0000
,
1000
0000
0000
0000
0100
0010
0010
0000
,
1001
0100
1000
0010
,
0100
0000
0000
0000
0001
0010
0100
1000
,
0010
0100
0001
1000
,
0100
0000
0000
0000
1000
0100
0010
0000
,
0001
0000
1000
0000
0010
0010
0100
0000
,
0001
0000
1000
0000
0100
0100
0010
0000
,
0001
0000
1000
0000
0010
0000
1000
0001
,
1000
0000
0000
0001
0001
1000
1000
0000
,
0102
0100
0010
0010
,
1000
1000
0100
0013
,
2100
0100
0010
0001
,
0010
0010
0100
3100
,
1000
0100
0010
0001
1000
0000
0000
0000
,
0001
0100
0010
1000
0001
0000
0000
0000
,
1000
0001
0010
0100
,
1000
0000
0010
1000
1000
0001
0001
0000
,
2100
0001
0010
0001
,
0100
0000
0010
0000
3100
1000
0010
0000
,
0102
1000
0010
0100
,
1000
0000
0100
0000
0010
0000
0103
0001
,
1000
1000
0100
0000
0010
0000
0001
0000
,
0100
0100
0010
0000
1000
0000
0001
0000
,
1000
1000
0100
0000
0010
0010
0001
0000
,
1000
0100
1000
0100
0010
0001
0010
0001
,
2000
0000
0010
0001
,
3100
0000
1000
0000
0100
0010
0001
0000
,
0002
0000
0100
1000
,
0013
0000
0001
0000
1000
0001
0100
0000
,
1000
0000
0001
0000
1000
0001
1000
0000
,
0001
0000
1000
0000
0001
1000
0001
0000
,
0010
0000
0001
0000
1000
0010
0100
0001
,
2000
0000
0000
0000
0000
0000
0000
3000
,
0000
0000
0000
0000
,
0100
0000
0000
0100
0000
0000
0000
0000
,
2000
0000
0000
0002
0000
0000
0000
0000
,
3003
0000
0000
0000
;

//---------------dance-single - ----------------
#NOTEDATA:;
#CHARTNAME:;
#STEPSTYPE:dance-single;
#DESCRIPTION:;
#CHARTSTYLE:;
#DIFFICULTY:Easy;
#METER:2;
#RADARVALUES:0.115432,0.148138,0.025251,0.008417,0.000000,92.000000,3.000000,1.000000,0.000000,0.000000,0.000000,0.000000,0.000000,0.115432,0.148138,0.025251,0.008417,0.000000,92.000000,3.000000,1.000000,0.000000,0.000000,0.000000,0.000000,0.000000;
#CREDIT:Ben Speirs;
#DISPLAYBPM:90.000000;
#NOTES:
0000
0000
0000
0000
,
0000
0000
0000
0000
,
0000
0000
0000
0000
,
0000
0000
0000
0000
,
0000
0000
0000
0000
,
1000
0000
0001
0000
,
0100
0000
0100
0000
,
0010
0000
0000
0000
,
1000
0000
0001
0000
,
1000
0000
0100
0000
,
0010
0000
0001
1000
,
0010
0000
0100
0000
,
0001
0000
1000
0000
,
0100
0010
0100
0000
,
1000
0100
1000
0000
,
0001
0100
0001
0100
,
0010
0000
1000
0000
,
1001
0000
1000
0000
,
0100
0010
0001
0010
,
0100
0000
1000
0000
,
0001
0000
0100
0000
,
0010
1000
0010
0000
,
1000
0001
1000
0000
,
0001
0000
0100
0000
,
0001
0000
1000
0000
,
1001
0000
0001
0000
,
0010
0100
1000
0100
,
0010
0000
0001
0000
,
1000
0000
0010
0000
,
0100
0100
0001
0000
,
1000
1000
0100
0000
,
0010
0000
0001
0000
,
1000
0001
1000
0001
,
1001
0000
1000
0000
,
0010
0000
0100
0010
,
1000
0000
0100
0000
,
1000
0000
0001
0000
,
0100
0001
1000
0000
,
0100
1000
0010
0000
,
1000
0001
0010
0100
,
1000
0000
0000
0000
,
0000
0000
0000
0000
,
1000
0000
0000
0000
,
0002
0000
0000
0000
,
0003
0000
0000
0000
;

//---------------dance-single - ----------------
#NOTEDATA:;
#CHARTNAME:;
#STEPSTYPE:dance-single;
#DESCRIPTION:;
#CHARTSTYLE:;
#DIFFICULTY:Beginner;
#METER:1;
#RADARVALUES:0.081765,0.108579,0.033668,0.000000,0.000000,64.000000,4.000000,0.000000,0.000000,0.000000,0.000000,0.000000,0.000000,0.081765,0.108579,0.033668,0.000000,0.000000,64.000000,4.000000,0.000000,0.000000,0.000000,0.000000,0.000000,0.000000;
#CREDIT:Ben Speirs;
#DISPLAYBPM:90.000000;
#NOTES:
0000
0000
0000
0000
,
0000
0000
0000
0000
,
0000
0000
0000
0000
,
0000
0000
0000
0000
,
0000
0000
0000
0000
,
1000
0000
0000
0000
,
0001
0000
0000
0000
,
0010
0000
0000
0000
,
0100
0000
0000
0000
,
1000
0000
1000
0000
,
0010
0000
0000
0000
,
0100
0000
0100
0000
,
0001
0000
0000
0000
,
0010
0000
0001
0000
,
1000
0000
0010
0000
,
0100
0000
0001
0000
,
1000
0000
0000
0000
,
1001
0000
0000
0000
,
1000
1000
0000
0001
,
0001
0000
0000
0000
,
0100
0100
0000
0010
,
0010
0000
1000
0000
,
0100
0000
0010
0000
,
0001
0000
0000
0000
,
1000
0000
0000
0000
,
1001
0000
0000
0000
,
0001
0001
0000
0100
,
0100
0000
0000
0000
,
0010
0010
0000
1000
,
1000
0000
0100
0000
,
0010
0000
0001
0000
,
0100
0000
0100
0000
,
0100
0000
0010
0000
,
0110
0000
0000
0000
,
0010
0000
1000
1000
,
1000
0000
0000
0000
,
0100
0000
0100
0000
,
0010
0010
0000
0000
,
0001
0001
0000
0000
,
1000
1000
0000
0010
,
0010
0000
0000
0000
,
0000
0000
0000
0000
,
0100
0000
0000
0000
,
1001
0000
0000
0000
;

//---------------dance-double - ----------------
#NOTEDATA:;
#CHARTNAME:;
#STEPSTYPE:dance-double;
#DESCRIPTION:;
#CHARTSTYLE:;
#DIFFICULTY:Challenge;
#METER:6;
#RADARVALUES:0.303010,0.333311,0.067336,0.235674,0.000000,216.000000,8.000000,28.000000,0.000000,0.000000,0.000000,0.000000,0.000000,0.303010,0.333311,0.067336,0.235674,0.000000,216.000000,8.000000,28.000000,0.000000,0.000000,0.000000,0.000000,0.000000;
#CREDIT:Ben Speirs;
#DISPLAYBPM:90.000000;
#NOTES:
00000000
00000000
00000000
00000000
,
00000000
00000000
00000000
00000000
,
00000000
00000000
00000000
00000000
,
00000000
00000000
00000000
00000000
,
00000000
00000000
00000000
00000000
,
00002000
00000000
00003100
00000000
00001000
00000001
00001000
00000000
,
00000002
00000000
00000103
00000000
00000001
00001000
00000001
00000000
,
00000200
00000310
00002000
00003001
,
00000020
00000000
00000130
00001000
00000001
00000100
00000100
00000010
,
00002010
00000000
00003100
00000000
00001000
00000100
00010000
00000000
,
00010000
00010000
00001000
00000000
02000000
00000000
03010000
00100000
,
01000000
00000000
10000000
00000000
00100000
10000000
00010000
00000000
,
00010000
00010000
01000000
00000000
00100000
10000000
00010000
10000000
,
02000000
00000000
03100000
00100000
00010000
00010000
10000000
00000000
,
00200000
00000000
01300000
01000000
00010000
00010000
10000000
00000000
,
00010000
00000000
01000000
00100000
01000000
00010000
01000000
00001000
,
00020000
00000000
00031000
00010000
00000100
00000100
00001000
00000001
,
00000201
00001000
00000001
00001000
,
00000301
00000000
00000100
00000001
00000010
00000100
00001000
00000000
,
00000100
00000000
00001100
00000000
00000001
00000100
00000101
00000000
,
00001000
00000010
00000100
00000001
00001000
00000000
00000001
00000000
,
00000010
00000010
00000001
00001000
00000100
00000100
00010000
00000000
,
00001000
00001000
00100000
00100000
00010000
10000000
00100000
01000000
,
02000000
03010000
20000000
31000000
,
00200000
00000000
00310000
10000000
00100000
01000000
00010000
00000000
,
10200000
00010000
10000000
00010000
,
10300000
00000000
00100000
10000000
01000000
00100000
00010000
00000000
,
00100000
00000000
00110000
00000000
10000000
00100000
10100000
00000000
,
00010000
01000000
00100000
10000000
00010000
00000000
10000000
00000000
,
01000000
01000000
10000000
00010000
00100000
00100000
00001000
00000000
,
00010000
00010000
00000100
00000100
00001000
00000001
00000100
00000010
,
00000020
00001030
00000002
00000013
,
00000200
00000000
00001300
00000001
00000100
00000010
00001000
00000001
,
00002000
00000000
00003002
00000000
00000013
00000100
00001000
00000000
,
00000010
00000100
00000010
00000100
00000001
00000010
00000100
00001000
,
00002000
00000000
00003200
00000000
00010300
00001000
00020000
00000000
,
00030100
00000000
00001100
00000000
00000100
00010000
00001000
01000000
,
00010000
00010000
10000000
10000000
00100000
01000000
00010000
10000000
,
01000000
01000000
00100000
00100000
00010000
10000000
00100000
01000000
,
00010000
00010000
00100000
00100000
00001000
00001000
00010000
00010000
,
00000200
00000000
00000000
00000000
00000000
00000000
00000000
00000300
,
00000000
00000000
00000000
00000000
,
00002000
00000000
00000000
00000020
00000000
00000000
00003030
00000000
,
00000002
00000000
00000000
00000200
00000000
00000000
00000000
00000000
,
00000303
00000000
00000000
00000000
;
