#VERSION:0.82;
#TITLE:I Wish;
#SUBTITLE:;
#ARTIST:Cher Lloyd feat. T.I.;
#TITLETRANSLIT:;
#SUBTITLETRANSLIT:;
#ARTISTTRANSLIT:;
#GENRE:Pop;
#ORIGIN:;
#CREDIT:;
#BANNER:I Wish.png;
#BACKGROUND:I Wish-bg.png;
#PREVIEWVID:;
#JACKET:jacket.png;
#CDIMAGE:;
#DISCIMAGE:;
#LYRICSPATH:;
#CDTITLE:;
#MUSIC:I Wish.ogg;
#OFFSET:-0.004000;
#SAMPLESTART:93.330208;
#SAMPLELENGTH:13.714000;
#SELECTABLE:YES;
#DISPLAYBPM:91.000000;
#BPMS:0.000=91.800,
143.000=88.560,
144.000=91.800;
#STOPS:;
#DELAYS:;
#WARPS:;
#TIMESIGNATURES:0.000=4=4;
#TICKCOUNTS:0.000=4;
#COMBOS:0.000=1;
#SPEEDS:0.000=1.000=0.000=0;
#SCROLLS:0.000=1.000;
#FAKES:;
#LABELS:0.000=Song Start;
#BGCHANGES:4.000=I Wish.avi=1.000=0=0=1=====,
99999=-nosongbg-=1.000=0=0=0 // don't automatically add -songbackground-
;
#KEYSOUNDS:;
#ATTACKS:
;

//---------------dance-single - ----------------
#NOTEDATA:;
#CHARTNAME:;
#STEPSTYPE:dance-single;
#DESCRIPTION:;
#CHARTSTYLE:;
#DIFFICULTY:Hard;
#METER:8;
#RADARVALUES:0.494195,0.522038,0.100271,0.207705,0.436897,440.000000,14.000000,29.000000,0.000000,0.000000,0.000000,0.000000,0.000000,0.494195,0.522038,0.100271,0.207705,0.436897,440.000000,14.000000,29.000000,0.000000,0.000000,0.000000,0.000000,0.000000;
#CREDIT:Ben Speirs;
#DISPLAYBPM:91.000000;
#NOTES:
// measure 0
0000
0000
0000
0000
,  // measure 1
0000
0000
0000
0000
,  // measure 2
0001
0100
0000
0000
0000
0000
1000
0100
0000
0000
0000
0000
0000
0000
0000
0000
,  // measure 3
0001
0010
0000
0000
0000
0000
1000
0010
0000
0000
0000
0000
1001
0000
0000
0000
,  // measure 4
1000
0000
0001
0100
0001
0000
1000
0100
1000
0000
0001
0000
0010
0000
0000
0000
,  // measure 5
0001
0000
1000
0100
1000
0000
0001
0100
0000
0100
0010
0000
1000
0000
0000
0000
,  // measure 6
0001
0000
1000
0010
1000
0000
0001
0010
0001
0000
1000
0000
0100
0000
0000
0000
,  // measure 7
1000
0000
0001
0010
0001
0000
1000
0010
0000
0010
0100
0000
0001
0000
0000
0000
,  // measure 8
1000
0100
0000
0000
0000
0000
0100
0010
0000
0010
0001
0000
1000
0000
0000
0000
,  // measure 9
0001
0100
0000
0000
0000
0000
0100
0010
0000
0010
1000
0000
0001
0000
0000
0000
,  // measure 10
1000
0100
0000
0000
0000
0000
0001
0100
0000
0100
0010
0000
1000
0000
0000
0000
,  // measure 11
0001
0100
0000
0000
0000
0000
1000
0100
0000
0100
0010
0000
0001
0000
1000
0000
,  // measure 12
0002
0100
1000
0103
,  // measure 13
2000
0100
0001
3100
,  // measure 14
0001
1000
0001
1000
0010
0100
0010
0100
,  // measure 15
0001
0001
0000
1000
1000
0000
0010
0010
0000
0100
0100
0000
0001
1000
0001
1000
,  // measure 16
0010
0000
1010
0000
0010
1000
0001
0000
0020
0000
0000
0000
0031
1000
0001
0000
,  // measure 17
0100
0000
0101
0000
1000
0000
0100
0000
1001
0000
0000
1000
0100
0010
0001
0000
,  // measure 18
1000
0000
1100
0000
0100
1000
0001
0000
0100
0000
0010
1000
0000
0010
1000
0000
,  // measure 19
0001
0010
0002
0000
1003
0000
0200
0000
1300
0000
0001
0000
0100
0010
0100
0010
,  // measure 20
1000
0000
0101
0000
0100
0001
1000
0000
0200
0000
0000
0000
1300
0001
1000
0000
,  // measure 21
0010
0000
1010
0000
0001
0000
0010
0000
1001
0000
0000
0001
0010
0100
1000
0000
,  // measure 22
0001
0000
0011
0000
0010
0001
1000
0000
0010
0000
0100
0001
0000
0100
0001
0000
,  // measure 23
1000
0100
2000
0000
3001
0000
0020
0000
0031
0000
1000
0000
0010
0100
0010
0000
,  // measure 24
1000
0000
0100
1000
0100
0000
1000
0001
1000
0000
0001
0000
0200
0000
0000
0000
,  // measure 25
0301
0000
1000
0001
1000
0000
0001
0100
0000
0100
0010
0000
1000
0000
0000
0000
,  // measure 26
0001
0000
0100
0001
0100
0000
0001
1000
0001
0000
1000
0000
0200
0000
0000
0000
,  // measure 27
1300
0000
0001
1000
0001
0000
1000
0100
0000
0100
0010
0000
0001
0000
0000
0000
,  // measure 28
1000
0100
1000
0000
0001
0000
0100
0001
0100
0000
0010
0000
1000
0000
0000
0000
,  // measure 29
0001
0010
0001
0000
1000
0000
0010
0100
0010
0000
1000
0000
0001
0000
0000
0000
,  // measure 30
1000
0100
0010
0000
0001
0000
1000
0010
0100
0000
0001
0000
1000
0000
0000
0000
,  // measure 31
0001
0010
0100
0000
1000
0000
0010
0100
0001
0000
1000
0000
0001
0000
0000
0000
,  // measure 32
0102
1000
0010
0103
,  // measure 33
2100
0010
0001
3100
,  // measure 34
0001
1000
0010
0100
0001
1000
0100
0010
,  // measure 35
0001
0001
0000
1000
1000
0000
0010
0010
0000
0100
0100
0000
0001
1000
0001
1000
,  // measure 36
0200
0000
0310
0000
0001
0010
0100
0000
2000
0000
3010
0000
0100
0001
0100
0000
,  // measure 37
0002
0000
1003
0100
0010
0000
0001
1000
0010
0000
0000
1000
0001
1000
0001
0000
,  // measure 38
0200
0000
0310
1000
0010
1000
0002
0000
0103
0000
0001
1000
0000
1000
0001
0000
,  // measure 39
1000
0100
2000
0000
3100
0000
0010
0001
0010
0000
0001
0000
1000
0010
0100
0001
,  // measure 40
0020
0000
0130
0000
1000
0100
0010
0000
0002
0000
0103
0000
0010
1000
0010
0000
,  // measure 41
2000
0000
3001
0010
0100
0000
1000
0001
0100
0000
0000
0001
1000
0001
1000
0000
,  // measure 42
0020
0000
0130
0001
0100
0001
2000
0000
3010
0000
1000
0001
0000
0001
1000
0000
,  // measure 43
0001
0010
0002
0000
0013
0000
0200
0000
1300
0000
0001
0000
1000
0001
1000
0000
,  // measure 44
0001
0001
0100
0000
0010
0000
1000
1000
0100
0000
0010
0000
0001
0000
0000
0000
,  // measure 45
1000
1000
0010
0000
0100
0000
0001
0001
1000
0000
0010
0000
0100
0000
0000
0000
,  // measure 46
0001
0100
0000
0100
0010
0000
1000
0100
0000
0100
0010
0000
0001
1000
0000
0000
,  // measure 47
1100
0000
0010
0000
0100
0000
0101
0000
0010
0000
1000
0000
0001
1000
0001
0000
,  // measure 48
1000
0100
0100
0000
1000
0000
0001
0100
0100
0000
0001
0000
1000
0000
0000
0000
,  // measure 49
0001
0010
0010
0000
0001
0000
1000
0010
0010
0000
1000
0000
0001
0000
0000
0000
,  // measure 50
2000
0000
0000
3100
0010
0100
0010
0000
0002
0000
0103
0010
0000
0010
0100
0000
,  // measure 51
0001
0000
1000
0000
0010
0000
1010
0000
0001
0000
0100
0002
0000
2003
0000
0000
,  // measure 52
3100
0100
0000
0000
0000
0000
0000
0000
0000
0000
0000
0000
0000
0000
0000
0000
;

//---------------dance-single - ----------------
#NOTEDATA:;
#CHARTNAME:;
#STEPSTYPE:dance-single;
#DESCRIPTION:;
#CHARTSTYLE:;
#DIFFICULTY:Medium;
#METER:5;
#RADARVALUES:0.303884,0.316571,0.100271,0.322301,0.000000,238.000000,14.000000,45.000000,0.000000,0.000000,0.000000,0.000000,0.000000,0.303884,0.316571,0.100271,0.322301,0.000000,238.000000,14.000000,45.000000,0.000000,0.000000,0.000000,0.000000,0.000000;
#CREDIT:Ben Speirs;
#DISPLAYBPM:91.000000;
#NOTES:
0000
0000
0000
0000
,
0000
0000
0000
0000
,
1000
0000
0000
0100
0000
0000
0000
0000
,
0001
0000
0000
0100
0000
0000
1001
0000
,
1000
0100
1000
0000
0001
0100
0001
0000
,
2000
3200
0320
0030
,
0001
0010
0001
0000
1000
0010
1000
0000
,
0002
0023
0230
0300
,
1000
0100
1100
0000
0001
0000
0101
0000
,
1000
0010
1010
0000
0001
0000
0011
0000
,
1000
0001
0100
0000
0001
1000
0100
0000
,
2000
3002
0203
0310
,
0202
0303
1000
1000
,
2200
3300
0001
0001
,
0020
0031
2000
3010
,
1000
0001
1000
0000
0001
1000
0001
0000
,
0100
0100
0010
1000
0001
0000
1000
0000
,
0100
0100
1000
0001
0010
0000
0001
0000
,
1000
1000
0001
0100
0100
0000
0010
0000
,
2000
3002
0203
0300
,
0001
0000
1000
0001
0100
0000
0001
1000
,
0100
0000
1000
0001
0010
0000
0001
1000
,
0010
0000
0100
0100
0100
0000
0010
0000
,
2000
3200
0320
0031
,
2000
0000
3000
0000
0100
0100
0100
0000
,
1000
0010
1000
0000
0001
0000
1000
0000
,
0002
0000
0003
0000
0100
0100
0100
0000
,
0001
1000
0001
0000
2000
0000
3010
0000
,
1000
0100
0100
0000
1000
0000
0001
0000
,
1000
0100
0010
0001
1000
0000
0000
0000
,
0001
0100
0100
0000
0001
0000
1000
0000
,
0001
0010
0100
1000
0001
0000
0000
0000
,
2200
3300
0001
0001
,
0202
0303
1000
1000
,
0010
1000
0010
0000
1000
0100
1000
0000
,
0002
0023
0230
1300
,
0001
1000
0001
0001
1000
0000
0001
0000
,
1000
0001
1000
1000
0001
0000
1000
0000
,
0020
0000
1030
0001
0020
0000
0031
0000
,
2100
0001
0010
3100
,
0001
0100
0001
0100
0100
0000
0001
0000
,
1000
0100
1000
0100
0100
0000
1000
0001
,
0020
0000
0031
1000
0020
0000
0130
0000
,
0002
0203
0320
1030
,
0001
0000
0000
1000
0000
0000
1001
0000
,
1000
0000
0000
0001
0000
0000
0100
0100
,
0010
0100
0100
0010
1000
0001
1000
0000
,
0200
0320
0032
1003
,
1100
0000
0001
0100
0001
0000
1000
0000
,
0101
0000
1000
0100
1000
0000
0001
0000
,
0010
0010
0001
0010
0010
0100
0010
0000
,
0002
0023
0230
1300
,
1001
0000
0000
0000
;

//---------------dance-double - ----------------
#NOTEDATA:;
#CHARTNAME:;
#STEPSTYPE:dance-double;
#DESCRIPTION:;
#CHARTSTYLE:;
#DIFFICULTY:Challenge;
#METER:8;
#RADARVALUES:0.461453,0.521412,0.136083,0.179056,0.325882,407.000000,19.000000,25.000000,0.000000,0.000000,0.000000,0.000000,0.000000,0.461453,0.521412,0.136083,0.179056,0.325882,407.000000,19.000000,25.000000,0.000000,0.000000,0.000000,0.000000,0.000000;
#CREDIT:Ben Speirs;
#DISPLAYBPM:91.000000;
#NOTES:
00000000
00000000
00000000
00000000
,
00000000
00000000
00000000
00000000
,
00001000
00010000
00000000
00000000
00000000
00000000
00001000
00010000
00000000
00000000
00000000
00000000
00000000
00000000
00000000
00000000
,
00010000
00001000
00000000
00000000
00000000
00000000
00010000
00001000
00000000
00000000
00000000
00000000
00011000
00000000
00000000
00000000
,
00000100
00000000
00001000
00000100
00001000
00000000
00000001
00000100
00000001
00000000
00001000
00000000
00000010
00000000
00000000
00000000
,
00001000
00000000
00000100
00001000
00000100
00000000
00001000
00000010
00000000
00000010
00000100
00000000
00000001
00000000
00000000
00000000
,
00001000
00000000
00000001
00000100
00000001
00000000
00001000
00000100
00001000
00000000
00000001
00000000
00000010
00000000
00000000
00000000
,
00000001
00000000
00001000
00000010
00001000
00000000
00000001
00000010
00000000
00000010
00000100
00000000
00001000
00000000
00000000
00000000
,
00000100
00000000
00010000
00000100
00010000
00000000
00001000
00010000
00001000
00000000
00100000
00000000
00010000
00000000
00000000
00000000
,
00100000
00010000
00000000
00000000
00000000
00000000
10000000
00100000
00000000
00000000
00000000
00000000
10010000
00000000
00000000
00000000
,
10000000
00000000
01000000
10000000
01000000
00000000
10000000
00010000
10000000
00000000
00010000
00000000
01000000
00000000
00000000
00000000
,
00010000
00100000
00000000
00000000
00000000
00000000
10000000
00100000
00000000
00000000
00000000
00000000
10010000
00000000
00000000
00000000
,
20000000
01000000
00010000
30010000
,
00020000
01000000
10000000
10030000
,
00010000
01000000
00001000
01000000
00010000
01000000
00001000
00010000
,
00000200
00000000
00000000
00000000
00010000
00000000
00000000
00000000
00001300
00000000
00000000
00000000
00000100
00001000
00000100
00001000
,
00000001
00000000
00000101
00000000
00000100
00000001
00001000
00000000
00001200
00000000
00000000
00000000
00001300
00000001
00001000
00000000
,
00000010
00000000
00000100
00000001
00000100
00000000
00000010
00001000
00000002
00000000
00000000
00000000
00000013
00000100
00000010
00000000
,
00000001
00000000
00000010
00000000
00000100
00001000
00000100
00000000
00001000
00000000
00000001
00000100
00000000
00000100
00000010
00000000
,
00001000
00000000
00000100
00000000
00010000
00000000
00001000
00000000
00100000
00000000
00010000
00000000
01000000
00100000
01000000
00000000
,
00010000
00000000
01010000
00000000
01000000
00010000
10000000
00000000
12000000
00000000
00000000
00000000
13000000
00010000
10000000
00000000
,
00100000
00000000
00100000
10000000
01000000
00000000
01000000
00100000
00020000
00000000
00000000
00000000
10030000
01000000
10000000
00000000
,
00010000
00000000
01000000
00000000
00100000
10000000
00100000
00000000
01000000
00000000
00010000
10000000
00000000
10000000
00010000
00000000
,
10000000
01000000
00010000
00001000
00000100
00000001
00001000
00000000
,
00000101
00000000
00000100
00000001
00001000
00000000
00000100
00001000
00000001
00000000
00000100
00000000
00000010
00000000
00000000
00000000
,
00001000
00000000
00000000
00000000
00000100
00000000
00010000
00000100
00000000
00000100
00010000
00000000
00001000
00000000
00000000
00000000
,
00100000
00000000
00001000
00100000
00010000
00000000
00100000
00001000
00010000
00000000
00001000
00000000
00100000
00000000
00000000
00000000
,
00001000
00000000
00000000
00000000
00100000
00000000
00010000
01000000
00000000
01000000
00100000
00000000
10000000
00000000
00000000
00000000
,
00010000
10000000
00000000
00000000
00100000
00000000
10000000
00010000
00000000
00000000
00100000
00000000
10010000
00000000
00000000
00000000
,
10000000
01000000
10000000
00000000
00100000
00000000
01000000
00010000
01000000
00000000
00100000
00000000
10000000
00000000
00000000
00000000
,
00010000
01000000
00000000
00000000
00100000
00000000
10000000
01000000
00000000
00000000
00100000
00000000
10010000
00000000
00000000
00000000
,
10000000
01000000
10000000
00000000
00100000
00000000
01000000
00010000
01000000
00000000
00100000
00000000
10000000
00000000
00010000
00000000
,
00200000
00000000
00001000
00000000
00310000
00100000
00001000
00000000
,
00002000
00000000
00010000
00000000
00103000
00001000
00010000
00000000
,
00000100
00010000
00001000
00010000
00000100
00001000
00000010
00000100
,
00000002
00000000
00000000
00000000
00000100
00000000
00000000
00000000
00001003
00000000
00000000
00000000
00001000
00000001
00001000
00000001
,
00000200
00000000
00000310
00000000
00001000
00000100
00001000
00000000
00000002
00000000
00000103
00000000
00000010
00001000
00000010
00000000
,
00001000
00000000
00001000
00000100
00010000
00000000
00010000
00001000
00200000
00000000
00310000
00000000
00100000
00010000
00100000
00000000
,
20010000
00000000
31000000
00000000
10000000
01000000
10000000
00000000
10020000
00000000
01030000
00000000
00010000
01000000
00010000
00000000
,
10000000
00000000
01000000
00000000
00100000
00000000
00010000
00000000
01000000
00000000
00010000
00000000
00100000
00010000
00100000
00000000
,
00120000
00000000
10030000
00000000
00100000
10000000
00100000
00000000
20000000
00000000
30010000
00000000
10000000
01000000
10000000
00000000
,
00010000
00000000
00010000
01000000
00001000
00000000
00001000
00010000
00000200
00000000
00001300
00000000
00000010
00001000
00000010
00000000
,
00001002
00000000
00000103
00000000
00001000
00000100
00001000
00000000
00000001
00000000
00000100
00000010
00000100
00000010
00001000
00000000
,
00000001
00000100
00000020
00000000
00000000
00000000
00001000
00000000
00000001
00000000
00000100
00000000
00001030
00000000
00000000
00000000
,
00000101
00000100
00000010
00001000
00000100
00010000
00010100
00000000
,
00011000
00001000
00100000
00001000
00010000
00000100
00001100
00000000
,
00000002
00000000
00000000
00000103
00000010
00000100
00000010
00000000
00001000
00000000
00000010
00000100
00000000
00000100
00000010
00000000
,
00001000
00000000
00000100
00000000
00010000
00000000
00001000
00000000
00100000
00000000
00010000
00000000
01000000
00010000
01000000
00000000
,
00200000
00000000
00000000
00000000
10300000
00000000
01000000
10000000
00000000
10000000
00010000
00000000
01000000
00000000
00000000
00000000
,
10020000
00000000
00000000
00000000
10030000
00000000
00100000
01000000
00000000
01000000
00010000
00000000
00100000
01000000
00100000
00000000
,
00020000
00000000
00000000
10030000
01000000
10000000
01000000
00000000
10000000
00000000
00100000
01000000
00000000
01000000
00010000
00000000
,
00100000
00000000
00001000
00000000
00100000
00000000
00001000
00000000
00010000
00000000
00000100
00000000
00001000
00000020
00000000
00000000
,
00000130
00000000
00000000
00000000
;

//---------------dance-single - ----------------
#NOTEDATA:;
#CHARTNAME:;
#STEPSTYPE:dance-single;
#DESCRIPTION:;
#CHARTSTYLE:;
#DIFFICULTY:Easy;
#METER:3;
#RADARVALUES:0.172917,0.223462,0.050136,0.171894,0.000000,138.000000,7.000000,24.000000,0.000000,0.000000,0.000000,0.000000,0.000000,0.172917,0.223462,0.050136,0.171894,0.000000,138.000000,7.000000,24.000000,0.000000,0.000000,0.000000,0.000000,0.000000;
#CREDIT:Ben Speirs;
#DISPLAYBPM:91.000000;
#NOTES:
0000
0000
0000
0000
,
0000
0000
0000
0000
,
1000
0000
0000
1000
0000
0000
0000
0000
,
0001
0000
0000
0001
0000
0000
0000
0000
,
0100
0100
0001
1000
,
0010
0000
0010
0000
,
1000
0010
1000
0001
,
0100
0000
0100
0000
,
0001
0010
0010
0001
,
1000
0010
0010
0000
,
1000
0001
0100
0100
,
0001
1000
0100
0000
,
2002
3003
1000
1000
,
0020
0030
0100
0100
,
0002
0003
2000
3000
,
0020
0000
0030
1001
,
1000
0100
0100
1000
,
0001
0100
0100
0000
,
0002
0003
2000
3000
,
0010
1000
0001
0000
,
1000
0100
1000
1000
,
0001
0100
0001
0000
,
2000
3000
0002
0003
,
0100
0100
0100
0000
,
0001
0000
0000
0001
0000
0000
0000
0000
,
1000
0000
0000
1000
0000
0000
0000
0000
,
0010
0000
0000
0010
0000
0000
0000
0000
,
0100
0000
0000
0100
0000
0000
0000
0000
,
0001
0001
0100
0000
,
1000
1000
0100
0000
,
0001
0001
0010
0000
,
1000
1000
0010
0000
,
2002
3003
0001
0001
,
0200
0300
0010
0010
,
2000
3000
0002
0003
,
0200
0000
0300
1001
,
1001
1000
0001
0000
,
0001
1000
0010
0000
,
1000
0001
0100
0000
,
0002
0003
2000
3000
,
0010
1000
0010
0010
,
0100
0001
0100
0000
,
0002
0003
2000
3000
,
0100
0100
0100
0000
,
1001
0000
1000
0001
,
0100
0000
0000
0010
,
0010
0100
0100
0000
,
0002
0003
2000
3000
,
1001
0000
0001
0000
,
0100
0100
0000
0010
,
0010
1000
1000
0000
,
0002
0003
2000
3000
,
0010
0000
0000
0000
;

//---------------dance-single - ----------------
#NOTEDATA:;
#CHARTNAME:;
#STEPSTYPE:dance-single;
#DESCRIPTION:;
#CHARTSTYLE:;
#DIFFICULTY:Beginner;
#METER:1;
#RADARVALUES:0.090040,0.111194,0.028649,0.000000,0.000000,84.000000,4.000000,0.000000,0.000000,0.000000,0.000000,0.000000,0.000000,0.090040,0.111194,0.028649,0.000000,0.000000,84.000000,4.000000,0.000000,0.000000,0.000000,0.000000,0.000000,0.000000;
#CREDIT:Ben Speirs;
#DISPLAYBPM:91.000000;
#NOTES:
0000
0000
0000
0000
,
0000
0000
0000
0000
,
0001
0000
0000
0000
,
0001
0000
0000
0000
,
1001
0000
1000
0000
,
0100
0000
0000
0000
,
1000
0000
1000
0000
,
0001
0000
0000
0000
,
0010
0000
0010
0000
,
0010
0000
0000
0000
,
0001
0000
0001
0000
,
0001
0000
0000
0000
,
0100
0000
0000
0000
,
0010
0000
0000
0000
,
1000
0000
0000
0000
,
0001
0000
0000
1001
,
0000
1000
0000
1000
,
0000
0001
0001
0000
,
0100
0000
0100
0000
,
0100
0000
0000
0000
,
0000
0001
0000
0001
,
0000
1000
0000
1000
,
1000
0000
0000
0000
,
0010
0000
0010
0000
,
0100
0000
0000
0000
,
0001
0001
0001
0000
,
0001
0000
0000
0000
,
1000
1000
1000
0000
,
1000
0000
0000
0000
,
0010
0010
0010
0000
,
0010
0000
0000
0000
,
1000
1000
1000
0000
,
1000
0000
0000
0000
,
0001
0000
0000
0000
,
0100
0000
0000
0000
,
0010
0000
0000
1001
,
0000
1000
0000
1000
,
0000
0001
0001
0000
,
0100
0000
0100
0000
,
0010
0000
0000
0000
,
0000
0001
0000
0001
,
0000
1000
1000
0000
,
0010
0000
0010
0000
,
0010
0000
0000
0000
,
1001
0000
0000
1000
,
1000
0000
0000
0100
,
0100
0000
0000
0000
,
1000
0000
1000
0000
,
1000
0000
0000
0000
,
0001
0001
0000
0000
,
0100
0000
0100
0000
,
0010
0010
0010
0010
;
