#TITLE:I Wanna Get Better;
#SUBTITLE:;
#ARTIST:Bleachers;
#TITLETRANSLIT:;
#SUBTITLETRANSLIT:;
#ARTISTTRANSLIT:;
#GENRE:Optimistic Pop-Rock;
#CREDIT:;
#BANNER:I Wanna Get Better.png;
#BACKGROUND:I Wanna Get Better-bg.png;
#LYRICSPATH:;
#CDTITLE:;
#MUSIC:I Wanna Get Better.ogg;
#OFFSET:-0.005000;
#SAMPLESTART:49.548912;
#SAMPLELENGTH:13.714000;
#SELECTABLE:YES;
#BPMS:0.000000=95.000000
;
#STOPS:
;
#BGCHANGES:8.000=I Wanna Get Better.avi=1.000=0=0=1=====,
99999=-nosongbg-=1.000=0=0=0 // don't automatically add -songbackground-
;
#KEYSOUNDS:;
#ATTACKS:;

//---------------dance-single - ----------------
#NOTES:
     dance-single:
     :
     Hard:
     8:
     0.430838,0.646903,0.082936,0.128174,0.237499,372.000000,11.000000,17.000000,0.000000,0.000000,0.000000,0.430838,0.646903,0.082936,0.128174,0.237499,372.000000,11.000000,17.000000,0.000000,0.000000,0.000000:
0000
0000
0000
0000
,
0000
0000
0000
0000
,
0000
0000
0000
0000
,
0000
0000
0000
0000
,
1000
0001
0100
0100
0010
0100
0001
1000
,
0000
0010
0010
1000
0100
1000
0001
0010
,
0001
0001
0001
0010
0100
0010
0001
1000
,
0010
0000
0100
0100
0100
0000
0000
0000
,
0001
1000
0010
0010
0100
0010
1000
0001
,
0000
0100
0100
0001
0010
0001
1000
0100
,
1000
1000
1000
0100
0010
0100
1000
0001
,
0100
0000
0010
0010
0010
0000
0000
0000
,
0101
0100
0010
1000
0001
1000
0100
0000
,
1100
0100
0010
0001
1000
0010
0100
0000
,
0001
1000
0001
1000
0001
1000
0001
0010
,
0010
0000
0000
0001
0010
0100
1000
0000
,
1010
0010
0100
0001
1000
0001
0010
0010
,
0001
0000
0010
0000
0100
0000
1000
0000
0001
0000
0100
0000
0010
0100
0010
0100
,
0001
0001
1000
0100
1000
0001
0100
0000
,
0010
1000
0001
2001
0000
0010
3010
0000
,
0001
0010
0001
2000
0000
3010
0100
0020
,
0000
0000
1030
0000
0100
0000
1000
0000
0001
0000
0100
0010
0000
0000
0100
0000
,
0000
0000
0001
0000
1000
0100
1000
0000
0001
0100
0000
0000
0000
0000
0000
0000
,
0010
0100
0000
0000
0010
1000
0000
0000
0001
1000
0001
0000
0010
0100
0010
0100
,
1000
0100
1000
0002
0000
0103
0010
0200
,
0000
0301
0010
0001
1000
0010
0100
0010
,
0000
0000
1000
0000
0001
0010
0001
0000
1000
0010
0000
0000
0000
0000
0000
0000
,
0100
0010
0000
0000
0100
0001
0000
0000
1000
0001
1000
0000
0100
0010
0100
0010
,
0002
0000
0000
0000
0013
0000
0000
0000
0001
0010
0001
0000
0100
0000
0010
0000
,
2000
0000
0000
0000
3010
0000
0000
0000
1000
0010
1000
0000
0001
0000
0100
0000
,
0002
0000
0000
0000
0103
0000
0000
0000
0001
0100
0001
0000
1000
0000
0001
0000
,
2000
0000
3100
0000
1000
0001
0100
0000
,
0010
1000
0010
1000
0010
1000
0010
1000
0010
1000
0010
1000
0010
1000
0010
1000
,
0010
1000
0010
1000
0010
1000
0010
1000
0010
1000
0010
1000
0010
1000
0010
1000
,
0001
0001
1000
1000
0010
0100
0001
1000
,
0100
0100
0010
0001
1000
1000
0010
0000
,
0100
0001
0100
0000
0010
0100
0010
0000
1000
0010
1000
0000
0001
1000
0001
0000
,
1000
0100
1000
0000
0100
0010
0100
0000
0010
0000
0001
0000
1000
0000
0010
0000
,
0100
0000
0100
0000
0100
0000
0010
0100
0000
0000
0001
0000
1000
0000
0100
0000
,
0010
0000
0010
0000
0010
0000
0100
0010
0000
0000
0001
0000
0010
0000
0100
0000
,
1000
0010
1000
0002
0000
0103
0010
0200
,
0000
0000
0301
0000
0010
0000
0001
0000
1000
0000
0010
0100
0000
0000
0010
0000
,
0000
0000
1000
0000
0001
0010
0001
0000
1000
0010
0000
0000
0000
0000
0000
0000
,
0100
0010
0000
0000
0100
0001
0000
0000
1000
0001
1000
0000
0100
0010
0100
0010
,
0001
0010
0001
2000
0000
3010
0100
0020
,
0000
1030
0100
1000
0001
0100
0010
0100
,
0000
0000
0001
0000
1000
0100
1000
0000
0001
0100
0000
0000
0000
0000
0000
0000
,
0010
0100
0000
0000
0010
1000
0000
0000
0001
1000
0001
0000
0010
0100
0010
0100
,
0001
0000
0001
0000
0001
0000
0100
0020
0000
0000
0000
0000
1030
0000
0000
0000
,
1000
0000
1000
0000
1000
0000
1000
0200
0000
0000
0000
0000
0310
0000
0000
0000
,
0011
0000
0011
0000
0011
0000
0001
2000
0000
0000
0000
0000
3010
0000
0000
0000
,
1010
0000
1010
0000
1010
0000
1000
0002
0000
0000
0000
0000
0013
0000
0000
0000
,
1001
0000
0000
0000
;

//---------------dance-single - ----------------
#NOTES:
     dance-single:
     :
     Challenge:
     10:
     0.732424,1.000000,0.278967,0.045238,1.000000,637.000000,37.000000,6.000000,0.000000,0.000000,0.000000,0.732424,1.000000,0.278967,0.045238,1.000000,637.000000,37.000000,6.000000,0.000000,0.000000,0.000000:
0000
0000
0000
0000
,
0000
0000
0000
0000
,
0000
0000
0000
0000
,
0000
0000
0000
0000
,
0001
0000
0001
0000
0001
0000
0001
1000
0000
0010
0100
0010
1000
0010
0100
0010
,
1000
0000
1000
0000
1000
0000
0001
1000
0000
0100
0010
0100
1000
0100
0010
0100
,
1000
0000
0001
0000
0100
0000
0010
1000
0001
1000
0010
0000
1000
0001
1000
0001
,
0100
0000
0010
0000
0100
0001
1000
0010
0100
0000
0001
0000
1000
0000
0000
0000
,
0011
0000
0011
0000
0011
0000
1000
0001
0000
1000
0010
1000
0001
1000
0010
1000
,
0001
0000
0100
0000
0010
0000
1000
0001
0000
1000
0100
0010
0001
0010
0100
0000
,
1100
0000
1100
0000
1100
0000
0010
1000
0000
1000
0010
1000
0001
1000
0010
0000
,
0100
0000
0001
0000
1000
0100
0010
0000
0000
0001
1000
0001
1000
0001
1000
0001
,
0101
0000
0010
1000
0100
1000
1001
0000
0010
1000
0100
0000
0010
0000
0001
0000
,
1001
0000
0001
0100
0010
1000
1010
0000
0100
0001
1000
0000
0001
0000
1000
0100
,
0010
0000
0010
0001
0000
0001
1000
0000
1000
0010
0000
0010
0100
0000
0001
1000
,
0010
0000
0100
0000
0001
0000
1000
0100
0010
0001
0010
0100
1000
0001
1000
0001
,
0100
0000
0010
1000
0100
0010
0001
1000
0000
0010
1000
0001
1000
0010
0100
0001
,
1000
1000
0100
1000
0010
0010
0100
0001
1000
1000
0100
0000
0010
0001
0010
0001
,
1000
0000
1001
0000
0100
1000
0010
0000
0100
0001
1000
0100
0010
0001
1000
0000
,
0010
1000
0001
0100
0010
0000
2002
0000
0000
3003
0010
0000
1000
0001
0100
0000
,
0010
1000
0100
0010
0001
0100
1000
0001
0010
1000
0100
0010
0001
1000
0010
0100
,
0001
0010
1000
0010
0001
1000
0100
0010
0001
1000
0010
0100
0001
1000
0010
0100
,
0001
0000
1000
0000
0010
1000
0100
0000
1001
1000
0010
0000
0100
0000
0001
0000
,
1001
0001
0100
0000
1001
1000
0100
0000
1001
0001
0010
0000
1001
1000
0010
0000
,
0100
0001
0010
0100
1000
0010
0001
1000
0100
0001
0010
0100
1000
0001
0100
0010
,
1000
0100
0001
0100
1000
0001
0010
0100
1000
0001
0100
0010
1000
0001
0100
0010
,
1000
0000
0001
0000
0100
0001
0010
0000
1001
0001
0100
0000
0010
0000
1000
0000
,
1001
1000
0010
0000
1001
0001
0010
0000
1001
1000
0100
0000
1001
0001
0100
0000
,
0020
0000
0000
0000
0130
0000
0010
0100
0001
0010
0100
1000
0001
0000
1000
0100
,
0020
0000
0000
0000
0130
0000
0010
0001
0010
0100
1000
0010
0100
0000
0001
1000
,
0020
0000
0000
0000
0130
0000
0010
0100
0001
0010
0100
1000
0001
0000
1000
0100
,
0020
0000
0000
0031
,
1000
0001
1000
0001
1000
0001
1000
0001
1000
0001
1000
0001
1000
0001
1000
0001
1000
0001
1000
0001
1000
0001
1000
0001
1000
0001
1000
0001
1000
0001
1000
0001
,
0100
0010
0100
0010
0100
0010
0100
0010
0100
0010
0100
0010
0100
0010
0100
0010
0100
0010
0100
0010
0100
0010
0100
0010
0100
0010
0100
0010
0100
0010
0100
0010
,
1000
1010
1100
1001
0110
0001
0100
0010
,
1000
0001
0100
0010
1000
0100
0010
0001
1000
0010
0100
0001
1000
0000
0010
0000
,
1000
0000
1000
0000
0100
0010
0001
0000
1000
0000
1000
0000
0010
0100
0001
0000
1000
0000
1000
0000
0001
0010
0100
0000
1000
0000
1000
0000
0001
0100
0010
0000
,
0100
0000
0100
0000
0010
1000
0001
0000
0010
0000
0010
0000
0100
1000
0001
0000
0100
0000
0100
0000
0010
0000
0100
0000
0001
0000
0010
0000
0100
0000
1000
0000
,
0010
0000
1000
0000
0001
0000
1000
0100
0000
0010
0001
0010
0100
1000
0010
0100
,
0001
0000
0001
0000
1000
0000
0010
1000
0000
0001
0010
0100
1000
0010
0100
0001
,
1000
0001
0010
0100
1000
0010
0001
1000
0100
0001
0010
0100
1000
0001
0100
0010
,
1000
0100
0001
0100
1000
0001
0010
0100
1000
0001
0100
0010
1000
0001
0100
0010
,
1000
0000
0001
0000
0100
0001
0010
0000
1001
0001
0100
0000
0010
0000
1000
0000
,
1001
1000
0010
0000
1001
0001
0010
0000
1001
1000
0100
0000
1001
0001
0100
0000
,
0010
1000
0100
0010
0001
0100
1000
0001
0010
1000
0100
0010
0001
1000
0010
0100
,
0001
0010
1000
0010
0001
1000
0100
0010
0001
1000
0010
0100
0001
1000
0010
0100
,
0001
0000
1000
0000
0010
1000
0100
0000
1001
1000
0010
0000
0100
0000
0001
0000
,
1001
0001
0100
0000
1001
1000
0100
0000
1001
0001
0010
0000
1001
1000
0010
0000
,
0100
0000
0100
0000
0100
0000
0100
0100
0000
0010
0100
0001
0010
0100
1000
0001
,
0010
0000
0010
0000
0010
0000
0010
0010
0000
0001
0010
0100
1000
0010
0100
0001
,
1000
0000
1000
0000
1000
0000
1000
1000
0000
0100
1000
0010
0100
0001
0010
0100
,
1000
0000
0010
0000
0100
0000
0001
1000
0000
0010
0010
1000
0100
0010
0001
1000
,
1010
0000
0000
0000
;

//---------------dance-single - ----------------
#NOTES:
     dance-single:
     :
     Medium:
     5:
     0.331745,0.490078,0.188491,0.437300,0.000000,225.000000,25.000000,58.000000,0.000000,0.000000,0.000000,0.331745,0.490078,0.188491,0.437300,0.000000,225.000000,25.000000,58.000000,0.000000,0.000000,0.000000:
0000
0000
0000
0000
,
0000
0000
0000
0000
,
0000
0000
0000
0000
,
0000
0000
0000
0000
,
1000
0001
1000
0000
0020
0000
0130
0000
,
0001
1000
0001
0000
0020
0000
0130
0000
,
1000
0001
1000
0000
0020
0000
0130
0000
,
0000
0000
0001
1000
0001
0000
0000
0000
,
1000
1000
0100
0000
0010
0000
0001
0000
,
0100
0100
0010
0000
0100
0000
0001
0000
,
1000
1000
0010
0000
0100
0000
0001
0000
,
0010
0010
0100
0000
2002
0000
3003
0000
,
0010
0000
1000
0100
0100
0000
1000
0000
,
0010
0000
0100
0001
0001
0000
1000
0000
,
0020
0230
0320
0230
,
0301
0000
0000
0000
0001
0010
0100
0000
,
1000
0001
0100
0100
,
0010
0010
0010
0000
0100
0100
0100
0000
,
1001
0000
0010
0000
1000
0100
0010
0000
,
0001
0000
0100
0200
0000
0010
0310
0000
,
0100
0000
0001
0001
0000
1000
1000
0100
,
0000
0010
0010
0000
0001
0000
1000
0000
,
0010
0000
0100
0000
2002
3003
0000
0000
,
0220
0330
2002
3003
0220
0330
2002
3003
,
0010
0000
1000
1000
0000
0001
0001
0010
,
0000
0100
0100
0000
1000
0000
0001
0000
,
0100
0000
0010
0000
2002
3003
0000
0000
,
0220
0330
2002
3003
0220
0330
2002
3003
,
0200
0000
0000
0000
0310
0000
0001
1000
,
0020
0000
0000
0000
0130
0000
0010
1000
,
0002
0000
0000
0000
0103
0000
0001
0010
,
0200
0000
0000
0300
,
1000
0100
1000
0100
1000
0100
1000
0100
,
1000
0001
1000
0001
1000
0001
1000
0001
,
0100
0100
0100
0100
,
0010
0100
0001
0000
1000
0001
0010
0000
,
0100
0100
1000
1000
0001
0001
0100
0100
,
0010
0010
1000
1000
0001
0000
1000
0000
,
0100
0100
0100
0000
0010
0000
1001
0000
,
0100
0100
0100
0000
0010
0000
1001
0000
,
1000
0000
0010
0010
0000
0100
0100
0001
,
0000
1000
1000
0000
0100
0000
0010
0000
,
0001
1000
0001
0000
0220
0330
0000
0000
,
0202
0303
2200
3300
0022
0033
2020
3030
,
0001
0000
1000
1000
0000
0010
0010
0100
,
0000
0001
0001
0000
1000
0000
0001
0000
,
0010
0100
1000
0000
2002
3003
0000
0000
,
2020
3030
0202
0303
2200
3300
0022
0033
,
0200
0000
0000
0000
0310
0000
0100
0001
,
2000
0000
0000
0000
3100
0000
1000
0001
,
0020
0000
0000
0000
0130
0000
0010
0001
,
0200
0000
0000
0000
0310
0000
0100
0001
,
1001
0000
0000
0000
;

//---------------dance-single - ----------------
#NOTES:
     dance-single:
     :
     Easy:
     3:
     0.159410,0.196031,0.022619,0.052778,0.000000,138.000000,3.000000,7.000000,0.000000,0.000000,0.000000,0.159410,0.196031,0.022619,0.052778,0.000000,138.000000,3.000000,7.000000,0.000000,0.000000,0.000000:
0000
0000
0000
0000
,
0000
0000
0000
0000
,
0000
0000
0000
0000
,
0000
0000
0000
0000
,
1000
0000
0001
0000
,
0100
0000
0010
0000
,
1000
0000
0001
0000
,
0010
0010
0010
0000
,
0001
0000
1000
0000
,
0010
0000
0010
0000
,
1000
0000
0001
0000
,
0100
0100
0100
0000
,
0001
0010
0001
0100
,
0010
0010
1000
0000
,
0100
0100
0100
0100
,
0100
0000
1000
0000
,
0010
0010
1000
0001
,
0100
0010
0010
0001
,
0100
0000
0010
0010
,
1000
0000
0000
1001
0000
0000
0000
0000
,
0001
0010
0001
1000
,
0010
0010
0100
0010
,
1000
0000
0100
0000
,
1000
0001
1000
0001
,
0100
0010
1000
0100
,
0010
0001
1000
0000
,
0010
0000
0100
0000
,
0001
0001
0001
0000
,
2000
3000
0100
0000
,
0020
0030
0001
0000
,
0200
0300
0010
0000
,
2002
0000
0000
3003
,
0010
0100
0010
0100
,
0010
0100
0010
0100
,
0001
0000
1000
0000
,
0100
0100
0100
0000
,
2000
3000
0000
0000
0002
0003
0000
0000
,
0100
0000
0010
0010
,
0010
0000
1000
0000
,
0001
0000
1000
0000
,
0100
0010
0001
0100
,
0010
1000
0001
0000
,
0100
0000
0010
0000
,
1000
1000
1000
1000
,
0001
0100
0010
1000
,
0100
0010
0001
0000
,
1000
0001
0100
0000
,
0010
0010
0010
0000
,
1000
0001
0100
0000
,
0001
1000
0100
0000
,
0010
0010
0010
0000
0000
0000
0000
0000
,
0100
0100
0100
0000
0000
0000
0000
0000
,
1001
0000
0000
0000
;

//---------------dance-single - ----------------
#NOTES:
     dance-single:
     :
     Beginner:
     1:
     0.096938,0.156825,0.090476,0.000000,0.000000,78.000000,12.000000,0.000000,0.000000,0.000000,0.000000,0.096938,0.156825,0.090476,0.000000,0.000000,78.000000,12.000000,0.000000,0.000000,0.000000,0.000000:
0000
0000
0000
0000
,
0000
0000
0000
0000
,
0000
0000
0000
0000
,
0000
0000
0000
0000
,
1000
0000
0000
0000
,
0010
0000
0000
0000
,
1000
0000
0000
0000
,
0001
0000
0001
0000
,
0001
0000
0000
0000
,
0010
0000
0000
0000
,
0001
0000
0000
0000
,
0100
0000
0100
0000
,
0010
0000
1000
0000
,
0001
0000
0010
0000
,
0100
0000
0100
0000
,
0100
0000
0000
0000
,
1000
0000
0010
0000
,
0100
0000
0001
0000
,
1000
0000
0001
0000
,
0010
0000
0000
0000
,
0001
0000
1000
0000
,
0010
0000
0100
0000
,
0000
0001
0001
0000
,
1001
0000
1001
0000
,
0010
0000
0100
0000
,
0001
0000
0010
0000
,
0000
0100
0100
0000
,
1001
0000
1001
0000
,
1000
0000
0000
0000
,
0001
0000
0000
0000
,
0100
0000
0000
0000
,
0010
0000
0000
0000
,
1000
0000
1000
0000
,
1000
0000
1000
0000
,
0001
0000
0001
0000
,
0001
0000
0001
0000
,
0100
0000
0000
0000
,
0100
0000
0000
0000
,
0010
0000
0000
0000
,
0010
0000
0000
0000
,
1001
0000
0000
0000
,
0100
0000
0100
0000
,
0000
0010
0010
0000
,
1001
0000
1001
0000
,
1001
0000
0000
0000
,
0010
0000
0010
0000
,
0000
1000
1000
0000
,
1001
0000
1001
0000
,
0110
0000
0000
0000
,
1000
1000
0000
0000
,
0001
0001
0000
0000
,
0100
0100
0000
0000
,
1001
0000
0000
0000
;

//---------------dance-double - ----------------
#NOTES:
     dance-double:
     :
     Challenge:
     10:
     0.717345,1.000000,0.437300,0.060317,0.889680,600.000000,58.000000,8.000000,0.000000,0.000000,0.000000,0.717345,1.000000,0.437300,0.060317,0.889680,600.000000,58.000000,8.000000,0.000000,0.000000,0.000000:
// measure 0
00000000
00000000
00000000
00000000
,  // measure 1
00000000
00000000
00000000
00000000
,  // measure 2
00000000
00000000
00000000
00000000
,  // measure 3
00000000
00000000
00000000
00000000
,  // measure 4
10010000
10010000
10010000
10000000
01000000
00100000
00010000
10000000
,  // measure 5
00010000
00010000
00010000
01000000
00100000
10000000
00010000
00100000
,  // measure 6
00101000
00101000
00101000
00001000
00010000
00000100
00001000
00000010
,  // measure 7
00000100
00000000
00000100
00000000
00000001
00001000
00000001
00001000
00000001
00000000
00000000
00000000
00000010
00000000
00000000
00000000
,  // measure 8
00000101
00001100
00000101
00001000
00000100
00000010
00000001
00001000
,  // measure 9
00000010
00000010
00001000
00000100
00010000
00001000
00100000
00010000
,  // measure 10
00110000
00000000
00110000
00000000
00110000
00000000
00010000
00000000
10000000
00000000
00100000
00000000
01000000
00010000
01000000
00000000
,  // measure 11
00100000
00000000
10000000
00000000
00010000
10000000
00010000
00000000
00000000
10000000
01000000
00100000
00010000
00100000
01000000
10000000
,  // measure 12
00020000
01030000
00100000
20000000
31000000
00100000
00010000
10000000
,  // measure 13
00200000
00000000
01300000
00000000
00010000
00000000
00200000
00000000
00301000
00000000
00010000
00000000
00000100
00000000
00001000
00000010
,  // measure 14
00000100
00000000
00000100
00000001
00000000
00000001
00001000
00000000
00001000
00000100
00000000
00000100
00000010
00000000
00000001
00001000
,  // measure 15
00000001
00000000
00000000
00000000
00000000
00000000
00001000
00000100
00000010
00000001
00001000
00000010
00000100
00000001
00001000
00000000
,  // measure 16
00000101
00000000
00000100
00000000
00000010
00000000
00001000
00000100
00000000
00000100
00000010
00000001
00000010
00000001
00001000
00000000
,  // measure 17
00000010
00001000
00000010
00001000
00000010
00001000
00000001
00000000
00000100
00000001
00000100
00000000
00000001
00001000
00000001
00000000
,  // measure 18
00001000
00000000
00000100
00000000
00010000
00001000
00010000
00000000
00001000
00100000
00001000
00100000
00001000
00100000
00010000
00000000
,  // measure 19
10000000
00010000
10000000
00010000
10000000
00000000
01100000
00000000
00000000
00000000
10010000
00000000
10000000
01000000
00100000
00000000
,  // measure 20
00010000
01000000
00010000
10000000
01000000
00100000
00010000
01000000
00100000
10000000
01000000
00100000
00010000
01000000
00001000
00010000
,  // measure 21
00001000
00010000
00000010
00001000
00000100
00000010
00000001
00000100
00000010
00001000
00000100
00000010
00000001
00001000
00000010
00000100
,  // measure 22
00000001
00000000
00001000
00000000
00000100
00000010
00000001
00000000
00001100
00000100
00000010
00000000
00000001
00000000
00001000
00000000
,  // measure 23
00001010
00000010
00000100
00000000
00001001
00000001
00000100
00000000
00001100
00001000
00000001
00000000
00000011
00000001
00001000
00000000
,  // measure 24
00000001
00000100
00000010
00001000
00000100
00000010
00000001
00001000
00000010
00010000
00000100
00010000
00001000
00010000
00001000
00100000
,  // measure 25
00010000
10000000
00100000
01000000
00010000
10000000
01000000
00100000
00010000
01000000
00100000
10000000
01000000
00100000
00010000
10000000
,  // measure 26
00100000
00000000
01000000
00000000
00010000
10000000
00100000
00000000
10100000
00100000
01000000
00000000
00010000
00000000
10000000
00000000
,  // measure 27
11000000
01000000
00100000
00000000
00110000
00010000
10000000
00000000
10100000
10000000
00010000
00000000
01010000
01000000
00010000
00000000
,  // measure 28
20000000
00000000
30010000
01000000
00100000
10000000
01000000
00100000
,  // measure 29
00020000
00000000
01030000
00000000
00010000
01000000
00001000
00001000
,  // measure 30
00020000
00000000
00030100
00000000
00001000
00000010
00000100
00000001
,  // measure 31
00002000
00000100
00000100
00000100
00000100
00003100
00001100
00000000
,  // measure 32
00000100
00010000
00000100
00010000
00000100
00010000
00000100
00010000
00000100
00010000
00000100
00010000
00000100
00010000
00000100
00010000
00001000
00010000
00001000
00010000
00001000
00010000
00001000
00010000
00001000
00010000
00001000
00010000
00001000
00010000
00001000
00010000
,  // measure 33
00001000
00100000
00001000
00100000
00001000
00100000
00001000
00100000
00001000
00100000
00001000
00100000
00001000
00100000
00001000
00100000
00010000
00100000
00010000
00100000
00010000
00100000
00010000
00100000
00010000
00100000
00010000
00100000
00010000
00100000
00010000
00000000
,  // measure 34
10000000
00000000
00100000
00000000
01000000
00000000
00010000
10000000
01000000
00000000
00100000
00000000
00010000
10000000
00100000
00000000
,  // measure 35
01000000
01000000
00010000
00010000
10000000
10000000
01000000
01000000
00100000
00010000
01000000
00100000
00010000
00001000
00000010
00000001
,  // measure 36
00001000
00000000
00001000
00000000
00000100
00000010
00000001
00000000
00001000
00000000
00001000
00000000
00000010
00000100
00000001
00000000
00001000
00000000
00001000
00000000
00000100
00000010
00000001
00000000
00001000
00000000
00001000
00000000
00000010
00000100
00000001
00000000
,  // measure 37
00001000
00000000
00001000
00000000
00000100
00000010
00000001
00000000
00001000
00000000
00001000
00000000
00000010
00000100
00000001
00000000
00001000
00000000
00000100
00000000
00000010
00000000
00000001
00000000
00000100
00000000
00000010
00000000
00001000
00000000
00000100
00000000
,  // measure 38
00010000
00001000
00010000
00001000
00100000
00010000
10000000
00100000
00000000
10000000
01000000
00100000
00010000
01000000
00100000
10000000
,  // measure 39
00000000
00010000
01000000
10000000
01000000
00010000
00100000
10000000
00100000
00010000
10000000
00100000
01000000
00010000
10000000
01000000
,  // measure 40
11000000
10000000
00100000
01000000
00010000
00100000
01000000
10000000
00010000
00100000
00010000
01000000
00100000
01000000
00010000
10000000
,  // measure 41
01000000
00100000
00010000
01000000
00001000
00010000
00001000
00010000
00000010
00001000
00000001
00000010
00000100
00001000
00000010
00000100
,  // measure 42
00000001
00000000
00001000
00000000
00000010
00000100
00000001
00000000
00001100
00001000
00000001
00000000
00000100
00000000
00000010
00000000
,  // measure 43
00001010
00000010
00000100
00000000
00001001
00000001
00000100
00000000
00000011
00000010
00000100
00000000
00001001
00001000
00000001
00000000
,  // measure 44
00000100
00000010
00000100
00000001
00000010
00000100
00000010
00000001
00000100
00000010
00001000
00000100
00000010
00000100
00001000
00000010
,  // measure 45
00010000
00000100
00010000
00001000
00010000
00001000
00100000
00010000
10000000
00100000
01000000
00010000
10000000
01000000
00100000
00010000
,  // measure 46
01000000
00000000
00100000
00000000
10000000
01000000
00100000
00000000
00110000
00100000
01000000
00000000
10000000
00000000
00010000
00000000
,  // measure 47
11000000
01000000
00100000
00000000
10010000
00010000
01000000
00000000
10100000
00100000
01000000
00000000
10010000
00010000
01000000
00000000
,  // measure 48
01010000
00000000
01010000
00000000
01010000
00000000
01010000
01010000
00000000
10000000
01000000
00100000
00010000
01000000
00100000
00000000
,  // measure 49
10100000
00000000
10100000
00000000
10100000
00000000
10100000
10100000
00000000
10000000
01000000
00100000
00010000
01000000
00100000
00010000
,  // measure 50
00011000
00000000
00011000
00000000
00011000
00000000
00011000
00011000
00000000
00010000
00001000
00000010
00000001
00000100
00000010
00001000
,  // measure 51
00000101
00000000
00000101
00000000
00000101
00000000
00000101
00000101
00000000
00001000
00000100
00000010
00000001
00000100
00000010
00001000
,  // measure 52
00010100
00000000
00000000
00000000
;
