#VERSION:0.82;
#TITLE:I Took A Pill In Ibiza;
#SUBTITLE:(SeeB Mix);
#ARTIST:Mike Posner;
#TITLETRANSLIT:;
#SUBTITLETRANSLIT:;
#ARTISTTRANSLIT:;
#GENRE:Be Like The Cool Kids;
#ORIGIN:;
#CREDIT:;
#BANNER:I Took A Pill In Ibiza (SeeB Mix).png;
#BACKGROUND:I Took A Pill In Ibiza (SeeB Mix)-bg.png;
#PREVIEWVID:;
#JACKET:jacket.png;
#CDIMAGE:;
#DISCIMAGE:;
#LYRICSPATH:;
#CDTITLE:;
#MUSIC:I Took A Pill In Ibiza (SeeB Mix).ogg;
#OFFSET:-1.036000;
#SAMPLESTART:76.338226;
#SAMPLELENGTH:15.374000;
#SELECTABLE:YES;
#BPMS:0.000=102.000;
#STOPS:;
#DELAYS:;
#WARPS:;
#TIMESIGNATURES:0.000=4=4;
#TICKCOUNTS:0.000=4;
#COMBOS:0.000=1;
#SPEEDS:0.000=1.000=0.000=0;
#SCROLLS:0.000=1.000;
#FAKES:;
#LABELS:0.000=Song Start;
#BGCHANGES:0.000=I Took A Pill In Ibiza (SeeB Mix).avi=1.000=0=0=1=====,
99999=-nosongbg-=1.000=0=0=0 // don't automatically add -songbackground-
;
#KEYSOUNDS:;
#ATTACKS:
;

//---------------dance-single - ----------------
#NOTEDATA:;
#CHARTNAME:;
#STEPSTYPE:dance-single;
#DESCRIPTION:;
#CHARTSTYLE:;
#DIFFICULTY:Hard;
#METER:8;
#RADARVALUES:0.466593,0.567134,0.143846,0.143846,0.258077,352.000000,17.000000,17.000000,0.000000,0.000000,0.000000,0.000000,0.000000,0.466593,0.567134,0.143846,0.143846,0.258077,352.000000,17.000000,17.000000,0.000000,0.000000,0.000000,0.000000,0.000000;
#CREDIT:Ben Speirs;
#NOTES:
// measure 0
0000
0000
0000
0000
,  // measure 1
0000
0000
0000
0000
,  // measure 2
0000
0000
0000
0000
,  // measure 3
0000
0000
0000
0000
,  // measure 4
0001
0000
0000
0100
0000
0000
0010
0000
0000
0100
0000
0000
0001
0000
0000
0000
,  // measure 5
1000
0100
0010
0001
1000
0000
0001
0000
,  // measure 6
0100
0010
0100
0100
0001
1000
0001
0001
,  // measure 7
0010
0001
1000
0100
0020
0000
0031
0000
,  // measure 8
1000
0000
0000
0010
1000
0000
0001
0000
0000
0000
1000
0000
0100
0000
0010
0000
,  // measure 9
0001
0000
0000
0100
0001
0000
1000
0000
0000
0000
0001
0000
0010
0000
0100
0000
,  // measure 10
1000
0000
0010
0000
0100
0000
0010
0000
1000
0000
0100
0000
0000
0000
1000
0100
,  // measure 11
1000
0000
0010
0000
0000
0000
0100
0001
0100
0000
0010
0000
1000
0000
0000
0000
,  // measure 12
0001
0000
0000
0001
0010
0000
0100
0000
1000
0000
0010
0000
0100
0000
0000
0000
,  // measure 13
0010
0000
0000
0010
1000
0000
0100
0000
0010
0000
0001
0000
1000
0000
0000
0000
,  // measure 14
0010
0100
0010
1000
0100
0010
0001
1000
,  // measure 15
0010
0100
0010
1000
0100
0010
0001
0000
,  // measure 16
1000
0000
1000
0100
0000
0000
0010
0000
0000
0010
0000
0000
0001
0000
0000
0000
,  // measure 17
0100
0000
0100
0010
0000
0000
1000
0000
0000
1000
0000
0000
0001
0000
0000
0000
,  // measure 18
1000
0000
1000
0100
0000
0000
0100
0000
0000
0010
0000
0000
0001
0000
0000
0000
,  // measure 19
0001
0000
0001
0100
0000
0000
0100
0000
0000
0010
0000
0000
1000
0000
0000
0000
,  // measure 20
0001
0100
0010
1000
0100
0010
1001
0000
,  // measure 21
0010
1000
0100
0010
0001
1000
0101
0000
,  // measure 22
1000
0100
1000
0010
0100
0001
1010
0000
,  // measure 23
0001
0010
0100
0000
1000
0010
0100
0000
,  // measure 24
1001
0000
0001
0000
1000
0000
1000
0000
0010
0100
0010
0100
0000
0000
0010
0000
,  // measure 25
1000
0000
1000
0000
0001
0000
0001
1000
0000
0000
0100
0010
0100
0000
0010
0000
,  // measure 26
0001
0000
0001
0000
1000
0000
1000
0000
0001
0100
0001
0100
0000
0000
0010
0000
,  // measure 27
2000
0000
0000
3100
0000
0000
1000
0000
0002
0000
0000
0103
0000
0000
0010
0000
,  // measure 28
1010
0000
1000
0000
0001
0000
0001
0000
0100
0010
0100
0010
0000
0000
0100
0000
,  // measure 29
0001
0000
0001
0000
1000
0000
1000
0001
0000
0000
0010
0100
0010
0000
0100
0000
,  // measure 30
1000
0000
1000
0000
0001
0000
0001
0000
1000
0010
1000
0010
0000
0000
0100
0000
,  // measure 31
0002
0000
0000
0013
0000
0000
0001
0000
2000
0000
0000
3010
0000
0000
0100
0001
,  // measure 32
0100
0000
0010
0000
1000
0000
0100
0000
0010
0001
0010
0001
0000
0000
1000
0000
,  // measure 33
0001
0000
0100
0000
0010
0000
1000
0000
0001
0010
0002
0000
0203
0000
0320
0000
,  // measure 34
1030
0000
0001
0000
0010
0000
0100
0000
1000
0001
1000
0001
0000
0000
0100
0000
,  // measure 35
0010
0000
1000
0100
1000
0000
0010
0000
0100
0000
0001
1000
0001
0000
0000
0000
,  // measure 36
1000
0000
0100
0000
0010
0000
0001
0000
1000
0010
1000
0010
0000
0000
1000
0000
,  // measure 37
0001
0000
0010
0000
0100
0000
1000
0000
0010
0100
0020
0000
2030
0000
3200
0000
,  // measure 38
0310
0000
0001
0000
1000
0000
0010
0000
0100
0001
0100
0001
0000
0000
1000
0000
,  // measure 39
0001
0000
0010
0000
0100
1000
0100
0000
0010
0000
0001
0000
0100
0010
0100
0000
,  // measure 40
0001
0000
0101
0000
0100
0000
0110
0000
0010
1000
0010
1000
0001
0000
0010
0000
,  // measure 41
0100
0000
1100
0000
0100
0000
0110
0000
0010
0001
0020
0000
0032
0000
2003
0000
,  // measure 42
3010
0000
1010
0000
0001
0000
0101
0000
0100
0001
0100
0001
1000
0000
0100
0000
,  // measure 43
0010
0001
0010
0000
0001
0000
1000
0000
0010
1000
0010
0000
1000
0000
0001
0000
,  // measure 44
0100
0000
0110
0000
0010
0000
1010
0000
1000
0100
1000
0100
0010
0000
0001
0000
,  // measure 45
0100
0000
0101
0000
0100
0000
0110
0000
0010
1000
0020
0000
2030
0000
3200
0000
,  // measure 46
0310
0000
0011
0000
1000
0000
1100
0000
0001
0100
0001
0100
0001
0000
1000
0000
,  // measure 47
0010
0100
0010
0000
1000
0000
0001
0000
0010
0100
0010
0000
0001
0000
1000
0000
;

//---------------dance-double - ----------------
#NOTEDATA:;
#CHARTNAME:;
#STEPSTYPE:dance-double;
#DESCRIPTION:;
#CHARTSTYLE:;
#DIFFICULTY:Challenge;
#METER:8;
#RADARVALUES:0.506483,0.546879,0.245384,0.118461,0.308846,376.000000,29.000000,14.000000,0.000000,0.000000,0.000000,0.000000,0.000000,0.506483,0.546879,0.245384,0.118461,0.308846,376.000000,29.000000,14.000000,0.000000,0.000000,0.000000,0.000000,0.000000;
#CREDIT:Ben Speirs;
#NOTES:
00000000
00000000
00000000
00000000
,
00000000
00000000
00000000
00000000
,
00000000
00000000
00000000
00000000
,
00000000
00000000
00000000
00000000
,
10000000
00000000
00000000
01000000
00000000
00000000
00010000
00000000
00000000
00001000
00000000
00000000
00000100
00000000
00000000
00000000
,
00000010
00000000
00000010
00000000
00000100
00000000
00000001
00001000
00000001
00000000
00000000
00000000
00001000
00000000
00000000
00000000
,
00000001
00000010
00000001
00000001
00000010
00001000
00000010
00000010
,
00001000
00010000
00001000
00010000
00100000
10000000
11000000
00000000
,
00010000
00000000
00000000
00010000
01000000
00000000
00010000
00000000
00000000
00000000
01000000
00000000
01010000
00000000
00010000
00000000
,
10000000
00000000
00000000
10000000
01000000
00000000
10000000
00000000
00000000
00000000
01000000
00000000
11000000
00000000
10000000
00000000
,
00100000
00000000
01000000
00000000
00010000
00000000
00100000
00000000
00001000
00000000
00010000
00000000
00000100
00000000
00010000
00001000
,
00020000
00000000
00000000
00000000
00130000
00000000
00010000
00000000
00001000
00000000
00010000
00000100
00010000
00000000
00000100
00000000
,
00001000
00000000
00000000
00001000
00000010
00000000
00000110
00000000
00000000
00000000
00000100
00000000
00000010
00000000
00001000
00000000
,
00000001
00000000
00000000
00000001
00000010
00000000
00000110
00000000
00000000
00000000
00000010
00000000
00000001
00000000
00000100
00000000
,
00000010
00001000
00000100
00000001
00000100
00001000
00000010
00000100
,
00000001
00000010
00001000
00000010
00000001
00000100
00001000
00000000
,
00001100
00000000
00000100
00000010
00000000
00000010
00001000
00000000
00001000
00000100
00000000
00000100
00010000
00000000
00000000
00000000
,
00001000
00000000
00001000
00010000
00000000
00010000
00001000
00000000
00001000
00100000
00000000
00100000
00010000
00000000
00000000
00000000
,
10000000
00000000
10000000
00100000
00000000
00100000
01000000
00000000
01000000
00010000
00000000
00010000
10000000
00000000
00000000
00000000
,
00010000
00000000
00010000
00100000
00000000
00100000
01000000
00000000
01000000
10000000
00000000
10000000
00100000
01000000
00000000
00000000
,
00100000
00000000
10000000
01000000
10000000
00000000
00100000
00000000
01000000
00010000
01000000
00000000
00100000
00000000
00000000
00000000
,
10000000
00000000
00010000
00100000
00010000
00000000
01000000
00000000
00100000
00010000
00100000
00000000
10000000
00000000
01000000
00000000
,
00100000
00000000
00010000
00100000
00010000
00000000
00100000
00000000
00001000
00100000
00001000
00000000
00010000
00000000
00000100
00000000
,
00001000
00000000
00000010
00000100
00000010
00000000
00001000
00000000
00000100
00000000
00000010
00000000
00000001
00000000
00000011
00000000
,
00001000
00000000
00001000
00000000
00000001
00000000
00000001
00000000
00000100
00000010
00000100
00000010
00000000
00000000
00001000
00000000
,
00000001
00000010
00000100
00001000
00000000
00000020
00000230
00002300
,
00013000
00000000
00010000
00000000
00001000
00000000
00001000
00000000
00010000
00001000
00010000
00001000
00000000
00000000
00100000
00000000
,
00110000
00000000
00000000
00010000
00000000
00000000
10000000
00000000
10100000
00000000
00000000
00100000
00000000
00000000
01000000
00000000
,
00100000
00000000
00100000
00000000
10000000
00000000
10000000
00000000
00010000
10000000
00010000
10000000
00000000
00000000
10000000
00000000
,
00100000
00100000
01000000
00010000
00000000
02000000
03020000
00230000
,
00301000
00000000
00001000
00000000
00010000
00000000
00010000
00000000
00000100
00010000
00000100
00010000
00000000
00000000
00001000
00000000
,
00001000
00000000
00000000
00010000
00001000
00000000
00000000
00000000
00010000
00000000
00000000
00000100
00001000
00000000
00001100
00000000
,
00000001
00000000
00000100
00000000
00001000
00000000
00000100
00000000
00000010
00001000
00000010
00001000
00000100
00000000
00000010
00000000
,
00000001
00000000
00000100
00000000
00000010
00000000
00001000
00000100
00001000
00000000
00000200
00000000
00020300
00000000
00032000
00000000
,
00103000
00000000
00010000
00000000
01000000
00000000
00100000
00000000
10000000
01000000
00100000
01000000
10000000
00000000
01000000
00000000
,
11000000
00100000
01000000
00010000
01010000
01000000
00100000
10000000
,
10010000
00000000
10010000
00000000
01100000
00000000
01100000
00000000
10000000
00100000
10000000
00100000
01000000
00000000
00010000
00000000
,
00100000
00000000
00010000
00100000
00010000
00000000
01000000
00000000
00001000
00000000
00020000
00000000
00030200
00000000
00002300
00000000
,
00003010
00000000
00000100
00000010
00000100
00000000
00000001
00000000
00000100
00000010
00000100
00000010
00001000
00000000
00000001
00000000
,
00000011
00000000
00000000
00000001
00000000
00000000
00001000
00000000
00001010
00000000
00000000
00000010
00000000
00000000
00000100
00000000
,
00000001
00000000
00000101
00000000
00001000
00000000
00001100
00000000
00000001
00000010
00000100
00001000
00000010
00000000
00000100
00000000
,
00000010
00000000
00001010
00000000
00001000
00000000
00001100
00000000
00000100
00010000
00001000
00000000
00100000
00000000
00010000
00000000
,
01000000
00000000
01010000
00000000
10000000
00000000
11000000
00000000
00010000
00100000
01000000
10000000
00100000
00000000
01000000
00000000
,
00010000
10000000
00010000
00000000
01000000
00000000
00100000
00000000
10000000
01000000
10000000
00000000
01000000
00000000
00100000
00000000
,
00010000
00000000
00110000
00000000
00100000
00000000
00101000
00000000
00001000
00010000
00001000
00010000
00000100
00000000
00001000
00000000
,
00000010
00000000
00010010
00000000
00000010
00000000
00001010
00000000
00001000
00000100
00000010
00000000
00000001
00000000
00000100
00000000
,
00000010
00000000
00000100
00000001
00000100
00000000
00000010
00001000
00000010
00000000
00001000
00000100
00001000
00000000
00000001
00000000
,
00000020
00000000
00000000
00000130
00001000
00000000
00000010
00000000
00000100
00000001
00000100
00000000
00000010
00000000
00001001
00000000
;

//---------------dance-single - ----------------
#NOTEDATA:;
#CHARTNAME:;
#STEPSTYPE:dance-single;
#DESCRIPTION:;
#CHARTSTYLE:;
#DIFFICULTY:Medium;
#METER:5;
#RADARVALUES:0.297362,0.303822,0.050769,0.194615,0.050769,217.000000,6.000000,23.000000,0.000000,0.000000,0.000000,0.000000,0.000000,0.297362,0.303822,0.050769,0.194615,0.050769,217.000000,6.000000,23.000000,0.000000,0.000000,0.000000,0.000000,0.000000;
#CREDIT:Ben Speirs;
#NOTES:
0000
0000
0000
0000
,
0000
0000
0000
0000
,
0000
0000
0000
0000
,
0000
0000
0000
0000
,
2000
0000
3010
0000
0100
0001
0100
0000
,
0020
2030
3001
0000
,
1000
0100
1000
0000
0001
0100
0001
0000
,
1000
0100
0010
0001
2000
0000
3010
0000
,
0100
0000
0000
0100
0000
0000
0100
0000
0000
0000
0000
0000
0001
0000
0000
0000
,
0010
0000
0000
0010
0000
0000
0010
0000
0000
0000
0000
0000
0001
0000
0000
0000
,
1000
0000
0001
0000
0100
0010
1000
0000
,
0100
0010
0001
0000
1000
0000
0000
0000
,
0010
0000
0000
0010
0000
0000
0010
0000
0000
0000
0000
0000
1000
0000
0001
0000
,
0100
0000
0000
0100
0000
0000
0100
0000
0000
0000
0000
0000
0001
0000
1000
0000
,
0010
0000
0100
0000
0001
1000
0100
0000
,
0010
0001
0100
0000
0010
0000
0000
0000
,
1000
0000
0000
0100
0000
0000
0010
0000
0000
0001
0000
0000
1000
0000
0000
0000
,
0001
0000
0000
0100
0000
0000
0010
0000
0000
1000
0000
0000
0001
0000
0000
0000
,
2100
0000
3001
0000
1000
0001
1000
0000
,
0102
0000
1003
0000
0001
1000
0001
0000
,
0100
0000
0000
0100
0000
0000
0010
0000
0000
0010
0000
0000
1000
0000
0000
0000
,
0100
0000
0000
0100
0000
0000
0010
0000
0000
0010
0000
0000
0001
0000
0000
0000
,
2100
0000
3001
0000
1000
0001
1000
0000
,
0102
0000
1003
0000
0001
1000
0001
0000
,
0100
0100
0010
0000
2000
0000
3100
0000
,
0010
0010
0001
0000
0000
1000
0001
1000
,
0010
0010
0100
0000
0002
0000
1003
0000
,
0100
0100
0000
0000
0100
0100
0000
0000
,
1000
1000
0010
0000
0200
0000
0301
0000
,
1000
1000
0100
0000
0000
0010
0001
0010
,
0001
0000
1000
0000
0010
0010
0100
0000
,
0001
1000
0001
0000
1001
0000
0000
0000
,
1000
0010
1000
0000
0002
0000
1003
0000
,
0010
1000
0010
0000
0200
0000
0301
0000
,
1000
0100
1000
0000
0002
0000
0103
0000
,
0020
0030
1000
1001
,
0010
1000
0010
0000
0100
0000
0001
0000
,
1000
0100
1000
0000
0001
0000
0000
0000
,
0010
0001
0010
0001
1000
0001
1000
0000
,
0020
0030
0200
0300
,
0001
0100
0001
1000
0001
0010
0001
0000
,
1000
0100
1000
0001
1000
0000
0010
0000
,
0200
0000
0310
0000
1000
0100
0010
0000
,
0002
0103
0020
1030
,
0001
0100
0001
0010
0001
1000
0001
0000
,
1000
0100
1000
0010
1000
0000
0001
0000
,
0010
0100
0010
0000
0002
0000
1003
0000
,
0020
0000
0130
0000
0200
0000
0301
1000
;

//---------------dance-single - ----------------
#NOTEDATA:;
#CHARTNAME:;
#STEPSTYPE:dance-single;
#DESCRIPTION:;
#CHARTSTYLE:;
#DIFFICULTY:Easy;
#METER:3;
#RADARVALUES:0.153516,0.180865,0.050769,0.042308,0.000000,116.000000,6.000000,5.000000,0.000000,0.000000,0.000000,0.000000,0.000000,0.153516,0.180865,0.050769,0.042308,0.000000,116.000000,6.000000,5.000000,0.000000,0.000000,0.000000,0.000000,0.000000;
#CREDIT:Ben Speirs;
#NOTES:
0000
0000
0000
0000
,
0000
0000
0000
0000
,
0000
0000
0000
0000
,
0000
0000
0000
0000
,
0100
0100
0010
0000
,
1000
1000
0100
0000
,
2000
3000
0020
0030
,
0200
0300
0002
0003
,
1000
1000
0100
0000
,
0010
0010
0001
0000
,
0100
0001
0100
0000
,
0020
0030
0000
0000
,
1000
1000
0001
0000
,
0001
0001
0010
0000
,
0001
0100
0001
0000
,
1000
0100
1000
0000
,
0010
0000
0100
0000
,
0001
0000
1000
0100
,
0010
0000
0001
0100
,
0010
0000
1000
0000
,
0001
0000
0100
0000
,
0010
0000
1000
0100
,
0010
0000
0001
1000
,
0010
0000
0100
0000
,
1001
0000
0100
0100
,
0001
0000
1000
0000
,
0010
0000
1000
1000
,
0100
0000
0100
0000
,
1001
0000
0010
0010
,
1000
0000
0001
0000
,
0010
0000
0001
0001
,
0100
0000
0100
0000
,
0110
0000
1000
0010
,
0100
0000
0001
1000
,
0100
0000
0010
0001
,
0100
0000
0100
0000
,
0110
0000
0001
1000
,
0100
0000
1000
0010
,
0100
0000
0001
1000
,
0010
0000
0010
0000
,
1001
0000
1000
1000
,
0001
0000
0100
0000
,
0010
1000
0010
1000
,
0001
0000
1000
0000
,
1001
0000
0001
0001
,
1000
0000
0010
0000
,
0100
0001
0100
0001
,
1000
0000
0001
0000
;

//---------------dance-single - ----------------
#NOTEDATA:;
#CHARTNAME:;
#STEPSTYPE:dance-single;
#DESCRIPTION:;
#CHARTSTYLE:;
#DIFFICULTY:Beginner;
#METER:1;
#RADARVALUES:0.108791,0.161615,0.059231,0.000000,0.000000,83.000000,7.000000,0.000000,0.000000,0.000000,0.000000,0.000000,0.000000,0.108791,0.161615,0.059231,0.000000,0.000000,83.000000,7.000000,0.000000,0.000000,0.000000,0.000000,0.000000,0.000000;
#CREDIT:Ben Speirs;
#NOTES:
0000
0000
0000
0000
,
0000
0000
0000
0000
,
0000
0000
0000
0000
,
0000
0000
0000
0000
,
1000
0000
0000
0000
,
0010
0000
0000
0000
,
1000
0000
0000
0000
,
0001
0000
0000
0000
,
0100
0100
0000
0000
,
0001
0001
0000
0000
,
1000
1000
0000
0000
,
0010
0000
1000
0000
,
0100
0100
0000
0000
,
0010
0010
0000
0000
,
0001
0001
0000
0000
,
0100
0000
0100
0000
,
1001
0000
0000
1000
,
1000
0000
0000
0001
,
0001
0000
0000
0100
,
0100
0000
0000
0000
,
1001
0000
0000
0010
,
0010
0000
0000
1000
,
1000
0000
0000
0001
,
0001
0000
0000
0000
,
1001
0000
1000
0000
,
0100
0000
0000
0000
,
1000
0000
0001
0000
,
0100
0100
0100
0000
,
0001
0000
0001
0000
,
0010
0000
0000
0000
,
0001
0000
1000
0000
,
0010
0010
0010
0000
,
1001
0000
1000
1000
,
1000
0000
0000
0000
,
0010
0010
0000
0000
,
0100
0000
0100
0000
,
1001
0000
0001
0001
,
0001
0000
0000
0000
,
0010
0010
0000
0000
,
0100
0000
0100
0000
,
1001
0000
0010
0000
,
1000
0000
0001
0000
,
1000
0000
0100
0000
,
0010
0010
0000
0000
,
1001
0000
0001
0000
,
1000
0000
0001
0000
,
0100
0000
0100
0000
,
0010
0010
0000
0010
;

//---------------dance-single - ----------------
#NOTEDATA:;
#CHARTNAME:;
#STEPSTYPE:dance-single;
#DESCRIPTION:;
#CHARTSTYLE:;
#DIFFICULTY:Challenge;
#METER:9;
#RADARVALUES:0.579010,0.648153,0.126923,0.203077,0.554230,440.000000,15.000000,24.000000,0.000000,0.000000,0.000000,0.000000,0.000000,0.579010,0.648153,0.126923,0.203077,0.554230,440.000000,15.000000,24.000000,0.000000,0.000000,0.000000,0.000000,0.000000;
#CREDIT:Ben Speirs;
#NOTES:
// measure 0
0000
0000
0000
0000
,  // measure 1
0000
0000
0000
0000
,  // measure 2
0000
0000
0000
0000
,  // measure 3
0000
0000
0000
0000
,  // measure 4
1000
0000
0000
0010
0000
0000
0100
0000
0000
0001
0000
0000
1000
0000
0001
0010
,  // measure 5
0001
0000
0100
0000
0010
0000
1000
0100
1000
0000
0000
0000
0010
0000
1000
0001
,  // measure 6
1000
0000
0010
0000
0100
0001
0100
0000
0001
1000
0001
1000
0001
0000
1000
0000
,  // measure 7
0010
1000
0010
0000
0100
0000
0001
1000
0001
0000
0100
0000
0110
0000
0000
0000
,  // measure 8
0001
0000
0100
0010
0000
0100
0001
0000
0100
0000
0010
1000
0010
0000
1000
0100
,  // measure 9
1000
0000
0100
0010
0000
0100
1000
0000
0010
0000
1000
0100
1000
0000
0010
0000
,  // measure 10
0100
0001
0000
0100
0010
0000
1000
0100
0000
1000
0001
0000
0100
0000
0010
0100
,  // measure 11
0010
0000
0100
0000
0001
0000
1000
0000
0100
0000
0010
0001
0010
0001
1000
0010
,  // measure 12
0100
0000
0000
0001
1000
0000
0010
0000
0100
0000
0001
0100
0001
0000
1000
0100
,  // measure 13
1000
0000
0000
0001
0010
0000
0001
0000
1000
0000
0010
0100
0010
0100
0001
0000
,  // measure 14
1000
0100
0000
0100
1000
0000
0010
0000
0100
0000
0001
1000
0001
0000
0100
0000
,  // measure 15
0010
1000
0000
1000
0010
0000
0100
0000
0001
0000
1000
0100
1000
0000
0000
0000
,  // measure 16
0101
0000
0100
0010
0000
0010
1000
0000
1000
0100
0000
0100
0010
0000
0001
0000
,  // measure 17
1000
0000
1000
0001
0000
0001
0100
0000
0100
0010
0000
0010
1000
0000
0001
0000
,  // measure 18
0010
0000
0010
0001
0000
0001
0100
0000
0100
0010
0000
0010
1000
0000
0100
0000
,  // measure 19
1000
0000
1000
0010
0000
0010
0100
0000
0100
0001
0000
0001
1000
0100
0000
0000
,  // measure 20
1000
0000
1000
0001
0000
0100
0010
0000
1000
0100
0000
0010
0001
0000
1000
0000
,  // measure 21
0010
0000
0010
0100
0000
0001
1000
0000
0010
0100
0000
0001
1000
0000
0001
0000
,  // measure 22
0010
0000
0010
0100
0000
1000
0010
0000
0100
0001
0000
1000
0100
1000
0000
0000
,  // measure 23
0010
0000
1000
0100
0000
1000
0010
0000
0100
0001
0000
1000
0001
0000
1001
0000
,  // measure 24
2000
0000
0100
0000
0010
0000
3001
0000
1000
0100
0010
0001
1000
0000
0010
0000
,  // measure 25
0100
0000
0001
0000
1000
0000
0001
0000
0100
0001
2000
0000
3020
0000
0230
0000
,  // measure 26
0302
0000
0100
0000
0010
0000
1003
0000
1000
0100
0010
0001
1000
0000
0010
0000
,  // measure 27
0100
0010
0100
0000
0001
0000
1000
0000
0010
0100
0010
0000
0100
0000
0110
0000
,  // measure 28
0002
0000
0010
0000
0100
0000
1003
0000
0001
0010
0100
1000
0001
0000
0100
0000
,  // measure 29
0010
0000
1000
0000
0001
0000
1000
0000
0010
1000
0002
0000
0203
0000
0320
0000
,  // measure 30
2030
0000
0010
0000
0100
0000
3001
0000
0001
0010
0100
1000
0001
0000
0100
0000
,  // measure 31
0010
0000
0000
1000
0000
0000
0100
0000
0000
0010
0000
0000
0001
0000
1001
0000
,  // measure 32
1000
0000
0010
0100
0010
0000
1000
0000
0001
0010
0100
1000
0001
0000
0100
0000
,  // measure 33
0010
0000
1000
0100
1000
0000
0001
0000
1000
0010
0200
0000
0302
0000
2003
0000
,  // measure 34
3010
0000
1000
0001
1000
0000
0010
0000
1000
0100
0010
0001
1000
0000
0001
0000
,  // measure 35
0100
0010
1000
0000
0001
0000
1000
0000
0100
0010
0001
0000
1000
0000
1001
0000
,  // measure 36
0001
0000
0100
0010
0100
0000
0001
0000
1000
0100
0010
0001
1000
0000
0010
0000
,  // measure 37
0100
0000
0001
0010
0001
0000
1000
0000
0001
0100
0020
0000
2030
0000
3002
0000
,  // measure 38
0103
0000
0001
1000
0001
0000
0100
0000
0001
0010
0100
1000
0001
0000
1000
0000
,  // measure 39
0020
0000
0000
0130
0000
0000
0001
0000
2000
0000
0000
3100
0000
0000
0000
0000
,  // measure 40
1000
0100
0010
0000
0100
0010
0001
0000
1000
0001
1000
0001
0100
0000
0010
0000
,  // measure 41
1000
0010
0100
0000
0010
0100
0001
0000
0000
0100
0010
0000
0110
0000
1001
0000
,  // measure 42
0001
0010
0100
0000
0010
0100
1000
0000
0001
1000
0001
1000
0010
0000
0100
0000
,  // measure 43
0001
0100
0010
0100
0001
0000
1000
0000
0010
1000
0100
1000
0010
0000
0100
0000
,  // measure 44
0201
0000
0310
0000
2010
0000
3100
0000
1000
0100
0010
0001
1000
0000
0010
0000
,  // measure 45
2010
0000
3001
0000
0012
0000
1003
0000
0001
1000
0010
0100
0001
1000
0010
0000
,  // measure 46
2001
0000
3100
0000
1002
0000
0103
0000
0001
0010
0100
1000
0001
0000
1000
0000
,  // measure 47
0010
0100
0001
0100
0010
0000
1000
0000
0010
1000
0100
1000
0001
0000
0101
0000
;
