#VERSION:0.82;
#TITLE:I Am Machine;
#SUBTITLE:;
#ARTIST:Three Days Grace;
#TITLETRANSLIT:;
#SUBTITLETRANSLIT:;
#ARTISTTRANSLIT:;
#GENRE:Death Egg;
#ORIGIN:;
#CREDIT:;
#BANNER:I Am Machine.png;
#BACKGROUND:I Am Machine-bg.png;
#PREVIEWVID:;
#JACKET:jacket.png;
#CDIMAGE:;
#DISCIMAGE:;
#LYRICSPATH:;
#CDTITLE:;
#MUSIC:I Am Machine.ogg;
#OFFSET:0.197000;
#SAMPLESTART:41.390991;
#SAMPLELENGTH:13.714000;
#SELECTABLE:YES;
#BPMS:0.000=150.000;
#STOPS:;
#DELAYS:;
#WARPS:;
#TIMESIGNATURES:0.000=4=4;
#TICKCOUNTS:0.000=4;
#COMBOS:0.000=1;
#SPEEDS:0.000=1.000=0.000=0;
#SCROLLS:0.000=1.000;
#FAKES:;
#LABELS:0.000=Song Start;
#BGCHANGES:6.000=I Am Machine.avi=1.000=0=0=1=====,
99999=-nosongbg-=1.000=0=0=0 // don't automatically add -songbackground-
;
#KEYSOUNDS:;
#ATTACKS:
;

//---------------dance-single - ----------------
#NOTEDATA:;
#CHARTNAME:;
#STEPSTYPE:dance-single;
#DESCRIPTION:;
#CHARTSTYLE:;
#DIFFICULTY:Hard;
#METER:9;
#RADARVALUES:0.620145,0.728746,0.265634,0.293595,0.153788,541.000000,38.000000,42.000000,0.000000,0.000000,0.000000,0.000000,0.000000,0.620145,0.728746,0.265634,0.293595,0.153788,541.000000,38.000000,42.000000,0.000000,0.000000,0.000000,0.000000,0.000000;
#CREDIT:Ben Speirs;
#NOTES:
// measure 0
0000
0000
0000
0000
,  // measure 1
0000
0000
0000
0000
,  // measure 2
1000
0100
0000
0100
0010
0000
0010
0001
,  // measure 3
0000
0001
0100
0000
0010
1000
0010
1000
,  // measure 4
0002
0103
0020
1030
,  // measure 5
0200
0310
0002
1003
,  // measure 6
0001
0100
0000
0100
0010
0000
0010
1000
,  // measure 7
0000
1000
0100
0000
0010
0001
0010
0001
,  // measure 8
2000
3100
0020
0031
,  // measure 9
0200
0310
2000
3001
,  // measure 10
1000
0100
0010
0000
0000
1100
0000
0101
,  // measure 11
0000
0000
1000
0000
0010
1000
0001
0000
,  // measure 12
0100
0001
1000
0000
0000
0101
0000
1100
,  // measure 13
0000
0000
0001
0000
0010
0001
0100
0000
,  // measure 14
0010
1000
0010
1000
0000
1000
0001
0000
,  // measure 15
0100
0020
0000
0000
1030
0100
1000
0010
,  // measure 16
0100
0001
0100
0001
0000
0001
1000
0000
,  // measure 17
0010
0200
0000
0000
0301
0010
0001
0010
,  // measure 18
0100
1000
0010
0100
0001
0010
0100
0010
,  // measure 19
0001
0100
0010
1000
0100
0010
0001
0000
,  // measure 20
1000
0010
1000
0001
0010
0100
0010
0001
,  // measure 21
1000
0010
0100
0001
1000
0100
0010
0000
,  // measure 22
0001
0100
0001
0100
0010
0100
0010
1000
,  // measure 23
0010
1000
0100
0010
0001
1000
0010
0000
,  // measure 24
1000
0010
1000
0010
0100
0010
0100
0001
,  // measure 25
1000
0100
0010
0001
1000
0000
1001
0000
,  // measure 26
0001
0100
0001
0000
0000
0000
1000
0100
1000
0000
0000
0000
0001
0010
0001
0000
,  // measure 27
0000
0000
1000
0010
1000
0000
0000
0000
0001
0000
0010
0000
0100
0000
1000
0000
,  // measure 28
0020
0000
0130
0001
2000
0000
3100
0010
,  // measure 29
0002
0000
1003
0010
0200
0000
0301
0000
,  // measure 30
1000
0010
1000
0000
0000
0000
0001
0010
0001
0000
0000
0000
1000
0100
1000
0000
,  // measure 31
0000
0000
0001
0100
0001
0000
0000
0000
1000
0000
0100
0000
0010
0000
0001
0000
,  // measure 32
0200
0000
0310
1000
0002
0000
0013
0001
,  // measure 33
2000
0000
3100
1000
0002
0000
0103
0000
,  // measure 34
0010
1000
0010
0000
0000
0000
0100
0001
0100
0000
0000
0000
0001
0010
0001
0000
,  // measure 35
0000
0000
1000
0100
1000
0000
0000
0000
0001
0000
0010
0000
0100
0000
1000
0000
,  // measure 36
0020
0000
0130
0010
2000
0000
3100
1000
,  // measure 37
0002
0000
0013
0001
2000
0000
3010
0000
,  // measure 38
0100
0001
0100
0000
0000
0000
0010
1000
0010
0000
0000
0000
1000
0100
1000
0000
,  // measure 39
0000
0000
0001
0010
0001
0000
0000
0000
1000
0000
0100
0000
0010
0000
0001
0000
,  // measure 40
0200
0000
0310
0100
0002
0000
0013
0001
,  // measure 41
2000
0000
3100
1000
0002
0000
0103
0000
,  // measure 42
0001
0010
1000
0010
0001
0100
0010
1000
,  // measure 43
0100
0010
0002
0000
1003
0000
0001
0000
,  // measure 44
1000
0010
0001
0010
1000
0100
0010
0001
,  // measure 45
0100
0010
2000
0000
3001
0000
0110
0000
,  // measure 46
0001
0100
0100
0010
1000
1000
0100
0010
,  // measure 47
0010
0001
2000
0000
3010
0100
0002
0000
,  // measure 48
0023
1000
0100
0001
,  // measure 49
0230
1000
0010
0001
,  // measure 50
2300
0001
0010
0100
,  // measure 51
3002
0100
0010
1003
,  // measure 52
0001
0100
0001
0000
0000
0101
0000
1010
,  // measure 53
0000
0000
0000
0000
,  // measure 54
1000
0100
1000
0000
0000
1100
0000
0011
,  // measure 55
0000
1001
1000
0010
1010
0010
0100
0001
,  // measure 56
1001
1000
0010
0000
0100
0101
0000
1100
,  // measure 57
0000
0001
0010
0100
1000
0010
0100
0000
,  // measure 58
0101
0100
0010
0000
1000
1010
0000
0011
,  // measure 59
1000
0000
0010
0100
0010
0100
0010
0100
0001
0100
0001
0100
0010
0000
0000
0000
,  // measure 60
1000
0100
1000
0100
1000
0000
0010
0000
0100
0000
0001
0000
1000
0000
0001
0000
,  // measure 61
0000
0010
0010
0001
0100
0010
1000
0000
,  // measure 62
0001
0100
0001
0100
0001
0000
1000
0000
0001
0000
0100
0000
0010
0000
0100
0000
,  // measure 63
0001
0010
0100
1000
0010
0100
0001
0000
,  // measure 64
1000
0100
1000
0100
1000
0000
0010
0000
0100
0000
0001
0000
1000
0000
0001
0000
,  // measure 65
0100
0010
1000
0100
0010
0001
1000
0000
,  // measure 66
0010
0000
0100
0001
0100
0000
0000
0000
0000
0000
1010
0000
0000
0000
1001
0000
,  // measure 67
0000
0000
0000
0000
0001
0010
0100
1000
,  // measure 68
0001
0100
0001
0000
0000
0000
1000
0100
1000
0000
0000
0000
0001
0010
0001
0000
,  // measure 69
0000
0000
1000
0010
1000
0000
0000
0000
0001
0000
0010
0000
0100
0000
1000
0000
,  // measure 70
1010
1000
0100
0010
0011
0010
0100
1000
,  // measure 71
1100
1000
0001
0100
0101
0000
0010
0000
,  // measure 72
1000
0100
1000
0000
0000
0000
0001
0100
0001
0000
0000
0000
1000
0010
1000
0000
,  // measure 73
0000
0000
0001
0010
0001
0000
0000
0000
1000
0000
0100
0000
0010
0000
0001
0000
,  // measure 74
0101
0100
0010
1000
1100
0100
0010
0001
,  // measure 75
0011
0001
1000
0010
1010
0000
0100
0000
,  // measure 76
0001
1000
0010
0000
0000
0000
0100
0001
1000
0000
0000
0000
0100
1000
0001
0000
,  // measure 77
0000
0000
0010
0001
1000
0000
0000
0000
0010
0000
1000
0000
0100
0000
0010
0000
,  // measure 78
0012
1003
2010
3001
,  // measure 79
0102
1003
2100
3001
,  // measure 80
1000
0100
0010
0000
0000
0000
0001
1000
0010
0000
0000
0000
0100
0001
1000
0000
,  // measure 81
0000
0000
0100
0010
0001
0000
0000
0000
1000
0000
0010
0000
0100
0000
0001
0000
,  // measure 82
2001
3010
1002
0013
,  // measure 83
2100
3001
0102
1003
,  // measure 84
0010
0100
0001
0010
1000
0010
0001
0100
,  // measure 85
0010
1000
0100
0010
0001
1000
0010
0000
,  // measure 86
1000
0001
0100
0000
0000
0101
0100
1010
;

//---------------dance-single - ----------------
#NOTEDATA:;
#CHARTNAME:;
#STEPSTYPE:dance-single;
#DESCRIPTION:;
#CHARTSTYLE:;
#DIFFICULTY:Medium;
#METER:6;
#RADARVALUES:0.366495,0.516195,0.237672,0.342528,0.000000,284.000000,34.000000,49.000000,0.000000,0.000000,0.000000,0.000000,0.000000,0.366495,0.516195,0.237672,0.342528,0.000000,284.000000,34.000000,49.000000,0.000000,0.000000,0.000000,0.000000,0.000000;
#CREDIT:Ben Speirs;
#NOTES:
0000
0000
0000
0000
,
0000
0000
0000
0000
,
1000
0000
0000
0001
0000
0000
1000
0000
,
0000
0001
0000
0000
0100
0000
0100
0000
,
0020
0030
2000
3000
,
0002
0003
0200
0300
,
0001
0000
0000
1000
0000
0000
0001
0000
,
0000
1000
0000
0000
0010
0000
0010
0000
,
0200
0300
0002
0003
,
2000
3000
0020
0030
,
0100
0000
0100
0000
0000
0000
0001
1000
,
0000
0000
0010
0000
,
1000
0000
1000
0000
0000
0000
0001
0010
,
0000
0000
0001
0000
,
1000
0000
1000
0000
0000
0000
0010
0100
,
0000
0000
0001
0000
,
1000
0000
1000
0000
0000
0000
0001
0100
,
0000
0000
0010
0000
,
1000
0100
0010
0001
,
1000
0010
0100
0000
,
0001
1000
0001
0010
,
0100
1000
0010
0000
,
1000
0001
0100
0010
,
1000
0100
1000
0000
0001
0000
0000
0000
,
1000
0010
0100
0001
,
1000
0000
0001
0100
0001
0000
0000
0000
,
1000
0100
0000
0100
0010
0000
0010
0001
,
0000
0001
1000
0000
0010
0000
0000
0000
,
1001
0000
0101
0000
,
1100
0000
1001
0000
,
0001
0010
0000
0010
0100
0000
0100
1000
,
0000
1000
0010
0000
0100
0000
0000
0000
,
0101
0000
1100
0000
,
0011
0000
1010
0000
,
0001
1000
0000
1000
0010
0000
0010
0100
,
0000
0100
0001
0000
1000
0000
0000
0000
,
0202
0303
2200
3300
,
2020
3030
0022
0033
,
0001
1000
0000
1000
0010
0000
0010
0100
,
0000
0100
0001
0000
1000
0000
0000
0000
,
0202
0303
2020
3030
,
2200
3300
0022
0033
,
1000
0100
0010
2002
,
3003
0010
1000
0000
,
0001
0100
0010
2002
,
3003
1000
0100
0000
,
0010
0001
0100
0010
,
1000
0100
0010
0001
,
0200
0300
0010
0100
,
0002
0003
0010
0001
,
2000
3000
0100
1000
,
0010
0010
0100
0000
,
0001
0000
0100
0000
0000
0010
0000
0010
,
0000
0000
0000
0000
,
1000
0000
0100
0000
0000
0010
0000
0010
,
0000
1001
0000
0000
1001
0000
0000
0000
,
0010
0000
0010
0000
0000
1000
0000
0001
,
0000
0100
0100
0000
,
0001
0000
1000
0000
0000
0100
0000
0100
,
0020
0000
0000
0030
,
0001
0100
0001
0000
0000
0101
0000
0101
,
0000
0100
0001
1000
,
0100
1000
0100
0000
0000
1100
0000
1100
,
0000
1000
0001
1000
,
0010
0100
0010
0000
0000
0110
0000
0110
,
0000
0100
0001
1000
,
0010
1000
0010
0000
0000
1010
0000
1001
,
0000
0000
0000
0000
0100
0010
0100
0010
,
1000
0100
0000
0100
0010
0000
0010
0001
,
0000
0001
1000
0000
0010
0000
0000
0000
,
0200
0310
0020
1030
,
2000
3100
0100
0000
,
1000
0100
0000
0100
0010
0000
0010
0001
,
0000
0001
1000
0000
0010
0000
0000
0000
,
0200
0301
0002
1003
,
2000
3100
0100
0000
,
1000
0001
0000
0001
1000
0000
1000
0010
,
0000
0010
0100
0000
0001
0000
0000
0000
,
2000
3010
0020
0130
,
0200
0301
1000
0000
,
0001
1000
0000
1000
0010
0000
0010
0100
,
0000
0100
0001
0000
0010
0000
0000
0000
,
0022
0033
2020
3030
,
2200
3300
0202
0303
,
1000
0001
0100
0100
,
0010
1000
0010
0000
0100
0001
0100
0000
,
0001
1000
0001
0000
0000
1100
0000
0101
;

//---------------dance-single - ----------------
#NOTEDATA:;
#CHARTNAME:;
#STEPSTYPE:dance-single;
#DESCRIPTION:;
#CHARTSTYLE:;
#DIFFICULTY:Easy;
#METER:4;
#RADARVALUES:0.240668,0.303644,0.000000,0.335538,0.000000,193.000000,0.000000,48.000000,0.000000,0.000000,0.000000,0.000000,0.000000,0.240668,0.303644,0.000000,0.335538,0.000000,193.000000,0.000000,48.000000,0.000000,0.000000,0.000000,0.000000,0.000000;
#CREDIT:Ben Speirs;
#NOTES:
0000
0000
0000
0000
,
0000
0000
0000
0000
,
1000
0000
0001
0000
,
0010
0000
0001
0000
,
0200
0300
0020
0030
,
2000
3000
0002
0003
,
0010
0000
0001
0000
,
1000
0000
0010
0000
,
0200
0300
0002
0003
,
2000
3000
0020
0030
,
0100
0100
0001
1000
,
0100
0000
0000
0000
,
0010
0010
0001
1000
,
0010
0000
0000
0000
,
1000
1000
0100
1000
,
0001
0000
0000
0000
,
0100
0100
0001
0100
,
0010
0000
0000
0000
,
1000
0000
0001
0000
,
0010
0001
0100
0000
,
0010
0000
1000
0000
,
0100
1000
0010
0000
,
0100
0000
0001
0000
,
1000
0100
0010
0000
,
0001
0000
1000
0000
,
0010
0100
0001
0000
,
1000
0100
1000
0100
,
1000
0100
1000
0000
,
0020
0030
2000
3000
,
0020
0030
0200
0300
,
0001
0100
0001
0100
,
0001
0100
0001
0000
,
2000
3000
0002
0003
,
0020
0030
0002
0003
,
0100
0010
0100
0010
,
0100
0010
0100
0000
,
0020
0030
2000
3000
,
0002
0003
0020
0030
,
0001
1000
0001
1000
,
0001
1000
0001
0000
,
2000
3000
0200
0300
,
0020
0030
0002
0003
,
1000
0000
0000
0020
,
0000
0000
0030
0000
,
0100
0000
0000
0002
,
0000
0000
0003
0000
,
0010
0000
0000
0200
,
0000
0000
0300
0000
,
2000
3000
1000
0000
,
0002
0003
0001
0000
,
0200
0300
0100
0000
,
0020
0030
0010
0000
,
1000
0001
0000
0000
,
0000
0000
0000
0000
,
1000
0001
0000
0000
,
0000
0000
0000
0000
,
1000
0001
0000
0000
,
0000
0000
0000
0000
,
1000
0001
0000
0000
,
0000
0000
0000
0000
,
0001
0000
0100
0000
,
0010
0010
1000
0000
,
0100
0000
0010
0000
,
0001
0001
0100
0000
,
0001
0000
1000
0000
,
0100
0100
0010
0000
,
0001
0000
1000
0000
0000
0010
0000
0010
,
0000
0000
0000
0000
,
1000
0100
1000
0100
,
1000
0100
1000
0000
,
0020
0030
2000
3000
,
0002
0003
0200
0300
,
0010
1000
0010
1000
,
0010
1000
0010
0000
,
0200
0300
0002
0003
,
2000
3000
0200
0300
,
0010
0001
0010
0001
,
0010
0001
0010
0000
,
0002
0003
0200
0300
,
0020
0030
2000
3000
,
0001
0100
0001
0100
,
0001
0100
0001
0000
,
2000
3000
0002
0003
,
0020
0030
0200
0300
,
2000
0000
3000
0000
,
0100
1000
0010
0000
,
0100
0000
0100
0000
0000
0001
0000
1000
;

//---------------dance-single - ----------------
#NOTEDATA:;
#CHARTNAME:;
#STEPSTYPE:dance-single;
#DESCRIPTION:;
#CHARTSTYLE:;
#DIFFICULTY:Beginner;
#METER:2;
#RADARVALUES:0.130820,0.181924,0.020971,0.000000,0.000000,128.000000,3.000000,0.000000,0.000000,0.000000,0.000000,0.000000,0.000000,0.130820,0.181924,0.020971,0.000000,0.000000,128.000000,3.000000,0.000000,0.000000,0.000000,0.000000,0.000000,0.000000;
#CREDIT:Ben Speirs;
#NOTES:
0000
0000
0000
0000
,
0000
0000
0000
0000
,
0100
0000
0000
0000
,
0010
0000
0000
0000
,
1000
0000
1000
0000
,
0100
0000
0100
0000
,
0010
0000
0000
0000
,
0001
0000
0000
0000
,
0100
0000
0100
0000
,
0010
0000
0010
0000
,
1000
1000
0000
0000
,
1000
0000
0000
0000
,
0001
0001
0000
0000
,
0001
0000
0000
0000
,
0100
0100
0000
0000
,
0100
0000
0000
0000
,
0010
0010
0000
0000
,
0010
0000
0000
0000
,
1000
0000
1000
0000
,
0100
0000
0000
0000
,
0010
0000
0010
0000
,
0001
0000
0000
0000
,
0100
0000
0100
0000
,
0010
0000
0000
0000
,
1000
0000
1000
0000
,
0001
0000
0000
0000
,
1001
0000
0000
0000
,
1000
0000
0000
0000
,
0010
0000
0010
0000
,
0010
0000
0010
0000
,
0100
0000
0000
0000
,
0001
0000
0000
0000
,
1000
0000
1000
0000
,
1000
0000
1000
0000
,
0100
0000
0000
0000
,
0010
0000
0000
0000
,
0001
0000
0001
0000
,
0001
0000
0001
0000
,
0001
0000
0000
0000
,
1000
0000
0000
0000
,
0010
0000
0010
0000
,
0100
0000
0100
0000
,
0001
0000
1000
0000
,
0100
0000
0000
0000
,
1000
0000
0001
0000
,
0100
0000
0000
0000
,
0010
0000
0010
0000
,
1000
0000
0001
0000
,
0100
0000
0000
0000
,
0001
0000
0001
0000
,
1000
0000
0000
0000
,
1000
0000
1000
0000
,
0100
0000
0000
0000
,
0000
0000
0000
0000
,
0100
0000
0000
0000
,
0000
0000
0000
0000
,
0100
0000
0000
0000
,
0000
0000
0000
0000
,
0100
0000
0000
0000
,
0000
0000
0000
0000
,
1001
0000
1000
0000
,
0010
0000
0000
0000
,
0100
0000
0100
0000
,
0001
0000
0000
0000
,
1000
1000
0000
0001
,
0001
0000
0000
0000
,
0100
0100
0000
0010
,
0010
0000
0000
0000
,
1001
0000
0000
0000
,
1000
0000
0000
0000
,
0010
0000
0010
0000
,
0100
0000
0100
0000
,
0001
0000
0000
0000
,
1000
0000
0000
0000
,
0100
0000
0100
0000
,
0010
0000
0010
0000
,
0001
0001
0000
0000
,
1000
1000
0000
0000
,
0010
0000
0010
0000
,
0100
0000
0100
0000
,
0001
0001
0000
0000
,
1000
1000
0000
0000
,
0100
0000
0100
0000
,
0010
0000
0010
0000
,
0001
0000
0000
0000
,
1000
0000
0000
0000
,
0010
0010
0010
0010
;

//---------------dance-double - ----------------
#NOTEDATA:;
#CHARTNAME:;
#STEPSTYPE:dance-double;
#DESCRIPTION:;
#CHARTSTYLE:;
#DIFFICULTY:Challenge;
#METER:9;
#RADARVALUES:0.589188,0.698381,0.160778,0.139807,0.150293,547.000000,23.000000,20.000000,0.000000,0.000000,0.000000,0.000000,0.000000,0.589188,0.698381,0.160778,0.139807,0.150293,547.000000,23.000000,20.000000,0.000000,0.000000,0.000000,0.000000,0.000000;
#CREDIT:Ben Speirs;
#NOTES:
00000000
00000000
00000000
00000000
,
00000000
00000000
00000000
00000000
,
10000000
01000000
00000000
01000000
00100000
00000000
00100000
00010000
,
00000000
00010000
10000000
00000000
00100000
10000000
00100000
10000000
,
00020000
00130000
00002000
00013000
,
00000200
00001300
00000020
00000130
,
00000001
00000010
00000000
00000010
00000100
00000000
00000100
00001000
,
00000000
00001000
00000010
00000000
00000100
00000001
00000100
00000001
,
00002000
00003100
00020000
00031000
,
00200000
00000000
00310000
00000000
01000000
00100000
01000000
00000000
,
00010000
01000000
00010000
00000000
00000000
01010000
00000000
11000000
,
00000000
00000000
00010000
00000000
10000000
01000000
00100000
00000000
,
01000000
10000000
00010000
00000000
00000000
11000000
00000000
01010000
,
00000000
00000000
10000000
00000000
00010000
00100000
00001000
00000000
,
00100000
00001000
00010000
00000000
00000000
00011000
00000000
00101000
,
00000000
00000000
00001000
00000000
00010000
00000100
00001000
00000000
,
00000100
00001000
00000010
00000000
00000000
00001010
00000000
00000101
,
00000000
00000000
00001000
00000000
00000100
00001000
00000001
00000000
,
00000010
00000001
00000100
00000010
00001000
00000100
00000010
00000001
,
00001000
00000100
00010000
00001000
00010000
00000100
00001000
00000000
,
00000010
00000100
00000001
00000010
00000100
00001000
00000010
00010000
,
00000100
00010000
00001000
00010000
00100000
10000000
01000000
00000000
,
00100000
00010000
00100000
01000000
10000000
00100000
01000000
00010000
,
10000000
00100000
10000000
00010000
00100000
00001000
00010000
00000000
,
00001000
00100000
00010000
00100000
00001000
00010000
00100000
10000000
,
01000000
00100000
00010000
01000000
00001000
00000000
01001000
00000000
,
00010000
00001000
00010000
00000000
00000000
00000000
00001000
00010000
00001000
00000000
00000000
00000000
00010000
00001000
00010000
00000000
,
00000000
00000000
00001000
00010000
00001000
00000000
00000000
00000000
00010000
00000000
00001000
00000000
00010000
00000000
00001000
00000000
,
00100000
00010000
01000000
00100000
10000000
01000000
00100000
00010000
,
01000000
00100000
00010000
00001000
00100000
00001000
00010000
00000100
,
00010000
00001000
00010000
00000000
00000000
00000000
00001000
00010000
00001000
00000000
00000000
00000000
00010000
00001000
00010000
00000000
,
00000000
00000000
00001000
00010000
00001000
00000000
00000000
00000000
00010000
00000000
00001000
00000000
00010000
00000000
00001000
00000000
,
00010000
00000100
00001000
00000010
00000100
00000001
00000010
00000100
,
00001000
00000010
00000100
00000001
00000010
00000100
00001000
00000000
,
00000001
00000100
00000001
00000000
00000000
00000000
00001000
00000100
00001000
00000000
00000000
00000000
00000001
00000100
00000001
00000000
,
00000000
00000000
00001000
00000100
00001000
00000000
00000000
00000000
00000001
00000000
00000010
00000000
00000100
00000000
00001000
00000000
,
00000020
00000000
00001030
00000100
00020000
00000000
00031000
00100000
,
00020000
00000000
01030000
00100000
20000000
00000000
30010000
00000000
,
10000000
01000000
10000000
00000000
00000000
00000000
00010000
01000000
00010000
00000000
00000000
00000000
10000000
01000000
10000000
00000000
,
00000000
00000000
00010000
01000000
00010000
00000000
00000000
00000000
10000000
00000000
01000000
00000000
00100000
00000000
00010000
00000000
,
01000000
00100000
01000000
10000000
01000000
00010000
00100000
10000000
,
00100000
01000000
00100000
00010000
00100000
00001000
00010000
00000000
,
00000100
00010000
00000100
00010000
00001000
00000000
00010200
00000000
,
00001300
00000000
00000010
00001000
00000100
00000010
00000001
00000000
,
00000100
00000001
00000100
00000001
00001000
00000000
00002100
00000000
,
00003001
00000000
00001000
00000010
00000100
00000001
00001000
00000000
,
00000001
00000010
00000100
00001000
00000010
00001000
00000100
00010000
,
00001000
00010000
00001000
00100000
00010000
01000000
00100000
00000000
,
20000000
00100000
00010000
30100000
,
00020000
00100000
10000000
00130000
,
20000000
01000000
00010000
31000000
,
00010000
00000000
10000000
00000000
00010000
00100000
00001000
00000000
,
00100000
00001000
00010000
00000000
00000000
00011000
00000000
00100100
,
00000000
00000000
00000000
00000000
,
00001000
00010000
00001000
00000000
00000000
00011000
00000000
01000010
,
00000000
00000000
00000000
00000000
,
00001000
00010000
00001000
00000000
00000000
00101000
00000000
00010010
,
00000000
00000000
00000000
00000000
,
00001000
00010000
00001000
00000000
00000000
00010100
00000000
01001000
,
00000000
00000000
00001000
00010000
00001000
00010000
00001000
00010000
00000100
00001000
00000100
00001000
00000001
00000000
00000000
00000000
,
00000100
00000001
00000100
00000001
00000100
00000000
00000010
00000000
00001000
00000000
00000100
00000000
00000010
00000000
00000001
00000000
,
00001000
00000100
00001000
00000100
00010000
00001000
00100000
00000000
,
00010000
01000000
00010000
01000000
00010000
00000000
00100000
00000000
00010000
00000000
01000000
00000000
00100000
00000000
10000000
00000000
,
01000000
00100000
00010000
01000000
00100000
10000000
00010000
00000000
,
10000000
01000000
10000000
01000000
10000000
00000000
01000000
00000000
00100000
00000000
00010000
00000000
01000000
00000000
00100000
00000000
,
10000000
00010000
00100000
00010000
01000000
00001000
00100000
00000000
,
00001000
00010000
00000100
00000000
00000000
00010100
00000000
00101000
,
00000000
00000000
00000000
00000000
00001000
00010000
00001000
00010000
,
00001000
00010000
00001000
00000000
00000000
00000000
00010000
00001000
00010000
00000000
00000000
00000000
00001000
00010000
00001000
00000000
,
00000000
00000000
00010000
00001000
00010000
00000000
00000000
00000000
00001000
00000000
00010000
00000000
00001000
00000000
00010000
00000000
,
00000100
00001000
00000010
00000100
00000001
00000010
00000100
00001000
,
00000010
00000100
00001000
00010000
00000100
00010000
00001000
00100000
,
00001000
00010000
00001000
00000000
00000000
00000000
00010000
00001000
00010000
00000000
00000000
00000000
00001000
00010000
00001000
00000000
,
00000000
00000000
00010000
00001000
00010000
00000000
00000000
00000000
00001000
00000000
00010000
00000000
00001000
00000000
00010000
00000000
,
00001000
00100000
00010000
01000000
00100000
10000000
01000000
00100000
,
00010000
01000000
00100000
10000000
01000000
00100000
00010000
00000000
,
10000000
00100000
10000000
00000000
00000000
00000000
00010000
00100000
00010000
00000000
00000000
00000000
10000000
00100000
10000000
00000000
,
00000000
00000000
00010000
00100000
00010000
00000000
00000000
00000000
10000000
00000000
01000000
00000000
00100000
00000000
00010000
00000000
,
02000000
00000000
03010000
00100000
00002000
00000000
00013000
00000100
,
00002000
00000000
00003010
00000100
00000002
00000000
00001003
00000000
,
00000001
00000010
00000001
00000000
00000000
00000000
00001000
00000010
00001000
00000000
00000000
00000000
00000001
00000010
00000001
00000000
,
00000000
00000000
00001000
00000010
00001000
00000000
00000000
00000000
00000001
00000000
00000010
00000000
00000100
00000000
00001000
00000000
,
00000010
00000100
00000010
00000001
00000010
00001000
00000100
00000001
,
00000100
00000010
00000100
00001000
00000100
00010000
00001000
00000000
,
00100000
00001000
00100000
00010000
00100000
00001000
00100000
00000100
,
00010000
00001000
00010000
00000100
00010000
00000010
00010000
00000100
,
00001000
00000001
00000010
00000000
00000000
00000011
00001000
00001100
;
