#VERSION:0.82;
#TITLE:Hymn For The Weekend;
#SUBTITLE:;
#ARTIST:Coldplay feat. Beyonce;
#TITLETRANSLIT:;
#SUBTITLETRANSLIT:;
#ARTISTTRANSLIT:;
#GENRE:Too Many Units;
#ORIGIN:;
#CREDIT:;
#BANNER:Hymn For The Weekend.png;
#BACKGROUND:Hymn For The Weekend-bg.png;
#PREVIEWVID:;
#JACKET:jacket.png;
#CDIMAGE:;
#DISCIMAGE:;
#LYRICSPATH:;
#CDTITLE:;
#MUSIC:Hymn For The Weekend.ogg;
#OFFSET:0.006000;
#SAMPLESTART:63.959995;
#SAMPLELENGTH:13.714000;
#SELECTABLE:YES;
#BPMS:0.000=90.000;
#STOPS:;
#DELAYS:;
#WARPS:;
#TIMESIGNATURES:0.000=4=4;
#TICKCOUNTS:0.000=4;
#COMBOS:0.000=1;
#SPEEDS:0.000=1.000=0.000=0;
#SCROLLS:0.000=1.000;
#FAKES:;
#LABELS:0.000=Song Start;
#BGCHANGES:4.000=Hymn For The Weekend.avi=1.000=0=0=1=====,
99999=-nosongbg-=1.000=0=0=0 // don't automatically add -songbackground-
;
#KEYSOUNDS:;
#ATTACKS:
;

//---------------dance-single - ----------------
#NOTEDATA:;
#CHARTNAME:;
#STEPSTYPE:dance-single;
#DESCRIPTION:;
#CHARTSTYLE:;
#DIFFICULTY:Hard;
#METER:8;
#RADARVALUES:0.479994,0.492818,0.238400,0.208600,0.260750,391.000000,32.000000,28.000000,0.000000,0.000000,0.000000,0.000000,0.000000,0.479994,0.492818,0.238400,0.208600,0.260750,391.000000,32.000000,28.000000,0.000000,0.000000,0.000000,0.000000,0.000000;
#CREDIT:Ben Speirs;
#NOTES:
// measure 0
0000
0000
0000
0000
,  // measure 1
0000
0000
0000
0000
,  // measure 2
2000
0000
3002
0000
,  // measure 3
0203
0000
0000
0000
0300
0010
0100
0010
,  // measure 4
1010
0000
0000
0000
0000
0000
0001
0000
0000
0000
0000
0000
0000
0000
0100
0010
0000
0000
1000
0000
0000
0001
0000
0000
,  // measure 5
0001
0000
0000
0000
0000
0000
1000
0000
0000
0000
0000
0000
0000
0000
0100
0010
0000
0000
0001
0000
0000
1000
0000
0000
,  // measure 6
1010
0000
0000
0000
0000
0000
0001
0000
0000
0100
0000
0000
0000
0000
0001
1000
0000
0000
0001
0000
0000
0100
0000
0000
,  // measure 7
0100
0000
0000
0000
0000
0000
1001
0000
0000
0000
0000
0000
0000
0000
1000
0001
0000
0000
1000
0000
0000
0010
0000
0000
,  // measure 8
0010
0000
1000
0001
0200
0000
0301
1000
,  // measure 9
0020
0000
0000
0000
0000
0000
1030
0000
0000
0000
0000
0000
0000
0000
0001
0100
0000
0000
0001
0000
0000
1000
0000
0000
,  // measure 10
0200
0000
0000
0000
0000
0000
1300
0000
0000
0001
0000
0000
1000
0000
0010
0100
0000
0000
0001
0000
0000
1000
0000
0000
,  // measure 11
0001
0000
0000
0000
0000
0000
0000
0000
0000
0000
0000
0000
0000
0000
0100
0010
0000
0000
0000
0000
0000
0000
0000
0000
,  // measure 12
1010
0000
0000
0010
0000
0000
0100
0000
0001
1000
0000
0000
0001
0000
0001
0100
0000
0000
0010
0000
0000
1000
0000
0000
,  // measure 13
0001
0000
0000
0010
0000
0000
0100
0000
1000
0001
0000
0000
1000
0000
1000
0100
0000
0000
0010
0000
0000
0001
0000
0000
,  // measure 14
1000
0000
0000
0010
0000
0000
0001
0000
0000
0010
0000
0000
0100
0000
0100
0001
0000
0000
0010
0000
0000
1000
0000
0010
,  // measure 15
0001
0000
0000
0100
0000
0000
1000
0000
0000
0100
0000
0000
0010
0000
0010
1000
0000
0000
0100
0000
0000
0001
0000
0100
,  // measure 16
2000
0000
0000
0001
0000
0000
3001
0000
0000
0100
0000
0000
0010
0000
1000
0001
0000
0000
1000
0000
0000
0010
0000
0000
,  // measure 17
0200
0000
0000
0001
0000
0000
0301
0000
0000
1000
0000
0000
0001
0000
0010
0100
0000
0000
1000
0000
0000
0010
0000
0000
,  // measure 18
1000
0000
0000
0100
0000
0000
0001
0000
0000
0100
0000
0000
1000
0000
1000
0001
0000
0000
0100
0000
0000
0001
0000
0010
,  // measure 19
1000
0000
0000
0010
0000
0000
0001
0000
0000
1000
0000
0000
0010
0000
0100
0001
0000
0000
1000
0000
0000
0100
0000
0000
,  // measure 20
2001
0000
3010
0102
1000
1003
0001
1000
,  // measure 21
2010
0000
3001
0012
0100
0103
0001
1000
,  // measure 22
1200
0000
0310
0120
0001
0031
0010
0001
,  // measure 23
1100
0010
0101
0010
1001
0100
1010
0100
,  // measure 24
0011
0000
0000
0010
0000
0001
1000
0000
0000
0010
0000
0000
1010
0000
0000
0010
0000
1000
0001
0000
0000
0100
0000
0000
,  // measure 25
0101
0000
0000
0100
0000
0001
1000
0000
0000
0100
0000
0100
0010
0000
0000
0001
0000
0001
1000
0000
0000
0010
0000
0000
,  // measure 26
1010
0000
0000
1000
0000
0100
0010
0000
0000
0001
0000
0000
0011
0000
0000
0001
0000
1000
0010
0000
0000
0100
0000
0000
,  // measure 27
0101
0000
0000
0001
0000
1000
0100
0000
0000
0010
0000
0010
0001
0000
0000
1000
0000
0000
0010
0000
0000
0100
0000
0000
,  // measure 28
0110
0000
0000
0010
0000
1000
0100
0000
0000
0010
0000
0000
0110
0000
0000
0010
0000
0001
1000
0000
0000
0010
0000
0000
,  // measure 29
0110
0000
0000
0010
0000
1000
0001
0000
0000
0100
0000
0100
0001
0000
0000
1000
0000
1000
0100
0000
0000
0010
0000
0000
,  // measure 30
0011
0000
0000
0001
0000
1000
0001
0000
0000
1000
0000
0000
1010
0000
0000
1000
0000
0001
1000
0000
0000
0001
0000
0000
,  // measure 31
0101
0000
0000
0001
0000
1000
0001
0000
0000
0100
0000
0100
0010
0000
0000
1000
0000
0000
0100
0000
0000
0010
0000
0000
,  // measure 32
0002
0000
1003
0001
2000
0000
3010
0100
,  // measure 33
0002
0000
0000
0000
1003
0000
0100
0010
0100
0000
0100
0000
0010
0000
0010
0000
,  // measure 34
0002
0000
0103
0010
2000
0000
3100
0010
,  // measure 35
0002
0000
0000
0000
0000
0000
1003
0000
0000
0100
0000
0100
0010
0000
0000
0001
0000
0000
0100
0000
0000
0010
0000
0000
,  // measure 36
2010
0000
0000
0000
0000
0000
3001
0000
0010
0100
0000
0000
2000
0000
0000
0000
0000
0000
3010
0000
0100
0001
0000
0000
,  // measure 37
0020
0000
0000
0000
0031
0000
1000
0100
1000
0000
0001
0000
0100
0000
0010
0000
,  // measure 38
2000
0000
0000
0000
0000
0000
3001
0000
0010
0001
0000
0000
2000
0000
0000
0000
0000
0000
3010
0000
1000
0010
0000
0000
,  // measure 39
0200
0000
0000
0000
0301
0000
1000
0100
0010
0000
0001
0000
1000
0000
0010
0000
,  // measure 40
0101
0000
0000
0100
0000
0000
0010
0000
0000
1000
0000
0100
0010
0000
0000
0001
0000
0000
1000
0000
0000
0010
0000
0010
,  // measure 41
0100
0000
0000
0001
0000
0000
1000
0000
0000
0100
0000
0100
0010
0000
0010
0001
0000
0001
1000
0000
1000
0010
0000
0000
,  // measure 42
1010
0000
0000
1000
0000
0000
0001
0000
0000
0010
0000
0100
1000
0000
0000
0010
0000
0000
0100
0000
0000
0001
0000
0001
,  // measure 43
1000
0000
0000
0100
0000
0000
0010
0000
0000
0001
0000
0001
1000
0000
1000
0010
0000
0010
0100
0000
0100
0001
0000
0000
,  // measure 44
1001
0000
0000
1000
0000
0000
0010
0000
0000
0100
0000
0100
0001
0000
0000
1000
0000
0000
0100
0000
0000
0010
0000
0010
,  // measure 45
0001
0000
0000
1000
0000
0000
0010
0000
0000
1000
0000
0100
0010
0000
0001
1000
0000
0010
0100
0000
0001
1000
0000
0000
,  // measure 46
1010
0000
0000
0100
0000
0000
0001
0000
0000
1000
0000
0100
0010
0000
0000
0001
0000
0000
1000
0000
0000
0010
0000
0100
,  // measure 47
0001
0000
0000
1000
0000
0000
0100
0000
0000
0010
0000
0001
1000
0000
1000
0010
0000
0010
0100
0000
0100
0001
0000
0000
,  // measure 48
2002
0000
0000
0000
,  // measure 49
3003
0000
0000
0000
;

//---------------dance-single - ----------------
#NOTEDATA:;
#CHARTNAME:;
#STEPSTYPE:dance-single;
#DESCRIPTION:;
#CHARTSTYLE:;
#DIFFICULTY:Medium;
#METER:5;
#RADARVALUES:0.291615,0.365051,0.141550,0.171350,0.000000,232.000000,19.000000,23.000000,0.000000,0.000000,0.000000,0.000000,0.000000,0.291615,0.365051,0.141550,0.171350,0.000000,232.000000,19.000000,23.000000,0.000000,0.000000,0.000000,0.000000,0.000000;
#CREDIT:Ben Speirs;
#NOTES:
0000
0000
0000
0000
,
0000
0000
0000
0000
,
2000
0000
3002
0000
,
0203
0000
0000
0000
0300
0010
0100
0000
,
1001
0000
0000
0100
0100
0000
0000
0001
,
0001
0000
1000
0000
0000
0001
0010
0100
,
1000
0000
0000
0010
0010
0000
0000
0100
,
0100
0000
0001
0000
0000
1000
0100
0010
,
0001
0000
0000
0100
0100
0000
0000
0010
,
0010
0000
1000
0000
0000
0001
0010
0100
,
2000
0000
0000
3001
0002
0000
0000
0000
,
0103
0000
0000
0000
0000
0010
0010
0000
,
1001
0000
1000
0100
0010
0000
0010
0001
,
1000
0000
0010
0000
0000
1000
0100
0010
,
0001
0000
0001
0100
0010
0000
0010
1000
,
0100
0000
1000
0000
0000
0001
0010
0100
,
1000
0000
0010
1000
0001
0000
0100
0001
,
1000
0000
0100
0000
0000
1000
0100
0010
,
0002
0000
0000
0103
0200
0000
0310
0000
,
1000
0000
0001
0000
0000
1000
0100
0000
,
2002
0000
3003
0010
0010
0010
1000
0000
,
0202
0000
0303
1000
1000
1000
0100
0000
,
2200
0000
3300
0001
0001
0001
0010
0000
,
0011
1010
1100
0101
,
1001
1000
0010
0100
0100
0001
1000
0100
,
0100
0000
0010
0001
1000
1000
0001
0001
,
0100
0000
0010
1000
0200
0000
0310
0001
,
0200
0000
0310
1000
0001
1000
0100
0000
,
1001
0001
0100
0010
0010
1000
0001
0010
,
0010
0000
0100
1000
0001
0001
1000
1000
,
0010
0000
0100
0001
0020
0000
0130
1000
,
0020
0000
0130
0001
1000
0001
0010
0000
,
1100
0000
0000
0001
0100
0000
0000
0010
,
1000
0000
0000
0001
1000
0001
1000
0000
,
0010
0000
0000
0100
0001
0000
0000
1000
,
0100
0000
0000
0000
1000
0001
1000
0000
,
0101
1000
1010
0001
,
0011
0000
1000
0000
0001
1000
0001
0000
,
0200
0310
2000
3001
,
0020
0000
0130
0000
1000
0100
0010
0001
,
0011
0000
1000
0001
1000
0010
1000
0000
,
0010
0000
0100
0000
0010
1000
0100
0000
,
1001
0000
0001
0100
0001
1000
0001
0000
,
0010
0000
0001
0000
1000
0100
0010
0001
,
2000
0010
0100
3001
,
0100
0000
1001
0000
0010
1000
0001
0001
,
0002
0100
1000
0013
,
1001
0000
0100
0000
0001
0001
1000
1000
,
0020
0000
0000
0000
,
0030
0000
0000
0000
;

//---------------dance-single - ----------------
#NOTEDATA:;
#CHARTNAME:;
#STEPSTYPE:dance-single;
#DESCRIPTION:;
#CHARTSTYLE:;
#DIFFICULTY:Easy;
#METER:3;
#RADARVALUES:0.163900,0.237283,0.059600,0.156450,0.000000,125.000000,8.000000,21.000000,0.000000,0.000000,0.000000,0.000000,0.000000,0.163900,0.237283,0.059600,0.156450,0.000000,125.000000,8.000000,21.000000,0.000000,0.000000,0.000000,0.000000,0.000000;
#CREDIT:Ben Speirs;
#NOTES:
0000
0000
0000
0000
,
0000
0000
0000
0000
,
0002
0003
0020
0030
,
0200
0000
0300
0000
,
1001
0000
1000
0000
,
0010
0000
0000
1000
,
1000
0000
0001
0000
,
0100
0000
0000
0010
,
0010
0000
1000
0000
,
0001
0000
0000
0100
,
0100
0000
0001
0000
,
1000
0000
0000
0000
,
1001
0100
0010
1000
,
0001
0000
0000
0000
,
1000
0001
0010
0010
,
0100
0000
0000
0000
,
1000
0100
1000
0001
,
0010
0000
0000
0001
,
0100
0000
0010
0000
,
1000
0000
0001
0000
,
2002
0000
3003
0000
0100
0100
0000
0000
,
1000
0001
0100
0000
,
2002
0000
3003
0000
0010
0010
0000
0000
,
1000
1000
0001
0001
,
0110
0000
0000
1000
1000
0000
0000
0001
,
0001
0000
1000
0001
,
0100
0000
0000
0010
0010
0000
0000
1000
,
1000
0000
0100
0010
,
1001
0000
0000
0001
0001
0000
0000
1000
,
1000
0000
0010
0100
,
0001
0000
0000
1000
1000
0000
0000
0100
,
0100
0000
0010
0001
,
2000
3000
0002
0003
,
0200
0300
0010
0010
,
2000
3000
0200
0300
,
0020
0030
0001
0000
,
2002
3003
0020
0030
,
0200
0300
0001
0001
,
2000
3000
0002
0003
,
0020
0000
0000
0030
,
1001
0100
1000
0001
,
0100
0000
0010
0010
,
1000
0001
0100
0010
,
1000
0000
0100
0100
,
0010
0001
1000
0010
,
0100
0000
0001
0001
,
1000
0100
0010
0001
,
0100
0000
0010
0010
,
2000
0000
0000
0000
,
3000
0000
0000
0000
;

//---------------dance-single - ----------------
#NOTEDATA:;
#CHARTNAME:;
#STEPSTYPE:dance-single;
#DESCRIPTION:;
#CHARTSTYLE:;
#DIFFICULTY:Beginner;
#METER:1;
#RADARVALUES:0.093657,0.125160,0.029800,0.000000,0.000000,84.000000,4.000000,0.000000,0.000000,0.000000,0.000000,0.000000,0.000000,0.093657,0.125160,0.029800,0.000000,0.000000,84.000000,4.000000,0.000000,0.000000,0.000000,0.000000,0.000000,0.000000;
#CREDIT:Ben Speirs;
#NOTES:
0000
0000
0000
0000
,
0000
0000
0000
0000
,
1000
0000
0000
0000
,
0001
0000
0000
0000
,
0100
0000
0100
0000
,
0010
0000
0000
0000
,
1000
0000
1000
0000
,
0100
0000
0000
0000
,
0010
0000
0010
0000
,
0001
0000
0000
0000
,
0100
0000
0000
0000
,
0010
0000
0000
0000
,
1000
0000
0001
0000
,
0100
0000
0000
0000
,
0010
0000
1000
0000
,
0001
0000
0000
0100
,
0100
0000
0001
0000
,
1000
0000
0000
0010
,
0010
0000
1000
0000
,
0001
0000
0000
0000
,
1000
1000
1000
0000
,
0010
0000
0100
0000
,
0001
0001
0001
0000
,
0010
0000
0010
0000
,
1001
0000
1000
0000
,
0001
0000
0100
0100
,
0100
0000
0010
0000
,
1000
0000
0000
0000
,
1001
0000
0001
0000
,
1000
0000
0100
0100
,
0100
0000
0010
0000
,
0001
0000
0000
0000
,
1000
0000
0001
0000
,
0100
0000
0000
0000
,
0001
0000
1000
0000
,
0100
0000
0000
0000
,
1001
0000
0010
0000
,
0010
0000
0000
0000
,
0100
0000
0100
0000
,
0001
0000
0000
0000
,
1001
0000
1000
0000
,
0100
0000
0010
0000
,
0001
0000
1000
0000
,
0010
0000
0100
0100
,
0100
0000
0001
0000
,
1000
0000
0010
0000
,
1000
0000
0001
0000
,
0100
0000
0010
0010
,
0010
0000
0000
0000
;

//---------------dance-double - ----------------
#NOTEDATA:;
#CHARTNAME:;
#STEPSTYPE:dance-double;
#DESCRIPTION:;
#CHARTSTYLE:;
#DIFFICULTY:Challenge;
#METER:8;
#RADARVALUES:0.465094,0.492818,0.342700,0.186250,0.204875,366.000000,46.000000,25.000000,0.000000,0.000000,0.000000,0.000000,0.000000,0.465094,0.492818,0.342700,0.186250,0.204875,366.000000,46.000000,25.000000,0.000000,0.000000,0.000000,0.000000,0.000000;
#CREDIT:Ben Speirs;
#NOTES:
00000000
00000000
00000000
00000000
,
00000000
00000000
00000000
00000000
,
00002000
00000000
00003002
00000000
,
00000203
00000000
00000000
00000000
00000300
00000001
00001000
00000001
,
00001001
00000000
00000100
00000001
00000001
00000000
00001000
00000100
,
00000100
00000000
00000000
00000000
00000000
00000000
00001000
00000000
00000000
00000000
00000000
00000000
00000000
00000000
00000010
00000100
00000000
00000000
00000001
00000000
00000000
00000000
00000000
00000000
,
00001000
00000000
00000010
00010000
00010000
00000000
00001000
00100000
,
00100000
00000000
00000000
00000000
00000000
00000000
00010000
00000000
00000000
00000000
00000000
00000000
00000000
00000000
10000000
00010000
00000000
00000000
10000000
00000000
00000000
00000000
00000000
00000000
,
00100000
00000000
01000000
00010000
00010000
00000000
10000000
01000000
,
01000000
00000000
00000000
00000000
00000000
00000000
00100000
00000000
00000000
00000000
00000000
00000000
00000000
00000000
00010000
10000000
00000000
00000000
00010000
00000000
00000000
00100000
00000000
00000000
,
00002000
00000000
00000000
00010000
00020000
00000000
00000000
00000000
,
00000000
00000000
00000000
00000000
00033000
00001000
00010000
00000100
,
00001100
00000000
00000000
00000100
00000000
00001000
00000010
00000000
00000000
00000100
00000000
00000000
00000001
00000000
00000001
00001000
00000000
00000000
00000010
00000000
00000000
00000100
00000000
00000000
,
00000001
00000000
00000000
00001000
00000000
00000100
00000010
00000000
00000000
00000001
00000000
00000000
00001000
00000000
00001000
00000100
00000000
00000000
00010000
00000000
00000000
00001000
00000000
00000000
,
00100000
00000000
00000000
00010000
00000000
00000000
10000000
00000000
00100000
01000000
00000000
00000000
00010000
00000000
00010000
10000000
00000000
00000000
01000000
00000000
00000000
00100000
00000000
00010000
,
10000000
00000000
00000000
00100000
00000000
00000000
01000000
00000000
01000000
00010000
00000000
00000000
10000000
00000000
10000000
01000000
00000000
00000000
10010000
00000000
00000000
00000000
00000000
00000000
,
00110000
00100000
00001000
00010000
00000100
00001000
00000010
00000100
,
00000001
00000000
00000000
00001000
00000000
00000000
00000100
00000000
00000010
00000001
00000000
00000000
00001000
00000000
00000010
00000100
00000000
00000000
00000001
00000000
00000000
00001000
00000000
00000000
,
00000200
00000000
00000000
00000000
00000000
00000000
00010000
00000300
00000000
00001000
00000000
00000000
00001000
00000000
00100000
00010000
00000000
00000000
00101000
00000000
00000000
00000000
00000000
00100000
,
00010000
00000000
00000000
10000000
00000000
00000000
00100000
00000000
00000000
01000000
00000000
00000000
00010000
00000000
10000000
01000000
00000000
00000000
10010000
00000000
00000000
00000000
00000000
00000000
,
20100000
00000000
30010000
00120000
10000000
10030000
00100000
01000000
,
02010000
00000000
03001000
00012000
00100000
00103000
00001000
00010000
,
00020100
00000000
00030010
00002010
00000001
00003001
00000101
00000000
,
00001001
00001000
00011000
00010000
10010000
10000000
11000000
00000000
,
01010000
00000000
00000000
01000000
00000000
00100000
10000000
00000000
00000000
01000000
00000000
00000000
01100000
00000000
00000000
00100000
00000000
00010000
10000000
00000000
00000000
00100000
00000000
00000000
,
10100000
00000000
00000000
10000000
00000000
01000000
00100000
00000000
00000000
00010000
00000000
00010000
10000000
00000000
00000000
00100000
00000000
00000000
01000000
00000000
00000000
00010000
00000000
00000000
,
00110000
00000000
00000000
00100000
00000000
00001000
00010000
00000000
00000000
00001000
00000000
00000000
00011000
00000000
00000000
00010000
00000000
00000100
00001000
00000000
00000000
00000100
00000000
00000000
,
00001100
00000000
00000000
00000100
00000000
00001000
00000010
00000000
00000000
00000100
00000000
00000001
00001000
00000000
00000000
00000010
00000000
00000000
00000100
00000000
00000000
00000001
00000000
00000000
,
00001010
00000000
00000000
00000010
00000000
00000100
00000001
00000000
00000000
00000010
00000000
00000000
00000110
00000000
00000000
00000100
00000000
00001000
00000001
00000000
00000000
00000100
00000000
00000000
,
00000101
00000000
00000000
00000001
00000000
00000010
00000100
00000000
00000000
00001000
00000000
00001000
00000001
00000000
00000000
00000100
00000000
00000000
00000010
00000000
00000000
00001000
00000000
00000000
,
00001100
00000000
00000000
00000100
00000000
00010000
00001000
00000000
00000000
00010000
00000000
00000000
00011000
00000000
00000000
00001000
00000000
00100000
00010000
00000000
00000000
00100000
00000000
00000000
,
00110000
00000000
00000000
00100000
00000000
00010000
01000000
00000000
00000000
00100000
00000000
10000000
00010000
00000000
00000000
01000000
00000000
00000000
00100000
00000000
00000000
10000000
00000000
00000000
,
00020000
00000000
01030000
10000000
20000000
00000000
31000000
00010000
,
00020000
00000000
00000000
00000000
00130000
00000000
00010000
10000000
00010000
00000000
01000000
00000000
00100000
00000000
00010000
00000000
,
00002000
00000000
00013000
00100000
00200000
00000000
00310000
00001000
,
00002000
00000000
00000000
00000000
00000000
00000000
00013000
00000000
00000000
00001000
00000000
00000100
00001000
00000000
00000000
00000100
00000000
00000000
00000001
00000000
00000000
00001000
00000000
00000000
,
00002100
00000000
00003010
00000001
00000002
00000000
00000013
00001000
,
00002000
00000000
00000000
00000000
00003100
00000000
00001000
00000001
00001000
00000000
00000010
00000000
00000100
00000000
00001000
00000000
,
00020000
00000000
00031000
00000100
00000200
00000000
00001300
00010000
,
00020000
00000000
00000000
00000000
00000000
00000000
00031000
00000000
00000000
00010000
00000000
00100000
00010000
00000000
00000000
00100000
00000000
00000000
10000000
00000000
00000000
01000000
00000000
00000000
,
11000000
00000000
00000000
00010000
00000000
00000000
00110000
00000000
00000000
10000000
00000000
00000000
10100000
00000000
00000000
00010000
00000000
00000000
01010000
00000000
00000000
10000000
00000000
01000000
,
00100000
00000000
00000000
00010000
00000000
00000000
10000000
00000000
00000000
00100000
00000000
00100000
01000000
00000000
01000000
00010000
00000000
00010000
00100000
00000000
00100000
00001000
00000000
00000000
,
00011000
00100000
00101000
00010000
00010100
00001000
00011000
00010000
,
00001000
00000000
00000000
00000100
00000000
00000000
00000001
00000000
00000000
00001000
00000000
00001000
00000100
00000000
00000100
00000010
00000000
00000010
00000001
00000000
00000001
00001000
00000000
00000000
,
00000011
00000000
00000000
00001000
00000000
00000000
00001100
00000000
00000000
00000001
00000000
00000000
00000101
00000000
00000000
00001000
00000000
00000000
00001010
00000000
00000000
00000001
00000000
00000010
,
00000100
00000000
00000000
00001000
00000000
00000000
00000001
00000000
00000000
00000100
00000000
00000100
00000010
00000000
00000010
00001000
00000000
00001000
00000100
00000000
00000100
00010000
00000000
00000000
,
00011000
00000100
00010100
00001000
00101000
00010000
00011000
00001000
,
00010000
00000000
00000000
00100000
00000000
00000000
10000000
00000000
00000000
00010000
00000000
00010000
00100000
00000000
00100000
01000000
00000000
01000000
10000000
00000000
10000000
00010000
00000000
00000000
,
02000000
00000000
00000000
00000000
,
03000000
00000000
00000000
00000000
;
