#TITLE:Hey Brother;
#SUBTITLE:;
#ARTIST:Avicii;
#TITLETRANSLIT:;
#SUBTITLETRANSLIT:;
#ARTISTTRANSLIT:;
#GENRE:;
#CREDIT:;
#BANNER:Hey Brother.png;
#BACKGROUND:Hey Brother-bg.png;
#LYRICSPATH:;
#CDTITLE:;
#MUSIC:Hey Brother.ogg;
#OFFSET:-0.155000;
#SAMPLESTART:107.677330;
#SAMPLELENGTH:14.933999;
#SELECTABLE:YES;
#BPMS:0.000000=124.999992
;
#STOPS:
;
#BGCHANGES:4.000=Hey Brother.avi=1.000=0=0=1=====,
99999=-nosongbg-=1.000=0=0=0 // don't automatically add -songbackground-
;
#KEYSOUNDS:;
#ATTACKS:;

//---------------dance-single - ----------------
#NOTES:
     dance-single:
     :
     Hard:
     7:
     0.370324,0.499302,0.184673,0.608738,0.071817,379.000000,352.000000,27.000000,89.000000,0.000000,0.000000,0.370324,0.499302,0.184673,0.608738,0.071817,379.000000,352.000000,27.000000,89.000000,0.000000,0.000000:
// measure 0
0000
0000
0000
0000
,  // measure 1
0000
0000
0000
0000
,  // measure 2
2020
0000
0000
3030
,  // measure 3
2000
0000
0200
0000
0000
0000
0000
0000
3300
0000
0000
0000
1000
0000
0000
1000
,  // measure 4
0020
0130
0002
1003
,  // measure 5
0002
0000
0013
0000
0200
2000
0000
0000
,  // measure 6
0000
3300
0202
0000
,  // measure 7
0000
0000
0303
0000
2000
0200
0000
0000
,  // measure 8
3300
0000
0000
0000
0001
0000
0000
0001
0020
0000
0000
0000
0130
0000
0000
0000
,  // measure 9
2000
3010
0200
0301
,  // measure 10
2000
0020
0000
0000
0000
0000
3030
0000
,  // measure 11
2002
0000
0000
0000
3003
0000
0001
1000
,  // measure 12
0200
0310
0020
0031
,  // measure 13
2200
0000
0000
0000
3300
0000
0100
1000
,  // measure 14
0002
0000
0000
0003
,  // measure 15
0100
0001
1000
0000
0010
0000
0100
0010
,  // measure 16
2000
0000
0100
0100
,  // measure 17
0002
0000
0000
3003
,  // measure 18
0201
0010
1000
0010
,  // measure 19
0301
1000
0002
0000
0013
0000
0001
0010
,  // measure 20
0200
0000
1300
0100
2000
0000
3010
1000
,  // measure 21
0002
0000
0203
0000
0310
0100
0002
0000
,  // measure 22
0100
1003
1020
0100
,  // measure 23
0001
0000
0100
0000
1030
0001
2000
0000
,  // measure 24
3100
0000
1000
0100
0020
0000
0031
0010
,  // measure 25
0002
0000
0103
0001
2000
0000
3020
0000
,  // measure 26
0130
0010
2000
0000
0100
0000
3001
0000
,  // measure 27
1002
0000
0100
0000
1003
0000
0001
1000
,  // measure 28
0010
0100
0020
0000
1030
0100
2000
0000
,  // measure 29
3002
0100
0010
1000
,  // measure 30
2003
0100
0010
3001
,  // measure 31
1000
0100
1000
0001
0100
0000
0010
0100
,  // measure 32
0002
0100
0010
0010
,  // measure 33
2000
3003
0010
0010
,  // measure 34
1001
1000
0100
1000
0010
0100
0001
1000
,  // measure 35
0002
0023
0230
1000
,  // measure 36
0010
0000
0000
0000
0310
0000
0000
0000
0100
1000
0000
0001
0000
0000
1000
0000
,  // measure 37
0100
0010
0001
0000
0101
0100
0010
0100
,  // measure 38
0001
0000
0010
0000
0100
0000
1000
0000
0001
0000
0000
0001
0100
0000
0010
0000
,  // measure 39
2000
0100
3002
0013
,  // measure 40
0001
1000
0000
0001
0000
0000
0100
0000
0001
0000
1000
0000
0010
0000
0000
0000
,  // measure 41
0102
0000
0103
0001
0100
0001
1000
0010
,  // measure 42
1010
1100
0101
0011
,  // measure 43
2001
0000
0100
0000
3001
0100
0001
1000
,  // measure 44
1002
0000
0100
0000
1003
0100
1000
0001
,  // measure 45
0001
0100
0000
0010
0000
0000
1000
0000
0100
0000
0000
0100
1000
0000
0001
0000
,  // measure 46
0200
0010
1000
0010
,  // measure 47
0020
0300
0100
0130
,  // measure 48
2002
0000
0000
0000
3003
0001
1000
0100
,  // measure 49
0020
0031
2000
3010
,  // measure 50
0202
0000
0000
0000
0303
0100
0001
1000
,  // measure 51
0100
0000
0000
0100
0010
0000
0000
0000
0001
0000
0000
0000
0010
0100
0010
0000
,  // measure 52
0200
0000
1000
0000
1300
0100
1000
0010
,  // measure 53
0200
0010
0302
0010
,  // measure 54
2003
0100
0001
3010
,  // measure 55
1002
0000
0000
0000
0100
0000
0000
0000
1003
0000
0000
0000
0001
1000
0001
0000
,  // measure 56
1000
0100
0010
0001
0010
0100
1000
0001
,  // measure 57
0200
0000
0000
0000
0310
0000
1000
0000
0002
0000
0000
0000
0013
0000
0001
1000
,  // measure 58
0002
0000
0103
0001
1000
0010
0100
0001
,  // measure 59
1000
0000
0000
1000
0100
0000
0010
0000
0001
0000
1000
0000
0010
0100
0010
0000
,  // measure 60
2000
0000
3010
1000
0100
1000
0010
0100
,  // measure 61
0002
0000
0000
0000
0103
0000
0001
0000
2000
0000
0000
0000
3010
0000
1000
0001
,  // measure 62
2000
0100
0001
3010
,  // measure 63
1002
0000
0000
0000
0103
0000
0000
0000
2001
0000
0000
0000
3001
1000
0001
0000
,  // measure 64
0201
0000
0310
0100
0001
1000
0100
0010
,  // measure 65
0012
0000
1003
0010
2010
0000
3001
0100
,  // measure 66
0201
0000
0310
0100
0001
0010
0100
1000
,  // measure 67
1100
0000
0000
0100
1000
0000
0010
0000
0100
0000
0001
0000
1000
0001
1000
0000
,  // measure 68
1002
0000
0100
0010
0000
0000
0100
0000
,  // measure 69
2003
0000
0010
0100
0000
0000
0010
0000
,  // measure 70
3002
0000
0103
0000
0001
0010
0010
0100
,  // measure 71
2000
0000
0000
0000
3200
0000
0000
0000
0302
0000
0000
0000
0103
0010
0001
0000
,  // measure 72
2000
0000
0000
0000
,  // measure 73
3000
0000
0000
0000
;

//---------------dance-double - ----------------
#NOTES:
     dance-double:
     :
     Challenge:
     7:
     0.340034,0.424407,0.109436,0.636098,0.047878,348.000000,332.000000,16.000000,93.000000,0.000000,0.000000,0.340034,0.424407,0.109436,0.636098,0.047878,348.000000,332.000000,16.000000,93.000000,0.000000,0.000000:
00000000
00000000
00000000
00000000
,
00000000
00000000
00000000
00000000
,
00022000
00000000
00000000
00033000
,
00000200
00000000
00002000
00000000
00000000
00000000
00000000
00000000
00003300
00000000
00000000
00000000
00001000
00000000
00000000
00001000
,
00000002
00000103
00000020
00001030
,
00000200
00000000
00000000
00000000
00020300
00000000
00000000
00030000
00002000
00000000
00200000
00000000
00000000
00000000
00000000
00000000
,
00000000
00303000
00022000
00000000
,
00000000
00000000
00033000
00000000
02000000
00020000
00000000
00000000
,
03030000
00000000
00000000
00000000
00010000
00000000
00000000
00010000
20000000
00000000
00000000
00000000
30100000
00000000
00000000
00000000
,
02000000
00000000
00000000
00000000
03010000
00000000
00000000
00000000
00200000
00000000
00000000
00000000
00302000
00000000
00000000
00003000
,
00020000
00000200
00000000
00000000
00000000
00000000
00030300
00000000
,
00002002
00000000
00000000
00000000
00003003
00000000
00000001
00001000
,
00000020
00000130
00002000
00003100
,
00000002
00000000
00000100
00000000
00000103
00000000
00001000
00000100
,
00020000
00001000
00031000
00000100
,
00001000
00000100
00010000
00000000
00001000
00000000
00100000
00010000
,
02000000
00000000
00100000
00100000
,
00200000
00000000
00000000
03300000
,
10000000
00100000
10000000
00010000
10000000
00010000
10000000
00000000
,
00010000
00100000
00010000
10000000
00010000
10000000
00010000
00000000
,
20000000
31000000
00020000
00031000
,
00000200
00000000
00000301
00000000
00002000
00000020
00000000
00000000
,
00000000
00000000
00003030
00000000
00000001
00000010
00000001
00001000
,
00000001
00001000
00000001
00000000
00001000
00000010
00001000
00000001
,
00001000
00000001
00001000
00000000
00000002
00000000
00000103
00000000
,
00002000
00013000
00200000
10300000
,
00020000
02000000
00000000
00000000
00000000
00000000
03030000
00000000
,
20010000
00000000
00010000
00000000
31000000
00000000
01000000
10000000
,
00200000
00000000
01300000
00010000
00200000
00000000
00310000
00100000
,
00002000
00000000
00010000
00000000
00010000
00000000
00013000
00000100
,
00002000
00000010
00000001
00003001
,
00001000
00000100
00000010
00000000
00000002
00000000
00000103
00000001
,
00002000
00000010
00000100
00000001
,
00000200
00003300
00010000
00010000
,
00010100
00010000
00001000
00010000
00000100
00010000
00001000
00100000
,
00020000
01030000
20020000
00000000
,
30030000
00000000
00010000
00000000
10000000
00100000
01000000
00000000
,
00010000
10000000
01000000
00000000
10000000
01000000
00100000
00010000
,
01000000
00000000
00100000
00000000
01000000
00000000
00010000
00000000
00100000
00000000
00000000
00100000
00010000
00000000
00100000
00000000
,
00002000
00010000
00000200
00003000
,
00000310
00000100
00000002
00000000
00000013
00000100
00002000
00000000
,
00003002
00000000
00000010
00000000
00000100
00000000
00001003
00000100
,
00002100
00003001
00001002
00000103
,
00002010
00000000
00000001
00000000
00000010
00000000
00003100
00010000
,
00002000
00203000
00320000
02030000
,
03100000
10000000
01000000
00100000
00020000
00000000
01030000
00010000
,
20000000
01000000
00010000
30100000
,
10020000
00000000
00001000
00001000
,
00032000
00000000
00000000
00000000
00000000
00003100
00001000
00000001
,
00000200
00000310
00002000
00003001
,
00000020
00000000
00000000
00000000
00000030
00000001
00000010
00000100
,
00001000
00000000
00000000
00001000
00000100
00000000
00000000
00000000
00010000
00000000
00000000
00000000
00001000
00000000
00010000
00000000
,
00200000
00000000
00000000
00000000
00000000
10300000
01000000
10000000
,
00020000
00130000
00002000
00013000
,
00000200
00000000
00001000
00001300
,
00000010
00000000
00000000
00000010
00000100
00000000
00000000
00000000
00000001
00000000
00000000
00000000
00000100
00000010
00000100
00000000
,
00000102
00000000
00000000
00000000
00001000
00000003
00000000
00000000
00001000
00000000
00000010
00000000
00000100
00000000
00000001
00000000
,
00000020
00000000
00000000
00000000
00000130
00000000
00001000
00000000
00000020
00000000
00000000
00000000
00001030
00000000
00000100
00001000
,
00000200
00000000
00010000
00000000
00001300
00000100
00010000
00001000
,
00010000
00000000
00000000
00010000
00001000
00000000
00100000
00000000
00020000
00000000
00000000
00000000
01030000
00100000
01000000
00000000
,
00200000
00000000
10000000
00000000
01300000
00100000
10000000
01000000
,
20000000
00000000
00000000
00000000
31000000
00000000
00100000
00000000
00020000
00000000
00000000
00000000
01030000
00000000
00010000
01000000
,
00020000
01000000
10000000
00130000
,
10010000
00000000
00000000
00000000
00011000
00000000
00000000
00000000
00001001
00000000
00000000
00000000
00000010
00000100
00000010
00000000
,
00001002
00000000
00000100
00000000
00001003
00000010
00000100
00000001
,
00002000
00000000
00000000
00000000
00003100
00000000
00001000
00000000
00000020
00000000
00000000
00000000
00000130
00000000
00000001
00000100
,
00000002
00000000
00000100
00000000
00001003
00000001
00000100
00000010
,
00001000
00000000
00000000
00001000
00000100
00000000
00010000
00000000
00002000
00000000
00000000
00000000
00103000
01000000
00100000
00000000
,
00020000
01000000
10000000
00130000
,
21000000
30010000
00002000
00010000
,
00203000
01000000
00010000
00301000
,
00010000
00000000
00000100
00000000
00002000
00000000
00000000
00000000
00003020
00000000
00000000
00000000
00000100
00000030
00001000
00000000
,
00020000
00000000
00000000
00000000
,
00030000
00000000
00000000
00000000
;

//---------------dance-single - ----------------
#NOTES:
     dance-single:
     :
     Medium:
     4:
     0.228643,0.299581,0.061558,0.540341,0.000000,234.000000,225.000000,9.000000,79.000000,0.000000,0.000000,0.228643,0.299581,0.061558,0.540341,0.000000,234.000000,225.000000,9.000000,79.000000,0.000000,0.000000:
0000
0000
0000
0000
,
0000
0000
0000
0000
,
0002
0000
0000
0003
,
0100
0020
0000
0000
0030
0000
0100
0000
,
0020
1030
2000
3100
,
0200
0000
0310
0000
0002
2000
0000
0000
,
0000
3003
2000
0000
,
0000
0000
3000
0000
0010
0200
0000
0000
,
0300
0001
0200
0310
,
0020
1030
2000
3100
,
2000
0002
0000
0000
0000
0000
3003
0000
,
0202
0000
0000
0000
0303
0000
0001
0100
,
0002
0103
2000
3100
,
2002
0000
0000
3003
,
0020
0000
0000
0030
,
2000
3000
0002
0003
,
0200
0000
0010
0010
,
0310
0000
0000
0000
,
1000
0010
0100
0100
,
0001
1000
0100
0000
,
2000
3100
0200
0310
,
0020
0000
0031
0000
0002
2000
0000
0000
,
0000
3003
0000
0000
0001
0000
0100
0000
,
0010
0010
0100
0010
,
1000
0000
0002
0013
,
0020
0130
0200
1300
,
2000
0002
0000
0000
0000
3003
0000
0000
,
1100
0000
0100
0000
1000
0000
0010
0100
,
0010
1000
0100
0010
,
0002
0003
0010
0001
,
2000
3000
0010
1000
,
0001
0000
0001
0000
0100
0000
0010
0100
,
0020
0000
0000
0100
,
0130
0000
0000
0000
,
1001
0000
1000
0000
0001
0000
0100
0001
,
2000
3200
0320
0000
,
0030
0001
0010
0001
,
0100
0001
0100
0000
0001
0000
0100
0000
,
0010
0000
1000
0010
1000
0000
0001
0000
,
2000
3000
0002
0003
,
1000
0000
0100
0000
0010
0010
0010
0000
,
0002
0000
0000
0000
0003
0000
0010
0100
,
0010
0001
1000
0010
,
2000
3000
0100
1000
,
0002
0003
0100
0001
,
1000
0000
0001
0000
0100
0000
0010
0100
,
0020
0000
0000
0100
,
0130
0000
0001
1000
,
2002
0000
0000
0000
3003
0000
1000
0100
,
2000
3000
0002
0003
,
0200
0000
0300
0000
0000
0000
0001
0100
,
0002
2003
3200
0320
,
0032
0000
0003
0000
0000
0000
1000
0001
,
2000
3000
0020
0030
,
0200
0300
0000
0000
,
0010
0010
0100
0110
,
1001
0000
0001
0000
0100
0000
0010
0100
,
0010
1000
0001
1000
,
0200
0300
1000
0001
,
1000
0100
1000
0000
0001
0000
0100
0001
,
2000
0000
3000
0000
0010
0000
1000
0100
,
1000
0000
0001
0000
0010
0000
0001
0100
,
0002
0003
0100
0100
,
0002
0103
0020
1030
,
2002
0000
3003
0000
0000
1000
0100
0010
,
0002
0003
2000
3000
,
0020
0000
0030
0000
0000
1000
0010
0100
,
0002
2003
3200
0320
,
0032
0000
0003
0000
0000
0010
0001
1000
,
0020
0030
0200
0300
,
0002
0000
0003
0000
,
1000
0001
0100
0100
,
2002
0000
0000
0000
,
3003
0000
0000
0000
;

//---------------dance-single - ----------------
#NOTES:
     dance-single:
     :
     Easy:
     3:
     0.157314,0.224686,0.061558,0.225712,0.000000,161.000000,152.000000,9.000000,33.000000,0.000000,0.000000,0.157314,0.224686,0.061558,0.225712,0.000000,161.000000,152.000000,9.000000,33.000000,0.000000,0.000000:
0000
0000
0000
0000
,
0000
0000
0000
0000
,
2000
0000
3000
0000
,
0010
0000
0000
0000
,
2000
3000
0002
0003
,
0020
0030
0020
0000
,
0030
0000
0002
0000
,
0003
0000
0100
0000
,
0000
0000
0020
0030
,
2000
3000
0002
0003
,
0200
0000
0300
0000
,
2002
0000
3003
0000
,
1000
0000
0001
0000
,
0200
0000
0300
0000
,
0200
0000
0300
0000
,
0001
0000
1000
0000
,
0020
0000
0000
0030
,
0010
0000
0000
0000
,
1000
0000
0100
0000
,
0010
0010
0001
0000
,
1000
0010
1000
0000
,
0001
0010
0001
0000
,
1000
0000
0010
0000
,
0010
0000
0100
0100
,
0001
0000
1000
0100
,
1000
0000
0001
0100
,
0001
0000
1000
0000
,
0020
0030
0000
0010
,
0010
0000
1000
0001
,
0200
0000
0300
0000
,
0200
0000
0300
0000
,
0001
0000
1000
1000
,
0010
0000
0000
0000
,
0000
0000
0001
1000
,
1001
0000
0000
0001
,
0100
0100
0010
0000
,
0000
0000
1000
0000
,
0100
0100
0010
0000
,
0000
0100
1000
1000
,
0001
0000
0100
0000
,
0010
0010
0100
0000
,
2002
0000
3003
0000
,
0001
0001
1000
1000
,
0020
0000
0030
0000
,
0020
0000
0030
0000
,
1000
0000
0100
0100
,
0010
0000
0001
0001
,
1000
0000
1000
1000
,
2002
0000
3003
0000
,
0002
0003
2000
3000
,
0020
0000
0030
0000
,
1000
1000
0100
0100
,
0020
0000
0030
0000
,
0002
0003
2000
3000
,
0020
0000
0030
0000
,
1000
1000
0001
0000
,
0110
0000
1001
0000
,
0001
1000
0100
0100
,
0010
0000
0010
0000
,
0001
0000
1000
0000
,
0001
0100
0001
0000
,
1000
0100
1000
0000
,
0001
0001
0010
0000
,
0001
0010
0100
1000
,
1001
0000
0110
0000
,
0001
0001
0100
0100
,
0010
0000
1000
0000
,
0001
1000
0001
1000
,
0100
0000
1000
0000
,
0010
0010
0100
0000
,
0001
0000
1000
0000
,
0100
0100
0010
0000
,
2002
0000
0000
0000
,
3003
0000
0000
0000
;

//---------------dance-single - ----------------
#NOTES:
     dance-single:
     :
     Beginner:
     1:
     0.108459,0.147739,0.041039,0.000000,0.000000,111.000000,105.000000,6.000000,0.000000,0.000000,0.000000,0.108459,0.147739,0.041039,0.000000,0.000000,111.000000,105.000000,6.000000,0.000000,0.000000,0.000000:
0000
0000
0000
0000
,
0000
0000
0000
0000
,
0001
0000
0000
0000
,
1000
0000
0000
0000
,
0010
0000
0010
0000
,
0010
0000
0010
0000
,
0000
0000
1000
0000
,
0000
0000
0001
0000
,
0000
0000
0100
0000
,
0100
0000
0100
0000
,
0100
0000
0000
0000
,
0001
0000
0000
0000
,
1000
0000
1000
0000
,
1000
0000
0000
0000
,
0010
0000
0000
0000
,
0100
0000
0100
0000
,
0100
0000
0000
0000
,
0001
0000
0000
0000
,
1001
0000
0000
0000
,
1000
1000
0000
0000
,
0100
0000
0100
0000
,
0100
0000
0100
0000
,
0000
0000
1001
0000
,
0000
0000
0001
0001
,
0000
0000
0100
0000
,
0100
0000
0100
0000
,
0100
0000
0000
0000
,
0010
0000
0000
0000
,
1000
1000
0000
1000
,
1000
0000
0000
0000
,
0100
0000
0000
0000
,
0010
0010
0000
0010
,
0010
0000
0000
0000
,
0001
0000
0000
0000
,
1001
0000
0000
0000
,
0001
0001
0001
0000
,
0000
0000
0100
0000
,
0100
0000
0000
0000
,
0000
0000
0010
0010
,
0010
0000
0000
0000
,
1000
0000
1000
0000
,
1000
0000
0000
0000
,
0100
0000
0100
0000
,
0100
0000
0000
0000
,
0100
0000
0000
0000
,
1000
0000
0000
0000
,
0001
0000
0000
0000
,
0000
0000
0001
0001
,
0001
0000
0000
0000
,
1000
0000
1000
0000
,
1000
0000
0000
0000
,
0010
0010
0010
0000
,
0010
0000
0000
0000
,
0100
0000
0100
0000
,
0100
0000
0000
0000
,
0001
0000
0000
0000
,
1001
0000
0000
0000
,
1000
1000
1000
0000
,
1000
0000
0000
0000
,
0100
0100
0100
0000
,
0100
0000
0000
0000
,
1000
0000
1000
0000
,
1000
0000
0000
0000
,
0001
0000
0000
0000
,
1001
0000
0000
0000
,
0001
0001
0001
0000
,
0001
0000
0000
0000
,
0100
0100
0100
0000
,
0000
0100
0000
0000
,
0000
0010
0000
0000
,
0000
1000
0000
0000
,
0100
0000
0100
0000
,
1001
0000
0000
0000
;
