#VERSION:0.82;
#TITLE:Hello;
#SUBTITLE:;
#ARTIST:Adele;
#TITLETRANSLIT:;
#SUBTITLETRANSLIT:;
#ARTISTTRANSLIT:;
#GENRE:...;
#ORIGIN:;
#CREDIT:;
#BANNER:Hello.png;
#BACKGROUND:Hello-bg.png;
#PREVIEWVID:;
#JACKET:jacket.png;
#CDIMAGE:;
#DISCIMAGE:;
#LYRICSPATH:;
#CDTITLE:;
#MUSIC:Hello.ogg;
#OFFSET:-0.000000;
#SAMPLESTART:91.174225;
#SAMPLELENGTH:13.714000;
#SELECTABLE:YES;
#DISPLAYBPM:79.000000;
#BPMS:0.000=79.000,
39.000=76.300,
40.000=79.000;
#STOPS:;
#DELAYS:;
#WARPS:;
#TIMESIGNATURES:0.000=4=4;
#TICKCOUNTS:0.000=4;
#COMBOS:0.000=1;
#SPEEDS:0.000=1.000=0.000=0;
#SCROLLS:0.000=1.000;
#FAKES:;
#LABELS:0.000=Song Start;
#BGCHANGES:4.000=Hello.avi=1.000=0=0=1=====,
99999=-nosongbg-=1.000=0=0=0 // don't automatically add -songbackground-
;
#KEYSOUNDS:;
#ATTACKS:
;

//---------------dance-single - ----------------
#NOTEDATA:;
#CHARTNAME:;
#STEPSTYPE:dance-single;
#DESCRIPTION:;
#CHARTSTYLE:;
#DIFFICULTY:Hard;
#METER:6;
#RADARVALUES:0.323202,0.405992,0.219385,0.281088,0.065130,257.000000,32.000000,41.000000,0.000000,0.000000,0.000000,0.000000,0.000000,0.323202,0.405992,0.219385,0.281088,0.065130,257.000000,32.000000,41.000000,0.000000,0.000000,0.000000,0.000000,0.000000;
#CREDIT:Ben Speirs;
#DISPLAYBPM:79.000000;
#NOTES:
0000
0000
0000
0000
,
0000
0000
0000
0000
,
2000
0000
0000
0200
0000
0000
3300
0000
,
0002
0000
0000
0200
0000
0000
0303
0000
,
0002
0000
0000
2000
0000
0000
3003
0000
,
0200
0000
0000
0020
0000
0000
0330
0000
,
0002
0000
0000
2000
0000
0000
3003
0000
,
2000
0000
0000
0200
0000
0000
3300
0000
,
0002
0000
0000
0200
0000
0000
0303
0000
,
0020
0000
0000
2000
0000
0000
3030
0000
,
0001
0000
1000
0100
0000
0000
1000
0000
,
0010
0000
1000
0001
0000
0000
0100
0000
,
0001
0000
1000
0100
0000
0010
0001
0000
,
0000
0000
0000
0000
,
1001
1000
0100
0010
0010
0010
0002
0000
,
2003
0000
0010
3020
0000
0000
0130
0000
,
0101
0100
0010
1000
1000
1000
0002
0000
,
0023
0000
0100
0230
0000
0000
1300
0100
,
0011
0000
1000
0001
0100
0010
1000
0000
,
0001
0100
0010
1000
0001
0100
0001
0000
,
1000
0100
0010
0001
0000
1000
0001
0000
,
0100
0100
0010
1000
0001
0010
0100
0000
,
1001
0001
0010
0100
0100
0100
2000
0000
,
3002
0000
0100
0203
0000
0000
0310
0000
,
1010
0010
0100
0001
0001
0001
2000
0000
,
3200
0000
0010
0320
0000
0000
0031
0010
,
1100
0000
0001
1000
0010
0100
0001
0000
,
1000
0010
0100
0001
1000
0010
1000
0000
,
0001
0010
0100
1000
0000
0001
1000
0000
,
0010
0010
0100
0001
1000
0100
0010
0000
,
1001
0000
0100
1000
0001
0000
1100
0000
0101
0000
1000
0000
0120
0000
0000
0000
,
1030
0100
1000
0000
0001
0000
0100
0000
0010
0000
1000
0000
0001
0000
0000
0000
,
1001
0000
0010
0001
1000
0000
0011
0000
1010
0000
0001
0000
0210
0000
0000
0000
,
0301
0010
0001
0000
1000
0000
0010
0000
0100
0000
0001
0010
0100
0000
1000
0000
,
0001
0000
0010
0100
0000
0000
0012
0000
0000
0000
1003
0001
1000
0000
0000
0000
,
1100
0000
0110
0000
0011
0000
2000
0000
0000
0000
3001
0000
1000
0100
1000
0000
,
0001
0100
0010
1000
0001
0100
0001
0000
,
1000
0000
0100
0000
0010
0000
0001
0000
1000
0000
0001
0000
0100
0010
0100
0000
,
0110
0000
0010
0100
0001
0000
0101
0000
1010
0000
0001
0000
1002
0000
0000
0000
,
0013
0000
0100
0000
1000
0100
0020
0000
0000
0000
0031
0000
1000
0000
0000
0000
,
0110
0000
0100
0010
1000
0000
1010
0000
0101
0000
1000
0000
2001
0000
0000
0000
,
3100
0000
0010
0000
0001
0010
0200
0000
0000
0000
1300
0000
0001
0010
0100
1000
,
0001
0000
0100
0010
0100
0000
0002
0000
0000
0000
2003
0000
3100
0000
0000
0000
,
1100
0000
0110
0000
0011
0000
1002
0000
0000
0000
0103
0000
0010
1000
0010
0000
,
0100
0100
0001
1000
0100
0010
0001
0000
,
1100
0000
0100
1000
0001
0000
0102
0000
0000
0000
1003
0000
0001
0100
0010
0000
,
2000
0000
0000
0000
,
0000
0000
0000
3000
0000
0000
0000
0000
;

//---------------dance-single - ----------------
#NOTEDATA:;
#CHARTNAME:;
#STEPSTYPE:dance-single;
#DESCRIPTION:;
#CHARTSTYLE:;
#DIFFICULTY:Medium;
#METER:4;
#RADARVALUES:0.205674,0.227355,0.102837,0.116549,0.000000,178.000000,15.000000,17.000000,0.000000,0.000000,0.000000,0.000000,0.000000,0.205674,0.227355,0.102837,0.116549,0.000000,178.000000,15.000000,17.000000,0.000000,0.000000,0.000000,0.000000,0.000000;
#CREDIT:Ben Speirs;
#DISPLAYBPM:79.000000;
#NOTES:
0000
0000
0000
0000
,
0000
0000
0000
0000
,
0002
0000
0000
0020
0000
0000
0033
0000
,
2000
0000
0000
0020
0000
0000
3030
0000
,
2000
0000
0000
0002
0000
0000
3003
0000
,
0020
0000
0000
0200
0000
0000
0330
0000
,
2000
0000
0000
0002
0000
0000
3003
0000
,
0002
0000
0000
0020
0000
0000
0033
0000
,
2000
0000
0000
0020
0000
0000
3030
0000
,
0200
0000
0000
0002
0000
0000
0303
0000
,
1000
0000
0001
0010
0000
0000
0001
0000
,
0100
0000
0001
1000
0000
0000
0010
0000
,
1000
0000
0001
0010
0000
0000
1001
0000
,
0000
0000
0000
0000
,
1000
0100
1000
0000
0001
0001
0001
0000
,
0100
0000
0000
0010
0000
0000
1000
0000
,
0001
0100
0001
0000
1000
1000
1000
0000
,
0100
0000
0000
0010
0000
0000
0001
0000
,
1000
0100
0000
1100
0000
1001
0000
0000
,
0001
0100
0010
1000
0000
0000
0001
0000
,
1000
0000
0001
0010
0000
0000
0001
0000
,
1000
0100
0010
0001
0000
0100
0100
0000
,
0001
0010
0001
0000
1000
1000
1000
0000
,
0010
0000
0000
0100
0000
0000
0001
0000
,
1000
0010
1000
0000
0001
0001
0001
0000
,
0010
0000
0000
0100
0000
0000
1000
0000
,
0001
0010
0000
0011
0000
1001
0000
0000
,
1000
0010
0100
0001
0000
0000
1000
0000
,
0001
0000
1000
0100
0000
0000
1000
0000
,
0001
0010
0100
1000
0000
0010
0010
0000
,
1001
0000
0001
0100
0010
0010
0010
0000
,
1000
0001
1000
0100
,
1000
0000
1000
0100
0010
0010
0010
0000
,
0001
1000
0010
0010
,
1001
0000
0000
1001
0000
0000
0100
0000
,
1000
0100
0010
0001
0000
0000
1000
0000
,
1001
0000
0000
1001
0000
0000
1000
0000
,
0001
0010
0100
1000
0000
0010
0010
0000
,
1001
0000
1000
0010
0100
0100
0100
0000
,
0001
1000
0001
0010
,
0001
0000
0001
0010
0100
0100
0100
0000
,
1000
0001
0100
0100
,
1001
0000
0000
1001
0000
0000
0010
0000
,
0001
0010
0100
1000
0000
0000
0001
0000
,
1001
0000
0000
1001
0000
0000
0001
0000
,
1000
0100
0010
0001
0000
0100
0100
0001
,
2000
0000
0000
0000
,
0000
0000
0000
3000
0000
0000
0000
0000
;

//---------------dance-single - ----------------
#NOTEDATA:;
#CHARTNAME:;
#STEPSTYPE:dance-single;
#DESCRIPTION:;
#CHARTSTYLE:;
#DIFFICULTY:Easy;
#METER:2;
#RADARVALUES:0.117528,0.146157,0.041135,0.006856,0.000000,113.000000,6.000000,1.000000,0.000000,0.000000,0.000000,0.000000,0.000000,0.117528,0.146157,0.041135,0.006856,0.000000,113.000000,6.000000,1.000000,0.000000,0.000000,0.000000,0.000000,0.000000;
#CREDIT:Ben Speirs;
#DISPLAYBPM:79.000000;
#NOTES:
0000
0000
0000
0000
,
0000
0000
0000
0000
,
0100
0000
0000
0100
0000
0000
0000
0000
,
0010
0000
0000
0010
0000
0000
0000
0000
,
1000
0000
0000
1000
0000
0000
0000
0000
,
0100
0000
0000
0100
0000
0000
0000
0000
,
0010
0000
0000
0010
0000
0000
0000
0000
,
0001
0000
0000
0001
0000
0000
0000
0000
,
1000
0000
0000
1000
0000
0000
0000
0000
,
0010
0000
0000
0010
0000
0000
0000
0000
,
1000
0001
0000
0000
,
0010
0100
0000
0000
,
1000
0000
0000
0100
0000
0000
0001
0000
,
0000
0000
0000
0000
,
0100
0100
0010
0010
,
1000
0000
0001
0000
,
0010
0010
0100
0100
,
1000
0000
0001
0000
,
1001
0000
1000
0000
,
0010
0010
0100
0000
,
0001
0000
1000
0000
,
0100
0100
0010
0000
,
0001
0001
1000
1000
,
0010
0000
0010
0000
,
1000
1000
0001
0001
,
0100
0000
0100
0000
,
1001
0000
0100
0000
,
1000
1000
0001
0000
,
1000
0000
0001
0000
,
0010
0010
0100
0000
,
0110
0000
0010
0001
,
1000
0000
0010
0000
,
0100
0000
0001
1000
,
0100
0000
1000
0000
,
1001
0000
0001
0000
,
0010
0010
0010
0010
0000
0000
0000
0000
,
0001
0000
1000
0000
,
0010
0010
0010
0010
0000
0000
0000
0000
,
0110
0000
0100
1000
,
0001
0000
0100
0000
,
0010
0000
1000
0001
,
0010
0000
0001
0000
,
1001
0000
1000
0000
,
0100
0100
0100
0100
0000
0000
0000
0000
,
1000
0000
0001
0000
,
0100
0100
0100
0100
0000
0000
0001
0000
,
2000
0000
0000
0000
,
0000
0000
0000
3000
0000
0000
0000
0000
;

//---------------dance-single - ----------------
#NOTEDATA:;
#CHARTNAME:;
#STEPSTYPE:dance-single;
#DESCRIPTION:;
#CHARTSTYLE:;
#DIFFICULTY:Beginner;
#METER:1;
#RADARVALUES:0.104796,0.129917,0.041135,0.006856,0.000000,100.000000,6.000000,1.000000,0.000000,0.000000,0.000000,0.000000,0.000000,0.104796,0.129917,0.041135,0.006856,0.000000,100.000000,6.000000,1.000000,0.000000,0.000000,0.000000,0.000000,0.000000;
#CREDIT:Ben Speirs;
#DISPLAYBPM:79.000000;
#NOTES:
0000
0000
0000
0000
,
0000
0000
0000
0000
,
0010
0000
0000
0000
,
0100
0000
0000
0000
,
0001
0000
0000
0000
,
0010
0000
0000
0000
,
0100
0000
0000
0000
,
1000
0000
0000
0000
,
0001
0000
0000
0000
,
0100
0000
0000
0000
,
0001
1000
0000
0000
,
0100
0010
0000
0000
,
0001
0000
0010
1000
,
0000
0000
0000
0000
,
0010
0010
0100
0100
,
0001
0000
1000
0000
,
0100
0100
0010
0010
,
0001
0000
1000
0000
,
1001
0000
0001
0000
,
0100
0100
0010
0000
,
1000
0000
0001
0000
,
0010
0010
0100
0000
,
1000
1000
0001
0001
,
0100
0000
0100
0000
,
0001
0001
1000
1000
,
0010
0000
0010
0000
,
1001
0000
0010
0000
,
0001
0001
1000
0000
,
0001
0000
1000
0000
,
0100
0100
0010
0000
,
0110
0000
0100
1000
,
0001
0000
0100
0000
,
0010
0000
1000
0001
,
0010
0000
0001
0000
,
1001
0000
1000
0000
,
0100
0100
0100
0000
,
1000
0000
0001
0000
,
0100
0100
0100
0000
,
0110
0000
0010
0001
,
1000
0000
0010
0000
,
0100
0000
0001
1000
,
0100
0000
1000
0000
,
1001
0000
0001
0000
,
0010
0010
0010
0000
,
0001
0000
1000
0000
,
0010
0010
0010
0000
,
2000
0000
0000
0000
,
0000
0000
0000
3000
0000
0000
0000
0000
;

//---------------dance-double - ----------------
#NOTEDATA:;
#CHARTNAME:;
#STEPSTYPE:dance-double;
#DESCRIPTION:;
#CHARTSTYLE:;
#DIFFICULTY:Challenge;
#METER:7;
#RADARVALUES:0.295779,0.438471,0.198818,0.260520,0.010284,235.000000,29.000000,38.000000,0.000000,0.000000,0.000000,0.000000,0.000000,0.295779,0.438471,0.198818,0.260520,0.010284,235.000000,29.000000,38.000000,0.000000,0.000000,0.000000,0.000000,0.000000;
#CREDIT:Ben Speirs;
#DISPLAYBPM:79.000000;
#NOTES:
// measure 0
00000000
00000000
00000000
00000000
,  // measure 1
00000000
00000000
00000000
00000000
,  // measure 2
20000000
00000000
00000000
02000000
00000000
00000000
33000000
00000000
,  // measure 3
00020000
00000000
00000000
02000000
00000000
00000000
03030000
00000000
,  // measure 4
00002000
00000000
00000000
00020000
00000000
00000000
00033000
00000000
,  // measure 5
00000200
00000000
00000000
00002000
00000000
00000000
00003300
00000000
,  // measure 6
00000002
00000000
00000000
00000020
00000000
00000000
00000033
00000000
,  // measure 7
00002000
00000000
00000000
00000020
00000000
00000000
00003030
00000000
,  // measure 8
00020000
00000000
00000000
00002000
00000000
00000000
00033000
00000000
,  // measure 9
00200000
00000000
00000000
00020000
00000000
00000000
00330000
00000000
,  // measure 10
10000000
01000000
10000000
00010000
00000000
00000000
00000000
00000000
,  // measure 11
01000000
01000000
00010000
10000000
00000000
00000000
00000000
00000000
,  // measure 12
01000000
01000000
00100000
00010000
00000000
00100000
00001000
00000000
,  // measure 13
00000000
00000000
00000000
00000000
,  // measure 14
00101000
00001000
00001000
00010000
00001000
00000100
00000002
00000000
,  // measure 15
00000013
00000100
00000010
00000002
00000000
00000103
00000100
00000000
,  // measure 16
00000001
00000001
00000001
00001000
00000100
00000100
00000100
00000000
,  // measure 17
00001000
00000010
00001000
00000200
00000000
00000300
00010000
00001000
,  // measure 18
00011000
00000000
00100000
00020000
00000000
01030000
01000000
00000000
,  // measure 19
00010000
01000000
00001000
00002000
00000000
00100000
00103000
00000000
,  // measure 20
00001000
00100000
01000000
00200000
00000000
00010000
00310000
00000000
,  // measure 21
01000000
00100000
00010000
00001000
00100000
00001000
00010000
00000000
,  // measure 22
00010100
00010000
00010000
00001000
00010000
00100000
20000000
00000000
,  // measure 23
31000000
00100000
01000000
20000000
00000000
30100000
00100000
00000000
,  // measure 24
10000000
10000000
10000000
00010000
00100000
00100000
00100000
00000000
,  // measure 25
00010000
01000000
00010000
00200000
00000000
00300000
00001000
00010000
,  // measure 26
00011000
00000000
00000100
00002000
00000000
00003010
00000010
00000000
,  // measure 27
00001000
00000010
00010000
00020000
00000000
00000100
00030100
00000000
,  // measure 28
00010000
00000100
00000010
00000200
00000000
00001000
00001300
00000000
,  // measure 29
00000010
00000100
00001000
00010000
00000100
00010000
00001000
00000000
,  // measure 30
00110000
00001100
00110000
00001100
00010000
00010000
00010000
00000000
,  // measure 31
00001000
00010000
01000000
10000000
00100000
00010000
00001000
00000000
,  // measure 32
00001100
00110000
00001100
00110000
00001000
00001000
00001000
00000000
,  // measure 33
00010000
00001000
00000010
00000001
00000100
00001000
00010000
00000000
,  // measure 34
00001000
00000100
00000001
00002000
00000000
00000100
00003100
00000000
,  // measure 35
00000001
00001000
00000001
00001000
00000100
00010000
00001000
01000000
,  // measure 36
00100000
20000000
00000000
01000000
31000000
00100000
00100000
00000000
,  // measure 37
01000000
00100000
00010000
00000000
10000000
00000000
00020000
00000000
00000000
00000000
01030000
00000000
00010000
01000000
00001000
00000000
,  // measure 38
00011000
00001010
00011000
00110000
00011000
01000010
00200200
00000000
,  // measure 39
00300300
00000000
00001000
00010000
00000000
00010000
00001000
00000000
,  // measure 40
00011000
01010000
00011000
00001100
00011000
01000010
00200200
00000000
,  // measure 41
00300300
00000000
00010000
00001000
00000000
00001000
00010000
00000000
,  // measure 42
00001000
00000100
00000001
00000000
00000000
00000000
00001002
00000000
00000000
00000000
00000103
00000000
00000000
00000000
00000000
00000000
,  // measure 43
00000001
00000100
00001000
00010000
00001000
00010000
01000000
10000000
,  // measure 44
00010000
01000000
00000000
10010000
00000000
10010000
00000000
00000000
,  // measure 45
10000000
01000000
00010000
00001000
00010000
00001000
00000100
00000002
,  // measure 46
00020000
00000000
00000000
00000000
,  // measure 47
00000000
00000000
00000000
00030003
00000000
00000000
00000000
00000000
;
