#VERSION:0.82;
#TITLE:Helena Beat;
#SUBTITLE:;
#ARTIST:Foster The People;
#TITLETRANSLIT:;
#SUBTITLETRANSLIT:;
#ARTISTTRANSLIT:;
#GENRE:Hey Hey, It's Okay!;
#ORIGIN:;
#CREDIT:;
#BANNER:Helena Beat.png;
#BACKGROUND:Helena Beat-bg.png;
#PREVIEWVID:;
#JACKET:jacket.png;
#CDIMAGE:;
#DISCIMAGE:;
#LYRICSPATH:;
#CDTITLE:;
#MUSIC:Helena Beat.ogg;
#OFFSET:0.011000;
#SAMPLESTART:105.844971;
#SAMPLELENGTH:13.714000;
#SELECTABLE:YES;
#BPMS:0.000=127.000;
#STOPS:;
#DELAYS:;
#WARPS:;
#TIMESIGNATURES:0.000=4=4;
#TICKCOUNTS:0.000=4;
#COMBOS:0.000=1;
#SPEEDS:0.000=1.000=0.000=0;
#SCROLLS:0.000=1.000;
#FAKES:;
#LABELS:0.000=Song Start;
#BGCHANGES:7.750=Helena Beat.avi=1.000=0=0=1=====,
99999=-nosongbg-=1.000=0=0=0 // don't automatically add -songbackground-
;
#KEYSOUNDS:;
#ATTACKS:
;

//---------------dance-single - ----------------
#NOTEDATA:;
#CHARTNAME:;
#STEPSTYPE:dance-single;
#DESCRIPTION:;
#CHARTSTYLE:;
#DIFFICULTY:Hard;
#METER:7;
#RADARVALUES:0.452467,0.513877,0.257386,0.393228,0.000000,352.000000,36.000000,55.000000,0.000000,0.000000,0.000000,0.000000,0.000000,0.452467,0.513877,0.257386,0.393228,0.000000,352.000000,36.000000,55.000000,0.000000,0.000000,0.000000,0.000000,0.000000;
#CREDIT:Ben Speirs;
#NOTES:
0000
0000
0000
0000
,
0000
0000
0000
0000
,
0000
0000
0000
0000
,
0000
0000
0000
0000
,
0002
0100
0013
0011
,
2000
0100
3010
1010
,
0001
0100
0001
0000
1000
0100
1000
0000
,
0002
2003
3020
0000
,
0130
0100
0001
1000
0001
0000
0010
0000
,
0100
0100
1000
0001
1000
0000
0010
0000
,
0100
0001
0100
0000
0010
1000
0010
0000
,
2000
0000
3001
0100
0010
0000
1001
0000
,
0010
0010
1000
0001
1000
0000
0100
0000
,
0010
0010
0001
1000
0001
0000
0100
0000
,
0010
1000
0010
0000
0100
0001
0100
0000
,
0002
2003
3200
0000
,
0310
0000
0001
1000
0100
0000
1000
0000
,
0001
0000
1000
0001
0100
0000
0010
0100
,
0010
0100
0001
1000
0100
0000
1000
0100
,
0000
0010
0001
0000
2000
0000
3100
0000
,
1000
0010
0100
0001
1000
0000
0001
0000
,
0010
0001
1000
0000
0100
0000
1000
0000
,
0001
0100
0010
1000
0100
0000
1000
0010
,
0000
0100
0001
0000
0020
0000
0130
0000
,
1001
0000
1100
0000
0001
0000
0100
0010
,
1000
0000
0101
0000
1001
0000
0100
0010
,
0001
0000
0100
0010
1000
0000
0001
1000
,
0010
0100
0002
0000
1003
0000
0000
0000
,
1001
0000
0011
0000
1000
0000
0010
0100
,
0001
0000
1010
0000
1001
0000
0010
0100
,
1000
0000
0010
0100
0001
0000
1000
0001
,
0200
0320
2030
0000
,
3001
0100
0100
0001
0001
0000
0101
0000
,
0202
0000
0303
0000
0100
0001
1000
0000
,
0010
1000
0100
0010
0001
1000
0010
0100
,
0002
2003
3200
0300
,
1000
0010
0010
1000
1000
0000
1010
0000
,
2020
0000
3030
0000
0010
1000
0001
0000
,
0100
0001
0010
0100
1000
0001
0100
0010
,
2000
3002
0023
0030
,
1001
0001
0100
1000
1000
0000
1001
0000
,
2002
0000
3003
0000
0010
1000
0001
0000
,
0100
0001
0100
0100
0010
1000
0010
0010
,
0200
0302
2003
3000
,
1001
1000
0010
0001
0001
0000
1001
0000
,
2002
0000
3003
0000
0100
0001
1000
0000
,
0010
1000
0010
0010
0100
0001
0100
0100
,
0020
2030
3002
0003
,
2000
0100
0100
0100
,
0010
0010
0010
0010
,
0001
0001
0001
0001
,
0010
0010
0010
3010
,
0002
0010
0010
0010
,
0100
0100
0100
0100
,
1000
1000
1000
1003
,
0100
0010
1000
0100
0010
0001
1000
0000
,
0101
1000
1000
0100
1100
0000
0011
0000
,
2002
0000
3003
0000
0010
1000
0001
0100
,
0100
0010
1000
0100
0100
0010
0001
1000
,
2000
3002
0203
0300
,
1010
0001
0001
0010
0011
0000
1100
0000
,
2002
0000
3003
0000
0100
0001
1000
0010
,
0010
0100
0001
0010
0010
0100
1000
0001
,
0002
2003
3020
0130
,
0102
0000
1003
0000
0020
0000
1030
0100
,
0010
0000
0001
1000
0020
0000
0230
0000
,
0301
1000
0100
0000
1000
0001
0100
0000
,
0101
0000
1010
0000
0100
1000
0001
1000
,
2010
0000
3001
0000
0200
0000
0301
0010
,
0100
0000
1000
0001
0200
0000
0320
0000
,
1030
0001
0010
0000
0001
1000
0010
0000
,
1010
0000
0101
0000
1001
1000
0001
0001
;

//---------------dance-single - ----------------
#NOTEDATA:;
#CHARTNAME:;
#STEPSTYPE:dance-single;
#DESCRIPTION:;
#CHARTSTYLE:;
#DIFFICULTY:Challenge;
#METER:9;
#RADARVALUES:0.586267,0.591473,0.193039,0.164441,0.300283,524.000000,27.000000,23.000000,0.000000,0.000000,0.000000,0.000000,0.000000,0.586267,0.591473,0.193039,0.164441,0.300283,524.000000,27.000000,23.000000,0.000000,0.000000,0.000000,0.000000,0.000000;
#CREDIT:Ben Speirs;
#NOTES:
0000
0000
0000
0000
,
0000
0000
0000
0000
,
0000
0000
0000
0000
,
0000
0000
0000
0000
,
0001
0100
0010
0100
1000
0100
0002
0000
,
1003
0100
0010
0100
0001
0100
2000
0000
,
3001
0100
0020
0000
1030
0100
0020
0000
,
0031
1000
0010
0100
0001
1000
0100
0000
,
1000
0000
0001
0000
1000
0000
0010
0000
0010
0000
0000
0000
1000
0000
0001
0100
,
0001
0000
1000
0000
0100
0000
0010
0000
0001
0000
0000
0000
1000
0000
0100
0010
,
0100
0000
1000
0000
0010
0000
0100
0000
0001
0000
0000
0000
1000
0000
0001
0100
,
0001
0000
1000
0000
0100
0000
1000
0001
1000
0000
0000
0000
0010
0000
1000
0000
,
0001
0000
1000
0000
0001
0000
0100
0000
0100
0000
0000
0000
0001
0000
1000
0010
,
1000
0000
0001
0000
0010
0000
0100
0000
1000
0000
0000
0000
0001
0000
0010
0100
,
0010
0000
0001
0000
0100
0000
0010
0000
1000
0000
0000
0000
0001
0000
1000
0010
,
1000
0000
0001
0000
0010
0000
0001
1000
0001
0000
0100
0000
0110
0000
0000
0000
,
0010
1000
0100
1000
0002
0000
1003
0100
,
0010
0000
0001
0000
0010
0000
0100
0000
1000
0000
0000
0000
0001
0000
0100
0010
,
0000
1000
0010
0100
0001
1000
0100
0100
,
0010
0000
0001
0000
0011
0000
0000
0000
1100
0000
1000
0001
0000
0000
0000
0000
,
0100
0010
0010
0100
0001
0010
0100
1000
,
0001
1000
0010
0100
0001
0010
0100
1000
,
0010
0100
0001
1000
0100
0010
0001
1000
,
0020
0100
0230
0001
0302
0000
1003
0000
,
0100
0001
0010
0001
2000
0000
3001
0010
,
0100
0000
1000
0000
0100
0000
0010
0000
0001
0000
0000
0000
1000
0000
0010
0100
,
0000
0001
0100
0010
1000
0001
0010
0010
,
0100
1000
1100
0000
0012
0000
1003
0000
,
0010
0100
0100
0010
1000
0100
0010
0001
,
1000
0001
0100
0010
1000
0100
0010
0001
,
0100
0010
1000
0001
0010
0100
1000
0001
,
0200
0010
0320
1000
2030
0000
3001
0000
,
0101
0000
0001
0100
0001
1000
0001
0100
0001
0000
0000
0000
0101
0000
0000
0000
,
2001
0000
3100
1000
0010
0100
0001
0000
,
1000
0100
1000
1000
0001
0100
0001
0001
,
1000
0010
0000
0000
0010
0100
0000
0000
0100
0001
0000
0000
1000
0000
0000
0000
,
1010
0000
1000
0010
1000
0001
1000
0010
1000
0000
0000
0000
1010
0000
0000
0000
,
1002
0000
0013
0001
0100
0010
1000
0000
,
0001
0010
0001
0001
1000
0010
1000
1000
,
0001
0100
0000
0000
0100
0010
0000
0000
0010
1000
0000
0000
0001
0000
0000
0000
,
1001
0000
1000
0100
1000
0001
1000
0100
1000
0000
0000
0000
0101
0000
0000
0000
,
1001
0000
1000
0010
0100
0001
1000
0100
,
0010
0010
0001
0100
0010
0010
1000
0001
,
0010
0100
0000
0000
0100
1000
0000
0000
1000
0001
0100
0000
0100
0000
0000
0000
,
1001
0000
0001
0010
0001
1000
0001
0010
0001
0000
0000
0000
1010
0000
0000
0000
,
1001
0000
0001
0100
0010
1000
0001
0010
,
0100
0100
1000
0010
0100
0100
0001
1000
,
0100
0010
0000
0000
0010
0001
0000
0000
0001
1000
0010
0000
0010
0000
0000
0000
,
1001
0000
1000
0100
0000
0000
0100
0010
0000
0000
0010
0001
0000
0000
0001
1000
,
0000
0000
1000
0010
0000
0000
0010
0100
0000
0000
0100
0001
0000
0000
0001
0010
,
0000
0000
0010
0100
0000
0000
0100
1000
0000
0000
1000
0010
0000
0000
0010
0100
,
0000
0000
0100
0001
0000
0000
0001
1000
0000
0000
1000
0100
0000
0000
0100
0010
,
0000
0000
0001
1000
0000
0000
0010
0100
0000
0000
0001
0010
0000
0000
0100
1000
,
0000
0000
0010
0100
0000
0000
0001
1000
0000
0000
0100
0010
0000
0000
0001
1000
,
0000
0000
0100
1000
0000
0000
0010
0100
0000
0000
0001
1000
0000
0000
0010
0100
,
0001
0000
0001
0000
1000
0000
1000
0000
0010
0100
0010
0000
1000
0000
0000
0000
,
0101
0000
0100
0001
0100
0010
0100
1000
0100
0000
0000
0000
0110
0000
0000
0000
,
1001
0000
1000
0000
0100
0000
0010
0000
0001
0000
1000
0000
0001
0000
0100
0010
,
0100
0000
0001
0000
1000
0000
0100
0010
0100
0000
1000
0000
0001
0000
0100
0000
,
0010
1000
0000
0000
1000
0001
0000
0000
0001
0100
0000
0000
0010
0000
0000
0000
,
1010
0000
0010
1000
0010
0100
0010
0001
0010
0000
0000
0000
0110
0000
0000
0000
,
1001
0000
0001
0000
0010
0000
0100
0000
1000
0000
0001
0000
1000
0000
0010
0100
,
0010
0000
1000
0000
0001
0000
0010
0100
0010
0000
0001
0000
1000
0000
0010
0000
,
0200
0000
0001
0000
0302
0000
1000
0003
2000
0000
0000
0000
3100
0000
0000
0000
,
0011
0000
0000
0000
1000
0000
0001
0000
0100
0000
0010
0000
1000
0000
0001
0100
,
0002
0000
0000
0000
1003
0000
0001
0000
0100
0000
0010
0000
1000
0000
0100
0010
,
0100
2000
0000
3010
0100
0001
1000
0000
,
0101
0000
0000
0000
1100
0000
1000
0000
0001
0000
0100
0000
0010
0000
1000
0001
,
2000
0000
0000
0000
3010
0000
0100
0000
0001
0000
0010
0000
0100
0000
1000
0100
,
2000
0000
0000
0000
3001
0000
1000
0000
0010
0000
0100
0000
0001
0000
0010
0100
,
0010
0200
0000
1300
0010
0100
0001
0000
,
1000
0000
0100
0000
0100
0000
0010
0001
1000
0000
0001
0000
1000
0000
0001
0100
;

//---------------dance-single - ----------------
#NOTEDATA:;
#CHARTNAME:;
#STEPSTYPE:dance-single;
#DESCRIPTION:;
#CHARTSTYLE:;
#DIFFICULTY:Medium;
#METER:6;
#RADARVALUES:0.352373,0.487334,0.214488,0.414677,0.000000,257.000000,30.000000,58.000000,0.000000,0.000000,0.000000,0.000000,0.000000,0.352373,0.487334,0.214488,0.414677,0.000000,257.000000,30.000000,58.000000,0.000000,0.000000,0.000000,0.000000,0.000000;
#CREDIT:Ben Speirs;
#NOTES:
0000
0000
0000
0000
,
0000
0000
0000
0000
,
0000
0000
0000
0000
,
0000
0000
0000
0000
,
1000
0001
0100
0020
,
0130
0001
1000
0100
,
2000
3000
0002
0003
,
0200
0320
2030
3000
,
0100
0010
0001
1000
,
0010
0000
0010
0100
0001
0000
0000
0000
,
1000
1000
0001
0001
,
0010
0000
0000
0000
0001
1000
0001
0000
,
0100
0010
0010
0000
,
1000
0100
1000
0000
0001
0000
0100
0010
,
1000
0100
0010
0000
,
0002
2003
3020
0030
,
0100
0100
0010
0000
,
1000
1000
0100
0000
,
0010
0010
0001
0000
,
0001
0000
1000
0000
0001
0100
0001
0000
,
1000
0100
0010
0000
,
0001
1000
0010
0000
,
0100
0010
1000
0000
,
0001
0000
1000
0000
0100
0010
0001
0000
,
2000
0100
3100
0000
,
0002
0100
0103
0000
,
1000
0001
0100
0100
,
0010
0100
0010
0000
1001
0000
0000
0000
,
2000
0010
3010
0000
,
0002
0010
0013
0000
,
0001
0000
1000
0000
0010
0100
0010
0000
,
2000
3200
0320
0030
,
1001
0000
1000
0100
0010
0000
1100
0000
,
0101
0000
1000
0001
,
0100
0100
0100
0000
0010
0010
0010
0000
,
2000
3002
0203
0300
,
1001
0000
0001
0100
0010
0000
0101
0000
,
1100
0000
0001
1000
,
0010
0010
0010
0000
0100
0100
0100
0000
,
0002
2003
3200
0300
,
1001
0000
0100
0010
1000
0000
1010
0000
,
0011
0000
0001
1000
,
0001
0001
0001
0000
0100
0100
0100
0000
,
0010
1000
0100
0000
,
1001
0000
0100
0010
0001
0000
0011
0000
,
1010
0000
0001
1000
,
0010
0010
0010
0000
0100
0100
0100
0000
,
0002
2003
3200
0300
,
2002
0000
0000
3003
,
0010
0010
0010
0010
,
2002
0000
0000
3003
,
0100
0100
0100
0100
,
0001
0001
0001
0001
,
1000
1000
1000
1000
,
0200
0310
0002
1003
,
0020
0130
0001
1001
,
1001
0000
1000
0100
0010
0000
1100
0000
,
0011
0000
1000
0001
,
0100
0010
0100
0000
0001
1000
0001
0000
,
0020
0230
1300
0000
,
1001
0000
0100
0010
1000
0000
1010
0000
,
0101
0000
1000
0001
,
0010
0100
0010
0000
0001
1000
0001
0000
,
0200
0302
2003
3000
,
0202
0000
0303
0000
1000
0001
0100
0000
,
2200
0000
3300
0000
0001
1000
0010
0000
,
0022
0033
2020
3030
,
0002
0000
2003
0000
3010
0100
0001
0000
,
2200
0000
3300
0000
0010
1000
0001
0000
,
0202
0000
0303
0000
0100
0001
1000
0000
,
2020
3030
0022
0033
,
2000
3002
0203
0310
;

//---------------dance-single - ----------------
#NOTEDATA:;
#CHARTNAME:;
#STEPSTYPE:dance-single;
#DESCRIPTION:;
#CHARTSTYLE:;
#DIFFICULTY:Easy;
#METER:3;
#RADARVALUES:0.226744,0.307790,0.107244,0.300283,0.000000,165.000000,15.000000,42.000000,0.000000,0.000000,0.000000,0.000000,0.000000,0.226744,0.307790,0.107244,0.300283,0.000000,165.000000,15.000000,42.000000,0.000000,0.000000,0.000000,0.000000,0.000000;
#CREDIT:Ben Speirs;
#NOTES:
0000
0000
0000
0000
,
0000
0000
0000
0000
,
0000
0000
0000
0000
,
0000
0000
0000
0000
,
0100
0000
0010
0010
,
1000
0000
0001
0000
,
1000
0000
0100
0000
,
0010
0010
0010
0000
,
1001
0000
0100
0000
,
0010
1000
0001
0000
,
1000
0000
0001
0000
,
0010
0010
0100
0100
,
1000
0000
0001
0000
,
0100
0000
0100
0000
,
0010
0010
1000
0000
,
0001
0010
0100
0000
,
1001
0000
0100
0000
,
0010
1000
0100
0000
,
2000
3000
0002
0003
,
0100
0100
0100
0000
,
0010
0000
1000
0000
,
0100
0010
0001
0000
,
0200
0300
0002
0003
,
1000
0100
0010
0000
,
1001
0000
0010
0000
,
0100
0100
0100
0000
,
0002
0003
2000
3000
,
0100
0100
0100
0000
,
0010
0000
0001
0000
,
1000
0001
0100
0000
,
0020
0030
2000
3000
,
2002
0000
0000
3003
,
0100
0010
0010
0100
,
0110
0000
0000
0000
,
0002
0003
2000
3000
,
0010
0010
0010
0000
,
0100
0010
0010
0100
,
0110
0000
0000
0000
,
0020
0030
2000
3000
,
0100
0010
0002
0003
,
1001
1000
0001
1000
,
1001
0000
0000
0000
,
0200
0300
0020
0030
,
1000
1000
1000
0000
,
1001
1000
0001
1000
,
1001
0000
0000
0000
,
0020
0030
0200
0300
,
0001
0010
0200
0300
,
2002
0000
0000
0000
,
0000
0000
0000
3003
,
0020
0000
0000
0000
,
0000
0000
0000
0030
,
0200
0300
0002
0003
,
2000
3000
0200
0300
,
0010
0001
1000
0100
,
0010
0001
1000
0001
,
0100
0010
0010
0100
,
0110
0000
0000
0000
,
0002
0003
2000
3000
,
0100
0100
0100
0000
,
0110
0010
0100
0010
,
0110
0000
0000
0000
,
0020
0030
0002
0003
,
1000
0010
0200
0300
,
2002
3003
0100
1000
,
0020
0030
0100
0001
,
2000
3000
0002
0003
,
0010
0000
0100
1000
,
0020
0030
0100
0001
,
2000
3000
0100
0010
,
0002
0003
2000
3000
,
0001
0100
0020
0030
;

//---------------dance-single - ----------------
#NOTEDATA:;
#CHARTNAME:;
#STEPSTYPE:dance-single;
#DESCRIPTION:;
#CHARTSTYLE:;
#DIFFICULTY:Beginner;
#METER:2;
#RADARVALUES:0.131757,0.204479,0.057197,0.000000,0.000000,121.000000,8.000000,0.000000,0.000000,0.000000,0.000000,0.000000,0.000000,0.131757,0.204479,0.057197,0.000000,0.000000,121.000000,8.000000,0.000000,0.000000,0.000000,0.000000,0.000000,0.000000;
#CREDIT:Ben Speirs;
#NOTES:
0000
0000
0000
0000
,
0000
0000
0000
0000
,
0000
0000
0000
0000
,
0000
0000
0000
0000
,
0100
0000
0000
0000
,
0001
0000
0000
0000
,
0010
0000
0010
0000
,
0010
0000
0000
0000
,
1001
0000
0000
0000
,
1000
0000
0000
0000
,
0010
0000
0010
0000
,
0100
0000
0000
0000
,
0001
0000
0000
0000
,
1000
0000
0000
0000
,
0100
0000
0100
0000
,
0010
0000
0000
0000
,
0001
0000
0000
0000
,
1000
0000
0000
0000
,
0010
0000
1000
0000
,
0001
0001
0001
0000
,
0001
0000
0000
0000
,
0010
0000
0000
0000
,
0100
0000
0100
0000
,
1000
1000
1000
0000
,
0010
0000
0000
0000
,
0100
0000
0000
0000
,
0001
0000
1000
0000
,
0100
0100
0100
0000
,
0010
0000
0000
0000
,
0001
0000
0000
0000
,
1000
0000
0010
0000
,
0100
0000
0000
0000
,
1001
0000
0100
0100
,
0100
0000
0000
0000
,
1000
0000
0001
0000
,
0100
0100
0100
0000
,
1001
0000
0010
0010
,
0010
0000
0000
0000
,
1000
0000
0001
0000
,
0010
0010
0010
0000
,
0110
0000
0001
0001
,
0001
0000
0000
0000
,
0100
0000
0001
0000
,
1000
1000
1000
0000
,
0110
0000
1000
1000
,
1000
0000
0000
0000
,
0010
0000
1000
0000
,
0001
0001
0001
0000
,
1001
0000
0000
0000
,
0000
0000
0000
0000
,
0000
0000
0000
0000
,
0000
0000
0000
0000
,
0100
0000
0100
0000
,
0010
0000
0010
0000
,
1000
0000
1000
0000
,
0001
0000
0001
0000
,
1001
0000
0100
0100
,
0100
0000
0000
0000
,
1000
0000
0001
0000
,
0100
0100
0100
0000
,
1001
0000
0100
0100
,
0100
0000
0000
0000
,
0001
0000
1000
0000
,
0100
0100
0100
0000
,
1000
0000
0001
0000
,
0100
0000
0010
0000
,
1000
0000
0001
0000
,
0010
0000
0010
0000
,
0001
0000
1000
0000
,
0010
0000
1000
0000
,
0100
0000
0100
0000
,
0010
0010
0010
0000
;

//---------------dance-double - ----------------
#NOTEDATA:;
#CHARTNAME:;
#STEPSTYPE:dance-double;
#DESCRIPTION:;
#CHARTSTYLE:;
#DIFFICULTY:Challenge;
#METER:9;
#RADARVALUES:0.588310,0.642905,0.164441,0.243086,0.228787,519.000000,23.000000,34.000000,0.000000,0.000000,0.000000,0.000000,0.000000,0.588310,0.642905,0.164441,0.243086,0.228787,519.000000,23.000000,34.000000,0.000000,0.000000,0.000000,0.000000,0.000000;
#CREDIT:Ben Speirs;
#NOTES:
// measure 0
00000000
00000000
00000000
00000000
,  // measure 1
00000000
00000000
00000000
00000000
,  // measure 2
00000000
00000000
00000000
00000000
,  // measure 3
00000000
00000000
00000000
00000000
,  // measure 4
10000000
01000000
00010000
01000000
10000000
00010000
02000000
00000000
,  // measure 5
03100000
10000000
01000000
00000000
00100000
00010000
01000000
00000000
,  // measure 6
00120000
01030000
00012000
00103000
,  // measure 7
00001000
00010000
00000100
00001000
00000010
00000100
00000001
00000000
,  // measure 8
00001000
00000000
00000100
00000000
00001000
00000000
00000001
00000000
00001000
00000000
00000000
00000000
00000010
00000000
00000100
00000001
,  // measure 9
00000100
00000000
00000010
00000000
00001000
00000000
00000100
00000010
00000100
00000000
00000000
00000000
00001000
00000000
00000001
00000010
,  // measure 10
00000001
00000000
00001000
00000000
00000001
00000000
00000100
00000000
00000010
00000000
00000000
00000000
00001000
00000000
00000100
00001000
,  // measure 11
00000100
00000000
00010000
00000000
00001000
00000000
00100000
00010000
00100000
00000000
00000000
00000000
00001000
00000000
00010000
00000000
,  // measure 12
00001000
00000000
00010000
00000000
00100000
00000000
10000000
00000000
00010000
00000000
00000000
00000000
10000000
00000000
01000000
10000000
,  // measure 13
01000000
00000000
10000000
00000000
00010000
00000000
01000000
00100000
01000000
00000000
00000000
00000000
00010000
00000000
10000000
00100000
,  // measure 14
10000000
00000000
01000000
00000000
00100000
00000000
00010000
00100000
00010000
00000000
00000000
00000000
10000000
00000000
01000000
00000000
,  // measure 15
00020000
00032000
00003200
00000000
,  // measure 16
00000301
00000100
00000010
00001000
00000100
00000000
00000010
00000001
,  // measure 17
00001000
00000000
00000000
00000000
00000010
00000000
00001000
00000000
00000001
00000000
00000000
00000000
00000100
00000000
00000100
00000020
,  // measure 18
00000000
00001030
00000100
00001000
00000001
00000100
00000010
00001000
,  // measure 19
00000100
00000010
00000001
00000000
00001000
00000100
00020000
00000000
,  // measure 20
00031000
00010000
00001000
00010000
00100000
00010000
00100000
00010000
,  // measure 21
00001000
00010000
00100000
20000000
00000000
31000000
00100000
00020000
,  // measure 22
00000000
10030000
01000000
10000000
00020000
00000000
01030000
00100000
,  // measure 23
10000000
01000000
00200000
00000000
00310000
10000000
00010000
00000000
,  // measure 24
11000000
00000000
00000000
00000000
01010000
00000000
00000000
00000000
10000000
00000000
00010000
00000000
01000000
00000000
00100000
10000000
,  // measure 25
00020000
00000000
00000000
00000000
01030000
00000000
00000000
00000000
00100000
00000000
10000000
00000000
01000000
00000000
00100000
00010000
,  // measure 26
02000000
00000000
03010000
00100000
02000000
00000000
13000000
00010000
,  // measure 27
00100000
00001000
00010000
00000100
00001000
00000010
00000100
00000000
,  // measure 28
00000001
00001000
00000010
00000100
00000001
00001000
00000100
00000010
,  // measure 29
00000001
00000000
00001000
00000000
00000010
00000000
00000100
00000000
00000001
00000000
00000000
00000000
00001000
00000000
00000100
00001000
,  // measure 30
00000200
00000000
00001300
00000001
00000200
00000000
00000310
00000000
,  // measure 31
00001010
00011000
00210000
00301000
,  // measure 32
00011000
00010000
00001000
00100000
00001000
00000000
00011000
00000000
,  // measure 33
00010200
00000000
00001300
00000000
00000100
00001000
00000010
00000100
,  // measure 34
00000001
00000001
00000100
00000010
00001000
00001000
00000010
00000100
,  // measure 35
00000002
00000000
00002003
00000000
00003200
00010000
00010300
00000000
,  // measure 36
00011000
00001000
00010000
00000100
00010000
00000000
00011000
00000000
,  // measure 37
00201000
00000000
00310000
00000000
00100000
00010000
01000000
00100000
,  // measure 38
10000000
10000000
00100000
01000000
00010000
00010000
01000000
00100000
,  // measure 39
20000000
00000000
30020000
00000000
00230000
00001000
00301000
00000000
,  // measure 40
00101000
00000000
00001000
00100000
00010000
00100000
00001000
00100000
00010000
00000000
00000000
00000000
00101000
00000000
00000000
00000000
,  // measure 41
00021000
00000000
00000000
00000000
00030100
00000000
00000000
00000000
00001000
00000000
00000010
00000000
00000100
00000000
00000001
00000100
,  // measure 42
00000001
00000000
00000010
00000000
00000100
00000000
00001000
00000100
00001000
00000000
00000010
00000000
00000100
00000000
00000001
00001000
,  // measure 43
00000002
00000000
00002003
00000000
00003200
00010000
00010300
00000000
,  // measure 44
00010100
00000000
00010000
00000100
00001000
00000100
00010000
00000100
00001000
00000000
00000000
00000000
00010100
00000000
00000000
00000000
,  // measure 45
00012000
00000000
00000000
00000000
00103000
00000000
00000000
00000000
00010000
00000000
01000000
00000000
00100000
00000000
10000000
00100000
,  // measure 46
10000000
00000000
01000000
00000000
00100000
00000000
00010000
00100000
00010000
00000000
01000000
00000000
00100000
00000000
10000000
00010000
,  // measure 47
20000000
00000000
30020000
00000000
00230000
00001000
00301000
00000000
,  // measure 48
00010000
00001000
00100000
00001000
00010000
00001000
00100000
00001000
,  // measure 49
00010000
00000100
00010000
00001000
00010000
00000100
00010000
00001000
,  // measure 50
00000100
00000001
00000010
00000100
00001000
00000010
00000100
00001000
,  // measure 51
00010000
00100000
10000000
01000000
00100000
00010000
01000000
00100000
,  // measure 52
10000000
00000000
01000000
00100000
00000000
00000000
00100000
00010000
00000000
00000000
00010000
10000000
00000000
00000000
10000000
00100000
,  // measure 53
10000000
01000000
00100000
00010000
01000000
00100000
00010000
00001000
,  // measure 54
00000010
00000000
00000001
00001000
00000000
00000000
00001000
00000010
00000000
00000000
00000010
00000100
00000000
00000000
00000100
00000001
,  // measure 55
00000100
00000000
00000100
00000000
00000010
00000000
00000010
00000000
00001000
00000100
00001000
00000000
00000001
00000000
00000100
00000010
,  // measure 56
00000100
00000000
00000001
00000100
00000001
00000100
00000001
00000100
00000001
00000000
00000100
00000000
00000110
00000000
00000010
00000000
,  // measure 57
00001010
00000000
00001000
00000000
00000100
00000000
00000010
00000000
00000001
00000000
00001000
00000000
00000100
00000000
00000010
00000100
,  // measure 58
00000010
00000000
00000100
00000000
00001000
00000000
00000001
00001000
00000001
00000000
00001000
00000000
00000100
00000000
00010000
00000000
,  // measure 59
00001000
00010000
00000000
00010000
00100000
00010000
00000000
00010000
00100000
10000000
00000000
10000000
00100000
00000000
01000000
00000000
,  // measure 60
00100000
00000000
10000000
00100000
10000000
00100000
10000000
00100000
10000000
00000000
00100000
00000000
01100000
00000000
01000000
00000000
,  // measure 61
01010000
00000000
00010000
00000000
00100000
00000000
01000000
00000000
10000000
00000000
00010000
00000000
00100000
00000000
01000000
00100000
,  // measure 62
01000000
00000000
00100000
00000000
00010000
00000000
10000000
00010000
10000000
00000000
00010000
00000000
00100000
00000000
00001000
00000000
,  // measure 63
00010000
00001000
00000000
00001000
00000100
00001000
00000000
00001000
00000100
00000001
00000000
00000001
00000100
00000000
00000010
00000000
,  // measure 64
00001000
00000000
00000100
00000000
00001000
00000000
00000001
00000000
00001000
00000000
00000100
00000000
00001000
00000000
00000010
00001000
,  // measure 65
00000001
00000000
00000010
00000000
00000001
00000000
00000100
00000000
00000001
00000000
00001000
00000000
00000001
00000000
00000100
00000010
,  // measure 66
00001000
00000100
00010000
00000000
00001000
00010000
00100000
00000000
,  // measure 67
00010000
00000000
00100000
00000000
10000000
00000000
01000000
00000000
00100000
00000000
00010000
00000000
01000000
00000000
00100000
10000000
,  // measure 68
00010000
00000000
00100000
00000000
00010000
00000000
01000000
00000000
00010000
00000000
10000000
00000000
00010000
00000000
01000000
00010000
,  // measure 69
10000000
00000000
01000000
00000000
10000000
00000000
00100000
00000000
10000000
00000000
00010000
00000000
10000000
00000000
01000000
10000000
,  // measure 70
00100000
01000000
00010000
00100000
00001000
00010000
00100000
10000000
,  // measure 71
00000000
00000000
00010000
00000000
00001000
00000000
00010000
00100000
00010000
00000000
00001000
00000000
00000010
00000000
00000001
00001000
;
