#VERSION:0.82;
#TITLE:Heathens;
#SUBTITLE:;
#ARTIST:Twenty One Pilots;
#TITLETRANSLIT:;
#SUBTITLETRANSLIT:;
#ARTISTTRANSLIT:;
#GENRE:Alternative Hip-Hop;
#ORIGIN:;
#CREDIT:;
#BANNER:Heathens.png;
#BACKGROUND:Heathens-bg.png;
#PREVIEWVID:;
#JACKET:jacket.png;
#CDIMAGE:;
#DISCIMAGE:;
#LYRICSPATH:;
#CDTITLE:;
#MUSIC:Heathens.ogg;
#OFFSET:0.010000;
#SAMPLESTART:77.364075;
#SAMPLELENGTH:16.394001;
#SELECTABLE:YES;
#BPMS:0.000=90.000;
#STOPS:;
#DELAYS:;
#WARPS:;
#TIMESIGNATURES:0.000=4=4;
#TICKCOUNTS:0.000=4;
#COMBOS:0.000=1;
#SPEEDS:0.000=1.000=0.000=0;
#SCROLLS:0.000=1.000;
#FAKES:;
#LABELS:0.000=Song Start;
#BGCHANGES:2.000=Heathens.avi=1.000=0=0=1=====,
99999=-nosongbg-=1.000=0=0=0 // don't automatically add -songbackground-
;
#KEYSOUNDS:;
#ATTACKS:
;

//---------------dance-single - ----------------
#NOTEDATA:;
#CHARTNAME:;
#STEPSTYPE:dance-single;
#DESCRIPTION:;
#CHARTSTYLE:;
#DIFFICULTY:Hard;
#METER:6;
#RADARVALUES:0.342979,0.385851,0.181989,0.230986,0.010499,284.000000,26.000000,33.000000,0.000000,0.000000,0.000000,0.000000,0.000000,0.342979,0.385851,0.181989,0.230986,0.010499,284.000000,26.000000,33.000000,0.000000,0.000000,0.000000,0.000000,0.000000;
#CREDIT:Ben Speirs;
#NOTES:
0000
0000
0000
0000
,
0000
0000
0000
0000
,
1000
0100
0001
0010
,
2002
0000
0000
0000
3003
0000
0000
0001
,
0100
0010
0000
1000
0100
0010
0000
0002
,
0200
0000
0000
0000
0303
0000
0000
0100
,
0001
1000
0000
0100
1000
0010
0000
2000
,
0200
0000
3300
0000
,
1001
1000
0100
0010
0001
0001
0100
0010
,
2000
0000
0000
0000
3100
1000
0001
0000
,
1000
1000
0010
1000
0010
0010
0100
0001
,
0020
0000
0000
0000
0130
0000
0010
0001
,
0100
0002
0000
1003
0010
2000
0000
3001
,
0020
0000
0100
0000
0001
0000
0031
0100
,
0010
0020
0000
1030
0100
0100
0010
0010
,
0002
2000
0000
0000
3003
0000
1000
0000
,
0010
0100
0010
0010
0100
0001
0010
0010
,
0001
1000
0100
0000
0001
1000
0100
0000
,
1000
0001
0100
0100
0010
0010
1000
0010
,
0100
0001
0010
0000
0100
0001
0010
0000
,
0000
0001
0100
0000
0010
0010
1000
0001
,
0000
1000
0100
0000
1000
1000
0010
0100
,
0000
0010
1000
0000
0001
0001
0010
0001
,
0100
0000
0010
1000
1000
0001
0001
0000
,
0010
0001
0100
0010
1000
0100
1001
0000
,
1100
0100
0010
0001
0101
0100
0010
1000
,
1001
0000
1000
0001
0100
0000
0010
0000
,
1010
1000
0100
0010
0110
0100
0010
0001
,
0101
0000
0010
0100
0001
0000
1000
0000
,
0010
1000
0100
0001
,
2002
0000
3003
0000
,
0001
0100
1000
0010
,
2002
0000
0000
0000
3003
0000
0000
1000
,
0010
0200
0000
0310
0100
0002
0000
0103
,
0002
0000
1000
0000
0010
0000
0013
0001
,
0100
0200
0000
0310
1000
1000
0100
0100
,
1000
0020
0000
0000
0130
0000
0110
0000
,
0101
0100
0010
1000
1010
1000
0100
0010
,
0110
0000
0010
0000
0001
0000
1000
0000
0010
0000
0100
0000
0001
1000
0000
0000
,
1010
1000
0001
0100
0101
0100
0010
1000
,
1001
0000
0001
0000
0010
0000
0001
0000
0100
0000
0010
0000
1000
0100
0000
0000
,
1100
0100
0010
0001
0101
0100
0010
1000
,
1001
0000
0001
0000
0010
0000
0001
0000
1000
0000
0010
0000
0100
0010
0000
0000
,
0110
0100
0001
0010
0110
0010
0001
1000
,
1100
0100
1000
0010
0100
0001
1000
0000
,
2001
0100
0010
3001
,
0202
0000
0303
0000
0100
0001
1000
0000
,
0010
0010
0100
0001
0010
0010
0100
0010
,
0002
0000
0100
0000
0103
0000
0000
0001
,
1000
0200
0000
1300
0001
0020
0000
0031
,
0200
0000
0010
0000
0310
0000
0000
0100
,
0001
2000
0000
3010
1000
0002
0000
0013
,
0200
0000
0300
0000
;

//---------------dance-single - ----------------
#NOTEDATA:;
#CHARTNAME:;
#STEPSTYPE:dance-single;
#DESCRIPTION:;
#CHARTSTYLE:;
#DIFFICULTY:Challenge;
#METER:9;
#RADARVALUES:0.524967,0.569590,0.209987,0.160990,0.465471,472.000000,30.000000,23.000000,0.000000,0.000000,0.000000,0.000000,0.000000,0.524967,0.569590,0.209987,0.160990,0.465471,472.000000,30.000000,23.000000,0.000000,0.000000,0.000000,0.000000,0.000000;
#CREDIT:Ben Speirs;
#NOTES:
0000
0000
0000
0000
,
0000
0000
0000
0000
,
0001
0100
0010
1000
0100
0010
0001
0100
,
2002
0000
0000
0000
3003
0000
0000
1000
,
1100
0200
0000
0310
0011
0002
0000
0103
,
0120
0000
1000
0000
0001
0000
1030
0100
,
1100
0002
0000
0103
0101
1000
0010
0100
,
0110
2002
0000
0000
3003
0000
0000
0000
,
0100
0000
0000
0100
0010
0000
0000
0010
1000
0000
0000
1000
0100
0000
0000
0100
0010
0000
0000
0010
0001
0000
0000
0001
1000
0000
0000
1000
0010
0000
0000
0010
,
0200
0000
1300
0100
0001
1000
1100
0000
,
0001
0000
0000
0001
1000
0000
0000
1000
0100
0000
0000
0100
0010
0000
0000
0010
0001
0000
0000
0001
1000
0000
0000
1000
0010
0000
0000
0010
0100
0000
0000
0100
,
0002
0000
0000
0000
0013
0000
0100
0000
0010
0000
0001
0000
1000
0000
0010
0100
,
0010
0000
0100
0000
0002
0000
0000
0000
0000
0000
0000
0003
0100
0000
0010
0000
0100
0000
0010
0000
2000
0000
0000
0000
0000
0000
0000
0000
3001
0000
0010
0000
,
0100
0000
1000
0000
0010
0000
0100
0000
0001
0000
1000
0000
0100
0000
0010
0001
,
0100
0001
0100
0000
0000
0000
0010
1000
0100
1000
0100
0000
1000
0000
0010
0100
,
0010
1000
0100
0010
0001
0100
0101
0100
,
0010
0000
1000
0010
0000
1000
0100
0000
1000
0100
0000
1000
0001
0000
1000
0001
0000
1000
0001
0000
0100
0001
0000
0100
,
0010
0100
0101
0000
0010
1000
1100
0000
,
0001
0000
0010
0001
0000
0010
0001
0000
0100
0001
0000
0100
0010
0000
0100
0010
0000
0100
0010
0000
1000
0010
0000
1000
,
0100
0010
0110
0000
0001
1000
1001
0000
,
1000
0000
0010
0000
0100
0001
0100
0001
1000
0001
1000
0000
0001
0010
0100
1000
,
0001
0000
0100
0000
0010
1000
0010
1000
0001
1000
0001
0000
1000
0100
0010
0001
,
1000
0000
0001
0000
0100
0000
0010
1000
0001
0000
0010
0000
0001
0010
0100
1000
,
0002
0000
0000
0000
0103
0000
0001
1000
0001
0000
1000
0000
2100
0000
0000
0000
,
3001
0000
1000
0000
0010
0000
0100
0000
0001
0000
0010
0000
0001
1000
0000
0000
,
0100
1000
0100
1000
0010
0100
0010
0100
0001
1000
0001
1000
0100
0010
0100
0010
,
0001
0000
0100
0000
0010
0000
1000
0001
1000
0000
0001
0000
0100
0010
0000
0000
,
1000
0100
1000
0100
0010
0100
0010
0100
0010
0001
0010
0001
1000
0001
1000
0001
,
0100
0010
1000
0100
0010
0001
1000
0000
,
0101
0100
0010
1000
1010
0010
1000
0001
,
2002
0000
3003
0000
,
0101
0100
0010
1000
1100
0100
0010
0001
,
2002
0000
0000
0000
3003
0000
0000
0001
,
0101
0000
0100
0000
0010
0000
1000
0000
1100
0000
0100
0010
0001
0000
0100
0000
,
0101
0000
0010
0000
1000
0000
0001
0010
0001
0000
1000
0010
1000
0000
0001
0000
,
0101
0000
0100
0000
0010
0000
1000
0100
0010
0000
0001
0100
0010
0000
1000
0001
,
1000
0000
0000
0010
0000
0000
1000
0000
0000
0100
0000
0000
0010
0000
0000
0001
0000
0000
0100
0010
0100
0001
0010
0100
,
1000
0000
0000
1000
0010
0000
0000
0010
0100
0000
0000
0100
0001
0000
0000
0001
0010
0000
0000
0010
0100
0000
0000
0100
1000
0000
0000
1000
0010
0000
0000
0010
,
0100
0000
0001
0100
0001
0000
1000
0100
1000
0000
0001
0000
0010
0010
0000
0000
,
0001
0000
0000
0001
0100
0000
0000
0100
0010
0000
0000
0010
1000
0000
0000
1000
0100
0000
0000
0100
0010
0000
0000
0010
0001
0000
0000
0001
1000
0000
0000
1000
,
0010
0000
0100
0001
0100
0000
0010
1000
0010
0000
1000
0000
0001
1000
0000
0000
,
0001
0100
1000
0100
0001
0010
0100
1000
0001
0100
1000
0100
0001
0010
0100
1000
,
0001
0000
0100
0010
0100
0000
0001
1000
0001
0000
0100
0000
0010
0010
0000
0000
,
1000
0010
0100
0001
1000
0100
0001
0100
1000
0010
0100
0001
1000
0100
0001
0100
,
1000
0000
0010
1000
0010
0000
1000
0001
1000
0000
0010
0000
0100
0000
0000
0000
,
0201
0000
0010
0000
1000
0000
0301
1000
,
0100
0000
1000
0010
0010
0100
1001
0000
,
0010
1000
0100
1100
1000
0010
0100
0101
,
0020
0000
0000
0000
1000
0000
0000
0000
0100
0000
0000
0000
0130
0000
0001
0100
,
0001
0000
2000
0000
0000
0000
3100
1000
0100
0000
1000
0000
0001
0000
0100
0000
,
2001
0000
0000
0000
0010
0000
0000
0000
0001
0000
0000
0000
3100
0000
1000
0001
,
1000
0000
0100
0000
0010
0000
0001
0100
0001
0000
1000
0000
0010
0000
0100
0001
,
2000
0000
3000
0000
;

//---------------dance-double - ----------------
#NOTEDATA:;
#CHARTNAME:;
#STEPSTYPE:dance-double;
#DESCRIPTION:;
#CHARTSTYLE:;
#DIFFICULTY:Challenge;
#METER:9;
#RADARVALUES:0.519968,0.606337,0.195988,0.174989,0.468971,467.000000,28.000000,25.000000,0.000000,0.000000,0.000000,0.000000,0.000000,0.519968,0.606337,0.195988,0.174989,0.468971,467.000000,28.000000,25.000000,0.000000,0.000000,0.000000,0.000000,0.000000;
#CREDIT:Ben Speirs;
#NOTES:
00000000
00000000
00000000
00000000
,
00000000
00000000
00000000
00000000
,
10000000
01000000
00010000
00001000
00000100
00000001
00000010
00001000
,
00020000
00000000
00000000
00000000
00030000
00000000
00000000
00001000
,
00010000
00020100
00000000
00031000
00100000
00201000
00000000
00301000
,
00020000
00000000
00100000
00000000
00001000
00000000
00031000
00010000
,
00000100
00000100
00000010
00000001
00000100
00000100
00000010
00001000
,
00000200
00020000
00000000
00000000
00030300
00000000
00000000
00000000
,
00011000
00000000
00000000
00001000
00100000
00000000
00000000
00100000
00010000
00000000
00000000
00010000
01000000
00000000
00000000
01000000
00100000
00000000
00000000
00100000
10000000
00000000
00000000
10000000
01000000
00000000
00000000
01000000
00100000
00000000
00000000
00100000
,
00020000
00000000
01030000
00100000
01000000
00010000
10000000
00000000
,
00100000
00000000
00000000
00100000
10000000
00000000
00000000
10000000
01000000
00000000
00000000
01000000
00010000
00000000
00000000
00010000
00001000
00000000
00000000
00001000
00000100
00000000
00000000
00000100
00000001
00000000
00000000
00000001
00001000
00000000
00000000
00001000
,
00000020
00000000
00000000
00000000
00000130
00000000
00000001
00000000
00001000
00000000
00000010
00000000
00000100
00000000
00000001
00000010
,
00000100
00001000
00000020
00000000
00000000
00000000
00000130
00001000
00010000
00100000
20000000
00000000
00000000
00000000
31000000
10000000
,
00010000
00000000
00100000
00000000
00110000
00000000
00010000
01000000
00100000
00000000
10000000
00000000
10100000
00000000
00010000
10000000
,
00010000
10000000
01000000
00000000
00100000
00000000
00010000
01000000
00010000
00000000
01000000
00001000
01000000
00000000
00001000
00010000
,
00000100
00000000
00000010
00000000
00000001
00000000
00000100
00000001
00001000
00000000
00000010
00000000
00001010
00000000
00000000
00000000
,
00000001
00000000
00000100
00000001
00000000
00000100
00000010
00000000
00001000
00000010
00000000
00001000
00000100
00000000
00010000
00000100
00000000
00010000
00001000
00000000
00100000
00001000
00000000
00100000
,
00010000
01000000
01100000
00000000
10000000
01000000
11000000
00000000
,
00010000
00000000
10000000
00010000
00000000
10000000
00001000
00000000
01000000
00001000
00000000
01000000
00000100
00000000
00010000
00000100
00000000
00010000
00000010
00000000
00001000
00000010
00000000
00001000
,
00000001
00000010
00001001
00000000
00001000
00000010
00001001
00000000
,
00000001
00000000
00000100
00000000
00000010
00001000
00000010
00001000
00000100
00001000
00000100
00000000
00010000
00000100
00010000
00001000
,
00100000
00000000
00010000
00000000
01000000
00010000
01000000
00010000
10000000
01000000
10000000
00000000
00010000
01000000
00001000
00010000
,
00000100
00000000
00001000
00000000
00000010
00000100
00000010
00000100
00000001
00001000
00000001
00000000
00001000
00000100
00010000
00001000
,
00200000
00000000
00000000
00000000
01300000
00000000
00100000
00010000
00100000
00000000
00010000
00000000
10000000
00000000
00000000
00000000
,
10100000
00000000
00100000
00000000
01100000
00000000
01000000
00000000
01010000
00000000
00010000
00000000
10010000
10000000
00000000
00000000
,
00100000
10000000
01000000
00100000
00010000
01000000
00100000
01000000
00010000
00100000
01000000
00100000
00010000
10000000
00100000
01000000
,
00002000
00000000
00000000
00000000
00010000
00000000
00000000
00000000
00000100
00000000
00003100
00000000
00000010
00001000
00000000
00000000
,
00000001
00000100
00001000
00000100
00000010
00001000
00000100
00000010
00000001
00000100
00000010
00000100
00000001
00000010
00000100
00001000
,
00000020
00000000
00001000
00000100
00001000
00001000
00010030
00000000
,
00010100
00000100
00010000
00001000
00011000
00001000
00100000
00010000
,
00120000
01000000
00100000
00130000
,
11000000
01000000
00100000
00010000
00110000
00100000
00001000
00010000
,
00022000
00000000
00000000
00000000
00033000
00000000
00000000
00000100
,
00001100
00000000
00000100
00001000
00000100
00000000
00001000
00000000
00001001
00000000
00000001
00001000
00000001
00000000
00000100
00000000
,
00000201
00000000
00001300
00000100
00000001
00000010
00000100
00001000
,
00001100
00000000
00000100
00001000
00000100
00000000
00010000
00000000
00011000
00000000
00010000
00001000
00010000
00000000
00001000
00000000
,
00101000
00000000
00000000
00000000
00000000
00000000
00100000
00000000
00000000
00010000
00000000
00000000
00100000
00000000
00000000
00000000
00000000
00000000
00010000
00000000
00000000
01000000
00000000
00000000
00010000
00000000
00000000
00000000
00000000
00000000
10000000
00000000
00000000
00000000
00000000
00000000
00100000
00000000
01000000
00000000
00100000
00000000
10000000
00000000
01000000
00000000
00100000
00000000
,
00010000
00000000
00000000
00010000
01000000
00000000
00000000
01000000
00100000
00000000
00000000
00100000
10000000
00000000
00000000
10000000
01000000
00000000
00000000
01000000
00100000
00000000
00000000
00100000
00010000
00000000
00000000
00010000
01000000
00000000
00000000
01000000
,
00002000
00000000
00000000
00000000
00013000
00000000
00000100
00001000
00000100
00000000
00001000
00000000
00000010
00000010
00000000
00000000
,
00000100
00000000
00000000
00000100
00000001
00000000
00000000
00000001
00000010
00000000
00000000
00000010
00000100
00000000
00000000
00000100
00001000
00000000
00000000
00001000
00000010
00000000
00000000
00000010
00000100
00000000
00000000
00000100
00000001
00000000
00000000
00000001
,
00002000
00000000
00000000
00000000
00003100
00000000
00010000
00000100
00010000
00000000
00001000
00000000
00100000
00100000
00000000
00000000
,
00001000
00000000
00000000
00001000
00010000
00000000
00000000
00010000
00100000
00000000
00000000
00100000
10000000
00000000
00000000
10000000
01000000
00000000
00000000
01000000
00010000
00000000
00000000
00010000
00001000
00000000
00000000
00001000
00000100
00000000
00000000
00000100
,
00000002
00000000
00000000
00000000
00000103
00000000
00000010
00001000
00000010
00000000
00001000
00000000
00000100
00000100
00000000
00000000
,
00001000
00000000
00000000
00001000
00000100
00000000
00000000
00000100
00010000
00000000
00000000
00010000
00001000
00000000
00000000
00001000
00100000
00000000
00000000
00100000
00010000
00000000
00000000
00010000
01000000
00000000
00000000
01000000
10000000
00000000
00000000
10000000
,
02000000
00000000
00000000
00000000
03100000
00000000
01000000
00010000
01000000
00000000
00100000
00000000
20000000
00000000
00000000
00000000
,
30010000
00000000
00000000
00000000
,
10100000
00000000
00010000
01000000
01000000
00100000
10000000
00000000
,
10000000
01000000
00010000
00001000
00001000
00000100
00000001
00001000
,
00002000
00000000
00000000
00000000
00000010
00000000
00000000
00000000
00003001
00000000
00000000
00000000
00000100
00000000
00000010
00001000
,
00000010
00000000
00010000
00000000
00000100
00000000
00001000
00000010
00001000
00000000
00000001
00000000
00000010
00000000
00000100
00001000
,
00000200
00000000
00000000
00000000
00010000
00000000
00001000
00000000
00001300
00000000
00000000
00000000
00001100
00000000
00000100
00010000
,
00001000
00000000
00010000
00000000
00001000
00000000
01000000
00010000
01000000
00000000
00100000
10000000
00100000
00000000
10000000
00010000
,
00200000
00000000
00300000
00000000
;

//---------------dance-single - ----------------
#NOTEDATA:;
#CHARTNAME:;
#STEPSTYPE:dance-single;
#DESCRIPTION:;
#CHARTSTYLE:;
#DIFFICULTY:Medium;
#METER:4;
#RADARVALUES:0.202987,0.275608,0.048997,0.146991,0.000000,175.000000,7.000000,21.000000,0.000000,0.000000,0.000000,0.000000,0.000000,0.202987,0.275608,0.048997,0.146991,0.000000,175.000000,7.000000,21.000000,0.000000,0.000000,0.000000,0.000000,0.000000;
#CREDIT:Ben Speirs;
#NOTES:
0000
0000
0000
0000
,
0000
0000
0000
0000
,
1000
0001
0010
0001
,
0200
0000
0300
0000
,
0010
0010
0000
0000
1000
1000
0000
0000
,
0002
0000
0003
0000
,
1000
1000
0000
0000
0100
0100
0000
0000
,
0020
0000
0030
0000
,
1001
0000
1000
0000
0010
0000
0100
0001
,
2000
0000
3000
0000
,
0100
0000
1000
0000
0010
0000
1000
0001
,
0020
0000
0030
0000
,
0001
0001
0000
0000
1000
1000
0000
0000
,
0010
0010
0100
0001
,
1000
1000
0000
0000
0100
0100
0000
0000
,
0010
0010
0001
0000
,
1000
0010
0100
0100
,
0001
0000
1000
0000
,
0001
0100
0010
0010
,
1000
0000
0001
0000
,
1000
0100
0100
0000
0100
0000
1000
0000
,
0001
0100
0100
0000
0100
0000
0001
0000
,
1000
0010
0010
0000
0010
0000
1000
0000
,
0002
0000
0003
0000
0010
0001
0010
0000
,
0002
0203
0320
1030
,
1001
0001
0100
0010
,
1000
0000
0100
0000
0010
0000
0001
1000
,
0010
0100
0001
1000
,
0100
0010
0001
1000
,
0020
0000
0000
0030
,
0200
0000
0000
0300
,
0001
0001
1000
1000
,
0020
0000
0000
0030
,
1001
0000
0000
0000
1000
0000
0010
0100
,
0010
1000
0001
0000
,
0010
0000
0001
0100
,
0010
1000
0001
0200
,
0301
0100
0001
0001
0100
0001
0100
0100
,
0002
0000
0003
0101
,
1000
0100
1000
1000
0100
1000
0100
0100
,
2000
0000
3000
1001
,
1000
0010
1000
1000
0010
1000
0010
0010
,
2000
0000
3000
1010
,
0001
0010
0001
0001
0010
0001
0010
0010
,
0002
0000
0003
0011
,
2000
0000
0000
3000
,
0001
1000
0010
0000
,
0100
0100
0010
1000
,
0002
0000
0003
0000
,
1000
1000
0000
0000
0001
0001
0000
0000
,
0200
0000
0300
0001
,
1000
1000
0000
0000
0001
0001
0000
0000
,
0200
0000
0300
0000
;

//---------------dance-single - ----------------
#NOTEDATA:;
#CHARTNAME:;
#STEPSTYPE:dance-single;
#DESCRIPTION:;
#CHARTSTYLE:;
#DIFFICULTY:Easy;
#METER:2;
#RADARVALUES:0.124992,0.146991,0.020999,0.160990,0.000000,99.000000,3.000000,23.000000,0.000000,0.000000,0.000000,0.000000,0.000000,0.124992,0.146991,0.020999,0.160990,0.000000,99.000000,3.000000,23.000000,0.000000,0.000000,0.000000,0.000000,0.000000;
#CREDIT:Ben Speirs;
#NOTES:
// measure 0
0000
0000
0000
0000
,  // measure 1
0000
0000
0000
0000
,  // measure 2
0010
0000
0100
0000
,  // measure 3
0002
0003
0000
0000
,  // measure 4
2000
3000
0020
0030
,  // measure 5
0200
0000
0300
0000
,  // measure 6
0002
0003
0020
0030
,  // measure 7
0200
0000
0300
0000
,  // measure 8
1001
0000
1000
0010
,  // measure 9
0010
0000
1000
0000
,  // measure 10
0001
0000
1000
0100
,  // measure 11
0100
0000
1000
0000
,  // measure 12
0020
0030
0200
0300
,  // measure 13
0002
0000
0003
0000
,  // measure 14
2000
3000
0002
0003
,  // measure 15
0020
0000
0030
0000
,  // measure 16
0001
0000
0100
0000
,  // measure 17
0010
0010
0000
0000
,  // measure 18
0010
0000
1000
0000
,  // measure 19
0100
0100
0000
0000
,  // measure 20
0000
1000
0001
0100
,  // measure 21
0000
0001
1000
0100
,  // measure 22
0000
1000
0001
0010
,  // measure 23
0010
0000
0001
0000
,  // measure 24
1000
1000
1000
0000
,  // measure 25
1001
0000
0001
1000
,  // measure 26
0010
0000
0000
0100
,  // measure 27
0010
0000
1000
0100
,  // measure 28
0010
0000
0000
0001
,  // measure 29
1000
0000
0000
0000
,  // measure 30
0001
0000
0000
0000
,  // measure 31
0200
0300
0200
0300
,  // measure 32
0200
0000
0300
0000
,  // measure 33
0010
0000
1000
0000
,  // measure 34
0002
0000
0003
0000
,  // measure 35
0001
0000
1000
0000
,  // measure 36
0200
0000
0300
0000
,  // measure 37
0110
0000
0010
0001
,  // measure 38
0200
0000
0300
0000
,  // measure 39
0001
0000
0100
0010
,  // measure 40
2000
0000
3000
0000
,  // measure 41
0100
0000
1000
0001
,  // measure 42
0020
0000
0030
0000
,  // measure 43
0001
0000
0100
0001
,  // measure 44
2000
0000
3000
0000
,  // measure 45
0010
0000
0000
0000
,  // measure 46
0100
0000
0000
0000
,  // measure 47
0001
0000
1000
0000
,  // measure 48
0010
0000
0000
0000
,  // measure 49
1000
1000
0100
0100
,  // measure 50
0010
0000
0000
0000
,  // measure 51
0001
0001
0100
0100
,  // measure 52
0020
0000
0030
0000
;

//---------------dance-single - ----------------
#NOTEDATA:;
#CHARTNAME:;
#STEPSTYPE:dance-single;
#DESCRIPTION:;
#CHARTSTYLE:;
#DIFFICULTY:Beginner;
#METER:1;
#RADARVALUES:0.077995,0.109193,0.020999,0.000000,0.000000,75.000000,3.000000,0.000000,0.000000,0.000000,0.000000,0.000000,0.000000,0.077995,0.109193,0.020999,0.000000,0.000000,75.000000,3.000000,0.000000,0.000000,0.000000,0.000000,0.000000,0.000000;
#CREDIT:Ben Speirs;
#NOTES:
// measure 0
0000
0000
0000
0000
,  // measure 1
0000
0000
0000
0000
,  // measure 2
0001
0000
0001
0000
,  // measure 3
0001
0000
0000
0000
,  // measure 4
0100
0000
0000
0000
,  // measure 5
0010
0000
0000
0000
,  // measure 6
1000
0000
0000
0000
,  // measure 7
0001
0000
0000
0000
,  // measure 8
1001
0000
0000
1000
,  // measure 9
1000
0000
0000
0000
,  // measure 10
0010
0000
0000
0100
,  // measure 11
0100
0000
0000
0000
,  // measure 12
0001
0000
0001
0000
,  // measure 13
0001
0000
0000
0000
,  // measure 14
1000
0000
1000
0000
,  // measure 15
1000
0000
0000
0000
,  // measure 16
0010
0000
0000
0000
,  // measure 17
0100
0100
0000
0000
,  // measure 18
0001
0000
0000
0000
,  // measure 19
1000
1000
0000
0000
,  // measure 20
0000
0010
0010
0000
,  // measure 21
0000
1000
1000
0000
,  // measure 22
0000
0001
0001
0000
,  // measure 23
0100
0000
0000
0000
,  // measure 24
0010
0000
0000
0000
,  // measure 25
1001
0000
0001
0000
,  // measure 26
0001
0000
0000
0000
,  // measure 27
0100
0000
0100
0000
,  // measure 28
0100
0000
0000
0000
,  // measure 29
0010
0000
0000
0000
,  // measure 30
1000
0000
0000
0000
,  // measure 31
0001
0000
0000
0000
,  // measure 32
0010
0000
0000
0000
,  // measure 33
0000
0001
0000
0001
,  // measure 34
0001
0000
0000
0000
,  // measure 35
0000
1000
0000
1000
,  // measure 36
1000
0000
0000
0000
,  // measure 37
1001
0000
1000
0000
,  // measure 38
1000
0000
0000
0010
,  // measure 39
0010
0000
0010
0000
,  // measure 40
0010
0000
0000
1000
,  // measure 41
1000
0000
1000
0000
,  // measure 42
1000
0000
0000
0001
,  // measure 43
0001
0000
0001
0000
,  // measure 44
0001
0000
0000
0000
,  // measure 45
0100
0000
0000
0000
,  // measure 46
0010
0000
0000
0000
,  // measure 47
1000
0000
1000
0000
,  // measure 48
1000
0000
0000
0000
,  // measure 49
0001
0001
0000
0000
,  // measure 50
0100
0000
0000
0000
,  // measure 51
0010
0010
0000
0000
,  // measure 52
1000
0000
0000
0000
;
